  0
SECTION
  2
HEADER
  9
$ACADVER
  1
AC1015
  9
$ACADMAINTVER
 70
     6
  9
$DWGCODEPAGE
  3
ANSI_1252
  9
$INSBASE
 10
0.0
 20
0.0
 30
0.0
  9
$EXTMIN
 10
0.0
 20
0.0
 30
0.0
  9
$EXTMAX
 10
2940.0
 20
2079.0
 30
0.0
  9
$LIMMIN
 10
0.0
 20
0.0
  9
$LIMMAX
 10
2940.0
 20
2079.0
  9
$ORTHOMODE
 70
     0
  9
$REGENMODE
 70
     1
  9
$FILLMODE
 70
     1
  9
$QTEXTMODE
 70
     0
  9
$MIRRTEXT
 70
     1
  9
$LTSCALE
 40
7.0
  9
$ATTMODE
 70
     1
  9
$TEXTSIZE
 40
24.5
  9
$TRACEWID
 40
1.0
  9
$TEXTSTYLE
  7
STANDARD
  9
$CLAYER
  8
0
  9
$CELTYPE
  6
ByLayer
  9
$CECOLOR
 62
   256
  9
$CELTSCALE
 40
1.0
  9
$DISPSILH
 70
     0
  9
$DIMSCALE
 40
1.0
  9
$DIMASZ
 40
23.114
  9
$DIMEXO
 40
7.0
  9
$DIMDLI
 40
3.75
  9
$DIMRND
 40
0.0
  9
$DIMDLE
 40
0.0
  9
$DIMEXE
 40
7.0
  9
$DIMTP
 40
0.0
  9
$DIMTM
 40
0.0
  9
$DIMTXT
 40
24.5
  9
$DIMCEN
 40
2.5
  9
$DIMTSZ
 40
0.0
  9
$DIMTOL
 70
     0
  9
$DIMLIM
 70
     0
  9
$DIMTIH
 70
     1
  9
$DIMTOH
 70
     1
  9
$DIMSE1
 70
     0
  9
$DIMSE2
 70
     0
  9
$DIMTAD
 70
     1
  9
$DIMZIN
 70
     0
  9
$DIMBLK
  1

  9
$DIMASO
 70
     1
  9
$DIMSHO
 70
     1
  9
$DIMPOST
  1

  9
$DIMAPOST
  1

  9
$DIMALT
 70
     0
  9
$DIMALTD
 70
     3
  9
$DIMALTF
 40
0.0393700787
  9
$DIMLFAC
 40
1.0
  9
$DIMTOFL
 70
     1
  9
$DIMTVP
 40
0.0
  9
$DIMTIX
 70
     0
  9
$DIMSOXD
 70
     0
  9
$DIMSAH
 70
     0
  9
$DIMBLK1
  1

  9
$DIMBLK2
  1

  9
$DIMSTYLE
  2
ISO-25
  9
$DIMCLRD
 70
     0
  9
$DIMCLRE
 70
     0
  9
$DIMCLRT
 70
     0
  9
$DIMTFAC
 40
1.0
  9
$DIMGAP
 40
21.0
  9
$DIMJUST
 70
     0
  9
$DIMSD1
 70
     0
  9
$DIMSD2
 70
     0
  9
$DIMTOLJ
 70
     0
  9
$DIMTZIN
 70
     0
  9
$DIMALTZ
 70
     0
  9
$DIMALTTZ
 70
     0
  9
$DIMUPT
 70
     0
  9
$DIMDEC
 70
     2
  9
$DIMTDEC
 70
     2
  9
$DIMALTU
 70
     2
  9
$DIMALTTD
 70
     3
  9
$DIMTXSTY
  7
STANDARD
  9
$DIMAUNIT
 70
     0
  9
$DIMADEC
 70
     2
  9
$DIMALTRND
 40
0.0
  9
$DIMAZIN
 70
     0
  9
$DIMDSEP
 70
    44
  9
$DIMATFIT
 70
     3
  9
$DIMFRAC
 70
     0
  9
$DIMLDRBLK
  1

  9
$DIMLUNIT
 70
     2
  9
$DIMLWD
 70
    -2
  9
$DIMLWE
 70
    -2
  9
$DIMTMOVE
 70
     0
  9
$LUNITS
 70
     2
  9
$LUPREC
 70
     2
  9
$SKETCHINC
 40
1.0
  9
$FILLETRAD
 40
10.0
  9
$AUNITS
 70
     0
  9
$AUPREC
 70
     2
  9
$MENU
  1
.
  9
$ELEVATION
 40
0.0
  9
$PELEVATION
 40
0.0
  9
$THICKNESS
 40
0.0
  9
$LIMCHECK
 70
     0
  9
$CHAMFERA
 40
0.0
  9
$CHAMFERB
 40
0.0
  9
$CHAMFERC
 40
0.0
  9
$CHAMFERD
 40
0.0
  9
$SKPOLY
 70
     0
  9
$TDCREATE
 40
2460077.459877535
  9
$TDUCREATE
 40
2460077.376544201
  9
$TDUPDATE
 40
2460077.459881447
  9
$TDUUPDATE
 40
2460077.376548113
  9
$TDINDWG
 40
0.0000000116
  9
$TDUSRTIMER
 40
0.0000000116
  9
$USRTIMER
 70
     1
  9
$ANGBASE
 50
0.0
  9
$ANGDIR
 70
     0
  9
$PDMODE
 70
     0
  9
$PDSIZE
 40
-1.0
  9
$PLINEWID
 40
0.0
  9
$SPLFRAME
 70
     0
  9
$SPLINETYPE
 70
     6
  9
$SPLINESEGS
 70
     8
  9
$HANDSEED
  5
70F
  9
$SURFTAB1
 70
     6
  9
$SURFTAB2
 70
     6
  9
$SURFTYPE
 70
     6
  9
$SURFU
 70
     6
  9
$SURFV
 70
     6
  9
$UCSBASE
  2

  9
$UCSNAME
  2

  9
$UCSORG
 10
0.0
 20
0.0
 30
0.0
  9
$UCSXDIR
 10
1.0
 20
0.0
 30
0.0
  9
$UCSYDIR
 10
0.0
 20
1.0
 30
0.0
  9
$UCSORTHOREF
  2

  9
$UCSORTHOVIEW
 70
     0
  9
$UCSORGTOP
 10
0.0
 20
0.0
 30
0.0
  9
$UCSORGBOTTOM
 10
0.0
 20
0.0
 30
0.0
  9
$UCSORGLEFT
 10
0.0
 20
0.0
 30
0.0
  9
$UCSORGRIGHT
 10
0.0
 20
0.0
 30
0.0
  9
$UCSORGFRONT
 10
0.0
 20
0.0
 30
0.0
  9
$UCSORGBACK
 10
0.0
 20
0.0
 30
0.0
  9
$PUCSBASE
  2

  9
$PUCSNAME
  2

  9
$PUCSORG
 10
0.0
 20
0.0
 30
0.0
  9
$PUCSXDIR
 10
1.0
 20
0.0
 30
0.0
  9
$PUCSYDIR
 10
0.0
 20
1.0
 30
0.0
  9
$PUCSORTHOREF
  2

  9
$PUCSORTHOVIEW
 70
     0
  9
$PUCSORGTOP
 10
0.0
 20
0.0
 30
0.0
  9
$PUCSORGBOTTOM
 10
0.0
 20
0.0
 30
0.0
  9
$PUCSORGLEFT
 10
0.0
 20
0.0
 30
0.0
  9
$PUCSORGRIGHT
 10
0.0
 20
0.0
 30
0.0
  9
$PUCSORGFRONT
 10
0.0
 20
0.0
 30
0.0
  9
$PUCSORGBACK
 10
0.0
 20
0.0
 30
0.0
  9
$USERI1
 70
     0
  9
$USERI2
 70
     0
  9
$USERI3
 70
     0
  9
$USERI4
 70
     0
  9
$USERI5
 70
     0
  9
$USERR1
 40
0.0
  9
$USERR2
 40
0.0
  9
$USERR3
 40
0.0
  9
$USERR4
 40
0.0
  9
$USERR5
 40
0.0
  9
$WORLDVIEW
 70
     1
  9
$SHADEDGE
 70
     3
  9
$SHADEDIF
 70
    70
  9
$TILEMODE
 70
     1
  9
$MAXACTVP
 70
    64
  9
$PINSBASE
 10
0.0
 20
0.0
 30
0.0
  9
$PLIMCHECK
 70
     0
  9
$PEXTMIN
 10
1.0000000000E+20
 20
1.0000000000E+20
 30
1.0000000000E+20
  9
$PEXTMAX
 10
-1.0000000000E+20
 20
-1.0000000000E+20
 30
-1.0000000000E+20
  9
$PLIMMIN
 10
0.0
 20
0.0
  9
$PLIMMAX
 10
420.0
 20
297.0
  9
$UNITMODE
 70
     0
  9
$VISRETAIN
 70
     1
  9
$PLINEGEN
 70
     0
  9
$PSLTSCALE
 70
     1
  9
$TREEDEPTH
 70
  3020
  9
$CMLSTYLE
  2
Standard
  9
$CMLJUST
 70
     0
  9
$CMLSCALE
 40
20.0
  9
$PROXYGRAPHICS
 70
     1
  9
$MEASUREMENT
 70
     1
  9
$CELWEIGHT
370
    -1
  9
$ENDCAPS
280
     0
  9
$JOINSTYLE
280
     0
  9
$LWDISPLAY
290
     1
  9
$INSUNITS
 70
     4
  9
$HYPERLINKBASE
  1

  9
$STYLESHEET
  1

  9
$XEDIT
290
     1
  9
$CEPSNTYPE
380
     0
  9
$PSTYLEMODE
290
     1
  9
$FINGERPRINTGUID
  2
{c4012055-0330-4833-8b73-0072b4304cd4}
  9
$VERSIONGUID
  2
{FAEB1C32-E019-11D5-929B-00C0DF256EC4}
  9
$EXTNAMES
290
     1
  9
$PSVPSCALE
 40
0.0
  9
$OLESTARTUP
290
     0
  0
ENDSEC
  0
SECTION
  2
CLASSES
  0
CLASS
  1
ACDBDICTIONARYWDFLT
  2
AcDbDictionaryWithDefault
  3
ObjectDBX Classes
 90
        0
280
     0
281
     0
  0
CLASS
  1
VISUALSTYLE
  2
AcDbVisualStyle
  3
ObjectDBX Classes
 90
     4095
280
     0
281
     0
  0
CLASS
  1
MATERIAL
  2
AcDbMaterial
  3
ObjectDBX Classes
 90
     1153
280
     0
281
     0
  0
CLASS
  1
SCALE
  2
AcDbScale
  3
ObjectDBX Classes
 90
     1153
280
     0
281
     0
  0
CLASS
  1
TABLESTYLE
  2
AcDbTableStyle
  3
ObjectDBX Classes
 90
     4095
280
     0
281
     0
  0
CLASS
  1
MLEADERSTYLE
  2
AcDbMLeaderStyle
  3
ACDB_MLEADERSTYLE_CLASS
 90
     4095
280
     0
281
     0
  0
CLASS
  1
SUN
  2
AcDbSun
  3
SCENEOE
 90
     1153
280
     0
281
     0
  0
CLASS
  1
ACDBPLACEHOLDER
  2
AcDbPlaceHolder
  3
ObjectDBX Classes
 90
        0
280
     0
281
     0
  0
CLASS
  1
LAYOUT
  2
AcDbLayout
  3
ObjectDBX Classes
 90
        0
280
     0
281
     0
  0
ENDSEC
  0
SECTION
  2
TABLES
  0
TABLE
  2
VPORT
  5
8
330
0
100
AcDbSymbolTable
 70
     1
  0
VPORT
  5
29
330
8
100
AcDbSymbolTableRecord
100
AcDbViewportTableRecord
  2
*Active
 70
     0
 10
0.0
 20
0.0
 11
1.0
 21
1.0
 12
1470.0
 22
1039.5
 13
0.0
 23
0.0
 14
10.0
 24
10.0
 15
10.0
 25
10.0
 16
0.0
 26
0.0
 36
1.0
 17
0.0
 27
0.0
 37
0.0
 40
2079.0
 41
1.4141414141
 42
50.0
 43
0.0
 44
0.0
 50
0.0
 51
0.0
 71
     0
 72
  2000
 73
     1
 74
     3
 75
     0
 76
     0
 77
     0
 78
     0
281
     0
 65
     1
110
0.0
120
0.0
130
0.0
111
1.0
121
0.0
131
0.0
112
0.0
122
1.0
132
0.0
 79
     0
146
0.0
  0
ENDTAB
  0
TABLE
  2
LTYPE
  5
5
330
0
100
AcDbSymbolTable
 70
     6
  0
LTYPE
  5
14
330
5
100
AcDbSymbolTableRecord
100
AcDbLinetypeTableRecord
  2
ByBlock
 70
     0
  3

 72
    65
 73
     0
 40
0.0
  0
LTYPE
  5
15
330
5
100
AcDbSymbolTableRecord
100
AcDbLinetypeTableRecord
  2
ByLayer
 70
     0
  3

 72
    65
 73
     0
 40
0.0
  0
LTYPE
  5
16
330
5
100
AcDbSymbolTableRecord
100
AcDbLinetypeTableRecord
  2
Continuous
 70
     0
  3
Solid line
 72
    65
 73
     0
 40
0.0
  0
LTYPE
  5
6E
330
5
100
AcDbSymbolTableRecord
100
AcDbLinetypeTableRecord
  2
HIDDEN
 70
     0
  3
Hidden __ __ __ __ __ __ __ __ __ __ __ __ __ __
 72
    65
 73
     2
 40
1.905
 49
1.27
 74
     0
 49
-0.635
 74
     0
  0
LTYPE
  5
6F
330
5
100
AcDbSymbolTableRecord
100
AcDbLinetypeTableRecord
  2
PHANTOM
 70
     0
  3
Phantom ______  __  __  ______  __  __  ______
 72
    65
 73
     6
 40
12.7
 49
6.35
 74
     0
 49
-1.27
 74
     0
 49
1.27
 74
     0
 49
-1.27
 74
     0
 49
1.27
 74
     0
 49
-1.27
 74
     0
  0
LTYPE
  5
70
330
5
100
AcDbSymbolTableRecord
100
AcDbLinetypeTableRecord
  2
CENTER
 70
     0
  3
Center ____ _ ____ _ ____ _ ____ _ ____ _ ____
 72
    65
 73
     4
 40
10.16
 49
6.35
 74
     0
 49
-1.27
 74
     0
 49
1.27
 74
     0
 49
-1.27
 74
     0
  0
LTYPE
  5
71
330
5
100
AcDbSymbolTableRecord
100
AcDbLinetypeTableRecord
  2
CENTERX2
 70
     0
  3
Center (2x) ________  __  ________  __  _____
 72
    65
 73
     4
 40
20.32
 49
12.7
 74
     0
 49
-2.54
 74
     0
 49
2.54
 74
     0
 49
-2.54
 74
     0
  0
LTYPE
  5
72
330
5
100
AcDbSymbolTableRecord
100
AcDbLinetypeTableRecord
  2
DOT2
 70
     0
  3
Dot (.5x) ........................................
 72
    65
 73
     2
 40
0.635
 49
0.0
 74
     0
 49
-0.635
 74
     0
  0
ENDTAB
  0
TABLE
  2
LAYER
  5
2
330
0
100
AcDbSymbolTable
 70
     8
  0
LAYER
  5
10
330
2
100
AcDbSymbolTableRecord
100
AcDbLayerTableRecord
  2
0
 70
     0
 62
     7
  6
Continuous
370
    -3
390
F
  0
LAYER
  5
73
330
2
100
AcDbSymbolTableRecord
100
AcDbLayerTableRecord
  2
FORMAT
 70
     0
 62
     7
  6
Continuous
370
    -3
390
F
  0
LAYER
  5
74
330
2
100
AcDbSymbolTableRecord
100
AcDbLayerTableRecord
  2
VORLAGE
 70
     0
 62
     7
  6
Continuous
370
    -3
390
F
  0
LAYER
  5
75
330
2
100
AcDbSymbolTableRecord
100
AcDbLayerTableRecord
  2
1
 70
     0
 62
   179
  6
Continuous
370
    -3
390
F
  0
LAYER
  5
76
330
2
100
AcDbSymbolTableRecord
100
AcDbLayerTableRecord
  2
LAYER0
 70
     0
 62
     7
  6
Continuous
370
    -3
390
F
  0
LAYER
  5
77
330
2
100
AcDbSymbolTableRecord
100
AcDbLayerTableRecord
  2
BEMASSUNG
 70
     0
 62
     1
  6
Continuous
370
    -3
390
F
  0
LAYER
  5
78
330
2
100
AcDbSymbolTableRecord
100
AcDbLayerTableRecord
  2
ÄNDERUNG
 70
     0
 62
     1
  6
Continuous
370
    -3
390
F
  0
LAYER
  5
79
330
2
100
AcDbSymbolTableRecord
100
AcDbLayerTableRecord
  2
KENNZEICHNUNG
 70
     0
 62
     7
  6
Continuous
370
    -3
390
F
  0
ENDTAB
  0
TABLE
  2
STYLE
  5
3
330
0
100
AcDbSymbolTable
 70
     5
  0
STYLE
  5
11
330
3
100
AcDbSymbolTableRecord
100
AcDbTextStyleTableRecord
  2
STANDARD
 70
     0
 40
0.0
 41
1.0
 50
0.0
 71
     0
 42
24.5
  3
ARIAL.TTF
  4

1001
ACAD
1000
ARIAL
1071
       34
  0
STYLE
  5
8B
330
3
100
AcDbSymbolTableRecord
100
AcDbTextStyleTableRecord
  2
SLDTEXTSTYLE0
 70
     0
 40
0.0
 41
0.948
 50
0.0
 71
     0
 42
24.5
  3
ARIAL.TTF
  4

1001
ACAD
1000
Arial
1071
      290
  0
STYLE
  5
B2
330
3
100
AcDbSymbolTableRecord
100
AcDbTextStyleTableRecord
  2
SLDTEXTSTYLE1
 70
     0
 40
0.0
 41
1.0
 50
0.0
 71
     0
 42
24.5
  3
ARIALUNI.TTF
  4

1001
ACAD
1000
Arial Unicode MS
1071
 33554722
  0
STYLE
  5
B8
330
3
100
AcDbSymbolTableRecord
100
AcDbTextStyleTableRecord
  2
SLDTEXTSTYLE2
 70
     0
 40
0.0
 41
0.87
 50
0.0
 71
     0
 42
24.5
  3
ARIALN.TTF
  4

1001
ACAD
1000
Arial Narrow
1071
      290
  0
STYLE
  5
E9
330
3
100
AcDbSymbolTableRecord
100
AcDbTextStyleTableRecord
  2
SLDTEXTSTYLE3
 70
     0
 40
0.0
 41
0.948
 50
0.0
 71
     0
 42
24.5
  3
ARIALBD.TTF
  4

1001
ACAD
1000
Arial
1071
 33554722
  0
ENDTAB
  0
TABLE
  2
VIEW
  5
6
330
0
100
AcDbSymbolTable
 70
     0
  0
ENDTAB
  0
TABLE
  2
UCS
  5
7
330
0
100
AcDbSymbolTable
 70
     0
  0
ENDTAB
  0
TABLE
  2
APPID
  5
9
330
0
100
AcDbSymbolTable
 70
     1
  0
APPID
  5
12
330
9
100
AcDbSymbolTableRecord
100
AcDbRegAppTableRecord
  2
ACAD
 70
     0
  0
ENDTAB
  0
TABLE
  2
DIMSTYLE
  5
A
330
0
100
AcDbSymbolTable
 70
    11
100
AcDbDimStyleTable
  0
DIMSTYLE
105
27
330
A
100
AcDbSymbolTableRecord
100
AcDbDimStyleTableRecord
  2
ISO-25
 70
     0
 41
2.5
 42
0.625
 43
3.75
 44
1.25
 73
     0
 74
     0
 77
     1
 78
     8
140
2.5
141
2.5
143
0.0393700787
147
0.625
171
     3
172
     1
178
     0
271
     2
272
     2
274
     3
278
    44
283
     0
284
     8
340
11
  0
DIMSTYLE
105
22E
102
{ACAD_REACTORS
330
22D
330
238
330
242
330
259
330
32D
330
343
330
34C
330
3A0
330
3AA
330
3B4
330
3BE
330
3C8
330
560
330
569
330
573
102
}
330
A
100
AcDbSymbolTableRecord
100
AcDbDimStyleTableRecord
  2
SLDDIMSTYLE0
 70
     0
 41
23.114
 44
0.0
 45
0.000000001
 73
     0
 74
     0
 77
     1
 78
    12
 79
     3
140
24.5
147
6.125
173
     1
178
     0
271
     2
272
     2
276
     2
284
    12
340
8B
  0
DIMSTYLE
105
24D
102
{ACAD_REACTORS
330
24C
330
356
330
37A
330
388
330
394
330
555
102
}
330
A
100
AcDbSymbolTableRecord
100
AcDbDimStyleTableRecord
  2
SLDDIMSTYLE1
 70
     0
 41
23.114
 44
0.0
 45
0.000000001
 73
     0
 74
     0
 77
     1
 78
    12
 79
     3
140
24.5
147
6.125
172
     1
173
     1
178
     0
271
     2
272
     2
276
     2
284
    12
289
     0
340
8B
  0
DIMSTYLE
105
338
102
{ACAD_REACTORS
330
337
330
361
330
36D
102
}
330
A
100
AcDbSymbolTableRecord
100
AcDbDimStyleTableRecord
  2
SLDDIMSTYLE2
 70
     0
 41
23.114
 44
0.0
 45
0.000000001
 73
     0
 74
     0
 77
     1
 78
    12
 79
     3
140
24.5
147
6.125
172
     1
173
     1
178
     0
271
     0
272
     2
276
     2
284
    12
289
     0
340
8B
  0
DIMSTYLE
105
3D3
330
A
100
AcDbSymbolTableRecord
100
AcDbDimStyleTableRecord
  2
SLDDIMSTYLE3
 70
     0
 41
23.114
 44
0.0
 45
0.000000001
146
23.114
147
0.0
173
     1
178
     0
271
     0
272
     0
276
     2
340
11
  0
DIMSTYLE
105
53A
102
{ACAD_REACTORS
330
539
330
54A
102
}
330
A
100
AcDbSymbolTableRecord
100
AcDbDimStyleTableRecord
  2
SLDDIMSTYLE4
 70
     0
 41
7.112
 44
0.0
 45
0.000000001
 73
     0
 74
     0
 77
     1
 78
    12
 79
     3
140
17.9782307943
147
4.4945576986
173
     1
178
     0
271
     2
272
     2
276
     2
284
    12
340
8B
341
53B
343
53B
  0
DIMSTYLE
105
65E
102
{ACAD_REACTORS
330
65D
330
66B
102
}
330
A
100
AcDbSymbolTableRecord
100
AcDbDimStyleTableRecord
  2
SLDDIMSTYLE5
 70
     0
 41
7.112
 44
0.0
 45
0.000000001
 73
     0
 74
     0
 77
     1
 78
    12
 79
     3
140
24.5
144
0.7142857143
147
6.125
172
     1
173
     1
178
     0
271
     2
272
     2
276
     2
284
    12
289
     0
340
8B
341
53B
343
53B
  0
DIMSTYLE
105
679
102
{ACAD_REACTORS
330
678
330
685
330
693
330
6AF
330
6DE
102
}
330
A
100
AcDbSymbolTableRecord
100
AcDbDimStyleTableRecord
  2
SLDDIMSTYLE6
 70
     0
 41
23.114
 44
0.0
 45
0.000000001
 73
     0
 74
     0
 77
     1
 78
    12
 79
     3
140
24.5
144
0.7142857143
147
6.125
172
     1
173
     1
178
     0
271
     2
272
     2
276
     2
284
    12
289
     0
340
8B
  0
DIMSTYLE
105
6A2
102
{ACAD_REACTORS
330
6A1
102
}
330
A
100
AcDbSymbolTableRecord
100
AcDbDimStyleTableRecord
  2
SLDDIMSTYLE7
 70
     0
 41
23.114
 44
0.0
 45
0.000000001
 73
     0
 74
     0
 77
     1
 78
    12
 79
     3
140
25.169523112
144
0.7142857143
147
6.292380778
172
     1
173
     1
178
     0
271
     2
272
     2
276
     2
284
    12
289
     0
340
E9
  0
DIMSTYLE
105
6BD
330
A
100
AcDbSymbolTableRecord
100
AcDbDimStyleTableRecord
  2
SLDDIMSTYLE8
 70
     0
 41
7.112
 44
0.0
 45
0.000000001
146
7.112
147
0.0
173
     1
178
     0
271
     0
272
     0
276
     2
340
11
341
53B
343
53B
344
53B
  0
DIMSTYLE
105
6EB
102
{ACAD_REACTORS
330
6EA
102
}
330
A
100
AcDbSymbolTableRecord
100
AcDbDimStyleTableRecord
  2
SLDDIMSTYLE9
 70
     0
 41
23.114
 44
0.0
 45
0.000000001
 73
     0
 74
     0
 77
     1
 78
    12
 79
     3
140
24.5
144
0.7142857143
147
6.125
173
     1
178
     0
271
     2
272
     2
276
     2
284
    12
340
8B
  0
ENDTAB
  0
TABLE
  2
BLOCK_RECORD
  5
1
330
0
100
AcDbSymbolTable
 70
    61
  0
BLOCK_RECORD
  5
1F
330
1
100
AcDbSymbolTableRecord
100
AcDbBlockTableRecord
  2
*Model_Space
340
22
  0
BLOCK_RECORD
  5
1B
330
1
100
AcDbSymbolTableRecord
100
AcDbBlockTableRecord
  2
*Paper_Space
340
1E
  0
BLOCK_RECORD
  5
23
330
1
100
AcDbSymbolTableRecord
100
AcDbBlockTableRecord
  2
*Paper_Space0
340
26
  0
BLOCK_RECORD
  5
7A
330
1
100
AcDbSymbolTableRecord
100
AcDbBlockTableRecord
  2
Block1_3_1
340
0
102
{BLKREFS
331
D8
102
}
  0
BLOCK_RECORD
  5
88
330
1
100
AcDbSymbolTableRecord
100
AcDbBlockTableRecord
  2
SW_NOTE_0
340
0
102
{BLKREFS
331
8E
102
}
  0
BLOCK_RECORD
  5
8F
330
1
100
AcDbSymbolTableRecord
100
AcDbBlockTableRecord
  2
Block2_3_1
340
0
102
{BLKREFS
331
DA
102
}
  0
BLOCK_RECORD
  5
AF
330
1
100
AcDbSymbolTableRecord
100
AcDbBlockTableRecord
  2
SW_NOTE_0_1
340
0
102
{BLKREFS
331
B4
102
}
  0
BLOCK_RECORD
  5
B5
330
1
100
AcDbSymbolTableRecord
100
AcDbBlockTableRecord
  2
SW_NOTE_0_2
340
0
102
{BLKREFS
331
BC
102
}
  0
BLOCK_RECORD
  5
BD
330
1
100
AcDbSymbolTableRecord
100
AcDbBlockTableRecord
  2
rechtlicher_Hinweis_Katalogzeichnungen_1
340
0
102
{BLKREFS
331
D9
102
}
  0
BLOCK_RECORD
  5
C0
330
1
100
AcDbSymbolTableRecord
100
AcDbBlockTableRecord
  2
SW_NOTE_0_3
340
0
102
{BLKREFS
331
C9
102
}
  0
BLOCK_RECORD
  5
DD
330
1
100
AcDbSymbolTableRecord
100
AcDbBlockTableRecord
  2
SW_NOTE_0_4
340
0
102
{BLKREFS
331
E3
102
}
  0
BLOCK_RECORD
  5
F5
330
1
100
AcDbSymbolTableRecord
100
AcDbBlockTableRecord
  2
SW_TABLEANNOTATION_0
340
0
102
{BLKREFS
331
11D
102
}
  0
BLOCK_RECORD
  5
22F
330
1
100
AcDbSymbolTableRecord
100
AcDbBlockTableRecord
  2
_D
340
0
  0
BLOCK_RECORD
  5
239
330
1
100
AcDbSymbolTableRecord
100
AcDbBlockTableRecord
  2
_D_1
340
0
  0
BLOCK_RECORD
  5
243
330
1
100
AcDbSymbolTableRecord
100
AcDbBlockTableRecord
  2
_D_2
340
0
  0
BLOCK_RECORD
  5
24E
330
1
100
AcDbSymbolTableRecord
100
AcDbBlockTableRecord
  2
_D_3
340
0
  0
BLOCK_RECORD
  5
25A
330
1
100
AcDbSymbolTableRecord
100
AcDbBlockTableRecord
  2
_D_4
340
0
  0
BLOCK_RECORD
  5
32E
330
1
100
AcDbSymbolTableRecord
100
AcDbBlockTableRecord
  2
_D_5
340
0
  0
BLOCK_RECORD
  5
339
330
1
100
AcDbSymbolTableRecord
100
AcDbBlockTableRecord
  2
_D_6
340
0
  0
BLOCK_RECORD
  5
344
330
1
100
AcDbSymbolTableRecord
100
AcDbBlockTableRecord
  2
_D_7
340
0
  0
BLOCK_RECORD
  5
34D
330
1
100
AcDbSymbolTableRecord
100
AcDbBlockTableRecord
  2
_D_8
340
0
  0
BLOCK_RECORD
  5
357
330
1
100
AcDbSymbolTableRecord
100
AcDbBlockTableRecord
  2
_D_9
340
0
  0
BLOCK_RECORD
  5
362
330
1
100
AcDbSymbolTableRecord
100
AcDbBlockTableRecord
  2
_D_10
340
0
  0
BLOCK_RECORD
  5
36E
330
1
100
AcDbSymbolTableRecord
100
AcDbBlockTableRecord
  2
_D_11
340
0
  0
BLOCK_RECORD
  5
37B
330
1
100
AcDbSymbolTableRecord
100
AcDbBlockTableRecord
  2
_D_12
340
0
  0
BLOCK_RECORD
  5
389
330
1
100
AcDbSymbolTableRecord
100
AcDbBlockTableRecord
  2
_D_13
340
0
  0
BLOCK_RECORD
  5
395
330
1
100
AcDbSymbolTableRecord
100
AcDbBlockTableRecord
  2
_D_14
340
0
  0
BLOCK_RECORD
  5
3A1
330
1
100
AcDbSymbolTableRecord
100
AcDbBlockTableRecord
  2
_D_15
340
0
  0
BLOCK_RECORD
  5
3AB
330
1
100
AcDbSymbolTableRecord
100
AcDbBlockTableRecord
  2
_D_16
340
0
  0
BLOCK_RECORD
  5
3B5
330
1
100
AcDbSymbolTableRecord
100
AcDbBlockTableRecord
  2
_D_17
340
0
  0
BLOCK_RECORD
  5
3BF
330
1
100
AcDbSymbolTableRecord
100
AcDbBlockTableRecord
  2
_D_18
340
0
  0
BLOCK_RECORD
  5
3C9
330
1
100
AcDbSymbolTableRecord
100
AcDbBlockTableRecord
  2
_D_19
340
0
  0
BLOCK_RECORD
  5
3D7
330
1
100
AcDbSymbolTableRecord
100
AcDbBlockTableRecord
  2
SW_NOTE_0_5
340
0
102
{BLKREFS
331
3DC
102
}
  0
BLOCK_RECORD
  5
3DE
330
1
100
AcDbSymbolTableRecord
100
AcDbBlockTableRecord
  2
SW_CENTERMARKSYMBOL_0
340
0
102
{BLKREFS
331
3E9
102
}
  0
BLOCK_RECORD
  5
3EA
330
1
100
AcDbSymbolTableRecord
100
AcDbBlockTableRecord
  2
SW_CENTERMARKSYMBOL_1
340
0
102
{BLKREFS
331
3F5
102
}
  0
BLOCK_RECORD
  5
3F6
330
1
100
AcDbSymbolTableRecord
100
AcDbBlockTableRecord
  2
SW_CENTERMARKSYMBOL_2
340
0
102
{BLKREFS
331
401
102
}
  0
BLOCK_RECORD
  5
402
330
1
100
AcDbSymbolTableRecord
100
AcDbBlockTableRecord
  2
SW_CENTERMARKSYMBOL_3
340
0
102
{BLKREFS
331
40D
102
}
  0
BLOCK_RECORD
  5
40E
330
1
100
AcDbSymbolTableRecord
100
AcDbBlockTableRecord
  2
SW_CENTERMARKSYMBOL_4
340
0
102
{BLKREFS
331
419
102
}
  0
BLOCK_RECORD
  5
41A
330
1
100
AcDbSymbolTableRecord
100
AcDbBlockTableRecord
  2
SW_CENTERMARKSYMBOL_5
340
0
102
{BLKREFS
331
425
102
}
  0
BLOCK_RECORD
  5
426
330
1
100
AcDbSymbolTableRecord
100
AcDbBlockTableRecord
  2
SW_CENTERMARKSYMBOL_6
340
0
102
{BLKREFS
331
431
102
}
  0
BLOCK_RECORD
  5
432
330
1
100
AcDbSymbolTableRecord
100
AcDbBlockTableRecord
  2
SW_CENTERMARKSYMBOL_7
340
0
102
{BLKREFS
331
43D
102
}
  0
BLOCK_RECORD
  5
43E
330
1
100
AcDbSymbolTableRecord
100
AcDbBlockTableRecord
  2
SW_CENTERMARKSYMBOL_8
340
0
102
{BLKREFS
331
449
102
}
  0
BLOCK_RECORD
  5
44A
330
1
100
AcDbSymbolTableRecord
100
AcDbBlockTableRecord
  2
SW_CENTERMARKSYMBOL_9
340
0
102
{BLKREFS
331
455
102
}
  0
BLOCK_RECORD
  5
456
330
1
100
AcDbSymbolTableRecord
100
AcDbBlockTableRecord
  2
SW_CENTERMARKSYMBOL_10
340
0
102
{BLKREFS
331
461
102
}
  0
BLOCK_RECORD
  5
462
330
1
100
AcDbSymbolTableRecord
100
AcDbBlockTableRecord
  2
SW_CENTERMARKSYMBOL_11
340
0
102
{BLKREFS
331
46D
102
}
  0
BLOCK_RECORD
  5
53B
330
1
100
AcDbSymbolTableRecord
100
AcDbBlockTableRecord
  2
_Dot
340
0
102
{BLKREFS
331
543
331
54E
331
662
331
66F
102
}
  0
BLOCK_RECORD
  5
540
330
1
100
AcDbSymbolTableRecord
100
AcDbBlockTableRecord
  2
_D_20
340
0
  0
BLOCK_RECORD
  5
54B
330
1
100
AcDbSymbolTableRecord
100
AcDbBlockTableRecord
  2
_D_21
340
0
  0
BLOCK_RECORD
  5
556
330
1
100
AcDbSymbolTableRecord
100
AcDbBlockTableRecord
  2
_D_22
340
0
  0
BLOCK_RECORD
  5
561
330
1
100
AcDbSymbolTableRecord
100
AcDbBlockTableRecord
  2
_D_23
340
0
  0
BLOCK_RECORD
  5
56A
330
1
100
AcDbSymbolTableRecord
100
AcDbBlockTableRecord
  2
_D_24
340
0
  0
BLOCK_RECORD
  5
574
330
1
100
AcDbSymbolTableRecord
100
AcDbBlockTableRecord
  2
_D_25
340
0
  0
BLOCK_RECORD
  5
65F
330
1
100
AcDbSymbolTableRecord
100
AcDbBlockTableRecord
  2
_D_26
340
0
  0
BLOCK_RECORD
  5
66C
330
1
100
AcDbSymbolTableRecord
100
AcDbBlockTableRecord
  2
_D_27
340
0
  0
BLOCK_RECORD
  5
67A
330
1
100
AcDbSymbolTableRecord
100
AcDbBlockTableRecord
  2
_D_28
340
0
  0
BLOCK_RECORD
  5
686
330
1
100
AcDbSymbolTableRecord
100
AcDbBlockTableRecord
  2
_D_29
340
0
  0
BLOCK_RECORD
  5
694
330
1
100
AcDbSymbolTableRecord
100
AcDbBlockTableRecord
  2
_D_30
340
0
  0
BLOCK_RECORD
  5
6A3
330
1
100
AcDbSymbolTableRecord
100
AcDbBlockTableRecord
  2
_D_31
340
0
  0
BLOCK_RECORD
  5
6B0
330
1
100
AcDbSymbolTableRecord
100
AcDbBlockTableRecord
  2
_D_32
340
0
  0
BLOCK_RECORD
  5
6DF
330
1
100
AcDbSymbolTableRecord
100
AcDbBlockTableRecord
  2
_D_33
340
0
  0
BLOCK_RECORD
  5
6EC
330
1
100
AcDbSymbolTableRecord
100
AcDbBlockTableRecord
  2
_D_34
340
0
  0
BLOCK_RECORD
  5
6F6
330
1
100
AcDbSymbolTableRecord
100
AcDbBlockTableRecord
  2
SW_CENTERMARKSYMBOL_12
340
0
102
{BLKREFS
331
701
102
}
  0
BLOCK_RECORD
  5
702
330
1
100
AcDbSymbolTableRecord
100
AcDbBlockTableRecord
  2
SW_CENTERMARKSYMBOL_13
340
0
102
{BLKREFS
331
70D
102
}
  0
ENDTAB
  0
ENDSEC
  0
SECTION
  2
BLOCKS
  0
BLOCK
  5
20
330
1F
100
AcDbEntity
  8
0
100
AcDbBlockBegin
  2
*Model_Space
 70
     0
 10
0.0
 20
0.0
 30
0.0
  3
*Model_Space
  1

  0
ENDBLK
  5
21
330
1F
100
AcDbEntity
  8
0
100
AcDbBlockEnd
  0
BLOCK
  5
1C
330
1B
100
AcDbEntity
 67
     1
  8
0
100
AcDbBlockBegin
  2
*Paper_Space
 70
     0
 10
0.0
 20
0.0
 30
0.0
  3
*Paper_Space
  1

  0
ENDBLK
  5
1D
330
1B
100
AcDbEntity
 67
     1
  8
0
100
AcDbBlockEnd
  0
BLOCK
  5
24
330
23
100
AcDbEntity
  8
0
100
AcDbBlockBegin
  2
*Paper_Space0
 70
     0
 10
0.0
 20
0.0
 30
0.0
  3
*Paper_Space0
  1

  0
ENDBLK
  5
25
330
23
100
AcDbEntity
  8
0
100
AcDbBlockEnd
  0
BLOCK
  5
7B
330
7A
100
AcDbEntity
  8
0
100
AcDbBlockBegin
  2
Block1_3_1
 70
     0
 10
0.0
 20
0.0
 30
0.0
  3
Block1_3_1
  1

  0
CIRCLE
  5
7D
330
7A
100
AcDbEntity
  8
0
  6
Continuous
 62
     7
370
    18
100
AcDbCircle
 10
81.2962813747
 20
63.6276108944
 30
0.0
 40
8.79136307741128
  0
CIRCLE
  5
7E
330
7A
100
AcDbEntity
  8
0
  6
Continuous
 62
     7
370
    18
100
AcDbCircle
 10
81.2962813747
 20
63.6276108944
 30
0.0
 40
15.51210404558959
  0
LINE
  5
7F
330
7A
100
AcDbEntity
  8
0
  6
CENTERX2
 62
     7
370
    18
100
AcDbLine
 10
81.2962813747
 20
63.6276108944
 30
0.0
 11
55.2841773291
 21
63.6276108944
 31
0.0
  0
LINE
  5
80
330
7A
100
AcDbEntity
  8
0
  6
Continuous
 62
     7
370
    18
100
AcDbLine
 10
57.1602751158
 20
48.1155068489
 30
0.0
 11
57.1602751158
 21
79.150109214
 31
0.0
  0
LINE
  5
81
330
7A
100
AcDbEntity
  8
0
  6
Continuous
 62
     7
370
    18
100
AcDbLine
 10
18.7580035265
 20
72.4189739719
 30
0.0
 11
18.7580035265
 21
54.836247817
 31
0.0
  0
LINE
  5
82
330
7A
100
AcDbEntity
  8
0
  6
Continuous
 62
     7
370
    18
100
AcDbLine
 10
18.7580035265
 20
54.836247817
 30
0.0
 11
57.1602751158
 21
48.1155068489
 31
0.0
  0
LINE
  5
83
330
7A
100
AcDbEntity
  8
0
  6
CENTERX2
 62
     7
370
    18
100
AcDbLine
 10
67.6602751158
 20
63.6276108944
 30
0.0
 11
8.2580035265
 21
63.6276108944
 31
0.0
  0
LINE
  5
84
330
7A
100
AcDbEntity
  8
0
  6
Continuous
 62
     7
370
    18
100
AcDbLine
 10
57.1602751158
 20
79.150109214
 30
0.0
 11
18.7580035265
 21
72.4189739719
 31
0.0
  0
LINE
  5
85
330
7A
100
AcDbEntity
  8
0
  6
CENTERX2
 62
     7
370
    18
100
AcDbLine
 10
81.2962813747
 20
63.6276108944
 30
0.0
 11
81.2962813747
 21
37.6155068489
 31
0.0
  0
LINE
  5
86
330
7A
100
AcDbEntity
  8
0
  6
CENTERX2
 62
     7
370
    18
100
AcDbLine
 10
81.2962813747
 20
63.6276108944
 30
0.0
 11
81.2962813747
 21
89.63971494
 31
0.0
  0
LINE
  5
87
330
7A
100
AcDbEntity
  8
0
  6
CENTERX2
 62
     7
370
    18
100
AcDbLine
 10
81.2962813747
 20
63.6276108944
 30
0.0
 11
107.3083854203
 21
63.6276108944
 31
0.0
  0
INSERT
  5
8E
330
7A
100
AcDbEntity
  8
0
  6
Continuous
 62
     7
370
     0
100
AcDbBlockReference
  2
SW_NOTE_0
 10
14.7222830224
 20
16.6281309378
 30
0.0
  0
ENDBLK
  5
7C
330
7A
100
AcDbEntity
  8
0
100
AcDbBlockEnd
  0
BLOCK
  5
89
330
88
100
AcDbEntity
  8
0
100
AcDbBlockBegin
  2
SW_NOTE_0
 70
     0
 10
0.0
 20
0.0
 30
0.0
  3
SW_NOTE_0
  1

  0
MTEXT
  5
8C
330
88
100
AcDbEntity
  8
0
  6
Continuous
 62
     0
370
     0
100
AcDbMText
 10
46.134375
 20
17.144600939
 30
0.0
 40
13.3
 41
0.0
 71
     2
 72
     1
  1
DIN 6  T1 - 
  7
SLDTEXTSTYLE0
 73
     1
 44
1.0
  0
MTEXT
  5
8D
330
88
100
AcDbEntity
  8
0
  6
Continuous
 62
     0
370
     0
100
AcDbMText
 10
46.5984838367
 20
0.0023782104
 30
0.0
 40
13.3
 41
0.0
 71
     2
 72
     1
  1
Proj.methode 1
  7
SLDTEXTSTYLE0
 73
     1
 44
1.0
  0
ENDBLK
  5
8A
330
88
100
AcDbEntity
  8
0
100
AcDbBlockEnd
  0
BLOCK
  5
90
330
8F
100
AcDbEntity
  8
0
100
AcDbBlockBegin
  2
Block2_3_1
 70
     0
 10
0.0
 20
0.0
 30
0.0
  3
Block2_3_1
  1

  0
ARC
  5
92
330
8F
100
AcDbEntity
  8
FORMAT
100
AcDbCircle
 10
1657.2474557671
 20
399.6934206979
 30
0.0
 40
26.25000000000006
100
AcDbArc
 50
93.8225537293
 51
266.1774462707
  0
ARC
  5
93
330
8F
100
AcDbEntity
  8
FORMAT
100
AcDbCircle
 10
1657.2474557671
 20
399.6934206979
 30
0.0
 40
21.0000000000001
100
AcDbArc
 50
94.7801918472
 51
265.2198081528
  0
ARC
  5
94
330
8F
100
AcDbEntity
  8
FORMAT
100
AcDbCircle
 10
1657.2474557671
 20
399.6934206979
 30
0.0
 40
26.25000000000006
100
AcDbArc
 50
273.8225537293
 51
86.1774462707
  0
ARC
  5
95
330
8F
100
AcDbEntity
  8
FORMAT
100
AcDbCircle
 10
1657.2474557671
 20
399.6934206979
 30
0.0
 40
21.0000000000001
100
AcDbArc
 50
274.7801918472
 51
85.2198081528
  0
ARC
  5
96
330
8F
100
AcDbEntity
  8
FORMAT
100
AcDbCircle
 10
1657.2474557671
 20
407.6242915053
 30
0.0
 40
6.022819479648172
100
AcDbArc
 50
304.8395134495
 51
73.1084194601
  0
ARC
  5
97
330
8F
100
AcDbEntity
  8
FORMAT
100
AcDbCircle
 10
1657.2474557671
 20
407.6242915053
 30
0.0
 40
9.81620102162464
100
AcDbArc
 50
313.8988153445
 51
79.7306010333
  0
ARC
  5
98
330
8F
100
AcDbEntity
  8
FORMAT
100
AcDbCircle
 10
1657.2474557671
 20
388.4857005791
 30
0.0
 40
3.440714680707612
100
AcDbArc
 50
300.5716370086
 51
0.0
  0
ARC
  5
99
330
8F
100
AcDbEntity
  8
FORMAT
100
AcDbCircle
 10
1657.2474557671
 20
407.6242915053
 30
0.0
 40
9.81620102162464
100
AcDbArc
 50
100.2693989667
 51
226.1011846555
  0
ARC
  5
9A
330
8F
100
AcDbEntity
  8
FORMAT
100
AcDbCircle
 10
1657.2474557671
 20
388.4857005791
 30
0.0
 40
6.806425489791309
100
AcDbArc
 50
180.0
 51
255.1013518888
  0
ARC
  5
9B
330
8F
100
AcDbEntity
  8
FORMAT
100
AcDbCircle
 10
1657.2474557671
 20
388.4857005791
 30
0.0
 40
6.806425489791309
100
AcDbArc
 50
284.8986481112
 51
0.0
  0
ARC
  5
9C
330
8F
100
AcDbEntity
  8
FORMAT
100
AcDbCircle
 10
1657.2474557671
 20
388.4857005791
 30
0.0
 40
3.440714680707612
100
AcDbArc
 50
180.0
 51
239.4283629914
  0
ARC
  5
9D
330
8F
100
AcDbEntity
  8
FORMAT
100
AcDbCircle
 10
1657.2474557671
 20
407.6242915053
 30
0.0
 40
6.022819479648172
100
AcDbArc
 50
106.8915805399
 51
235.1604865505
  0
LINE
  5
9E
330
8F
100
AcDbEntity
  8
FORMAT
100
AcDbLine
 10
1627.7186808898
 20
370.1646458206
 30
0.0
 11
1686.7762306444
 21
370.1646458206
 31
0.0
  0
LINE
  5
9F
330
8F
100
AcDbEntity
  8
FORMAT
100
AcDbLine
 10
1627.7186808898
 20
429.2221955752
 30
0.0
 11
1686.7762306444
 21
429.2221955752
 31
0.0
  0
LINE
  5
A0
330
8F
100
AcDbEntity
  8
FORMAT
100
AcDbLine
 10
1627.7186808898
 20
429.2221955752
 30
0.0
 11
1627.7186808898
 21
370.1646458206
 31
0.0
  0
LINE
  5
A1
330
8F
100
AcDbEntity
  8
FORMAT
100
AcDbLine
 10
1686.7762306444
 20
429.2221955752
 30
0.0
 11
1686.7762306444
 21
370.1646458206
 31
0.0
  0
LINE
  5
A2
330
8F
100
AcDbEntity
  8
FORMAT
100
AcDbLine
 10
1655.4974557671
 20
425.8850224053
 30
0.0
 11
1655.4974557671
 21
420.6203769983
 31
0.0
  0
LINE
  5
A3
330
8F
100
AcDbEntity
  8
FORMAT
100
AcDbLine
 10
1658.9974557671
 20
425.8850224053
 30
0.0
 11
1658.9974557671
 21
420.6203769983
 31
0.0
  0
LINE
  5
A4
330
8F
100
AcDbEntity
  8
FORMAT
100
AcDbLine
 10
1655.4974557671
 20
378.7664643974
 30
0.0
 11
1655.4974557671
 21
373.5018189904
 31
0.0
  0
LINE
  5
A5
330
8F
100
AcDbEntity
  8
FORMAT
100
AcDbLine
 10
1658.9974557671
 20
378.7664643974
 30
0.0
 11
1658.9974557671
 21
373.5018189904
 31
0.0
  0
LINE
  5
A6
330
8F
100
AcDbEntity
  8
FORMAT
100
AcDbLine
 10
1658.9974557671
 20
417.2832408527
 30
0.0
 11
1658.9974557671
 21
413.3872642177
 31
0.0
  0
LINE
  5
A7
330
8F
100
AcDbEntity
  8
FORMAT
100
AcDbLine
 10
1655.4974557671
 20
417.2832408527
 30
0.0
 11
1655.4974557671
 21
413.3872642177
 31
0.0
  0
LINE
  5
A8
330
8F
100
AcDbEntity
  8
FORMAT
100
AcDbLine
 10
1650.4410302773
 20
388.4857005791
 30
0.0
 11
1650.4410302773
 21
400.5510762146
 31
0.0
  0
LINE
  5
A9
330
8F
100
AcDbEntity
  8
FORMAT
100
AcDbLine
 10
1664.0538812569
 20
388.4857005791
 30
0.0
 11
1664.0538812569
 21
400.5510762146
 31
0.0
  0
LINE
  5
AA
330
8F
100
AcDbEntity
  8
FORMAT
100
AcDbLine
 10
1660.6881704478
 20
388.4857005791
 30
0.0
 11
1660.6881704478
 21
402.6810297309
 31
0.0
  0
LINE
  5
AB
330
8F
100
AcDbEntity
  8
FORMAT
100
AcDbLine
 10
1653.8067410864
 20
388.4857005791
 30
0.0
 11
1653.8067410864
 21
402.6810297309
 31
0.0
  0
LINE
  5
AC
330
8F
100
AcDbEntity
  8
FORMAT
100
AcDbLine
 10
1655.4974557671
 20
385.5232661892
 30
0.0
 11
1655.4974557671
 21
381.9080925071
 31
0.0
  0
LINE
  5
AD
330
8F
100
AcDbEntity
  8
FORMAT
100
AcDbLine
 10
1658.9974557671
 20
385.5232661892
 30
0.0
 11
1658.9974557671
 21
381.9080925071
 31
0.0
  0
HATCH
  5
AE
330
8F
100
AcDbEntity
  8
FORMAT
100
AcDbHatch
 10
0.0
 20
0.0
 30
0.0
210
0.0
220
0.0
230
1.0
  2
SOLID
 70
     1
 71
     0
 91
        5
 92
        0
 93
        4
 72
     1
 10
1686.776230644441
 20
429.2221955751519
 11
1686.776230644441
 21
370.1646458205502
 72
     1
 10
1686.776230644441
 20
370.1646458205502
 11
1627.718680889839
 21
370.1646458205502
 72
     1
 10
1627.718680889839
 20
370.1646458205502
 11
1627.718680889839
 21
429.2221955751519
 72
     1
 10
1627.718680889839
 20
429.2221955751519
 11
1686.776230644441
 21
429.2221955751519
 97
        0
 92
        0
 93
        4
 72
     2
 10
1657.24745576714
 20
399.693420697851
 40
21.00000000000007
 50
94.78019184719915
 51
265.2198081528017
 73
     0
 72
     1
 10
1655.49745576714
 20
420.6203769982786
 11
1655.49745576714
 21
425.8850224052687
 72
     2
 10
1657.24745576714
 20
399.693420697851
 40
26.25000000000005
 50
93.82255372927435
 51
266.1774462707265
 73
     1
 72
     1
 10
1655.49745576714
 20
373.5018189904334
 11
1655.49745576714
 21
378.7664643974235
 97
        0
 92
        0
 93
        8
 72
     1
 10
1664.053881256931
 20
388.4857005790521
 11
1664.053881256931
 21
400.5510762145541
 72
     2
 10
1657.24745576714
 20
407.6242915052733
 40
9.816201021624591
 50
313.8988153445118
 51
439.730601033339
 73
     1
 72
     1
 10
1658.99745576714
 20
417.2832408527408
 11
1658.99745576714
 21
413.3872642177221
 72
     2
 10
1657.24745576714
 20
407.6242915052733
 40
6.022819479648148
 50
286.8915805399267
 51
415.1604865505418
 73
     0
 72
     1
 10
1660.688170447847
 20
402.6810297308583
 11
1660.688170447847
 21
388.4857005790521
 72
     2
 10
1657.24745576714
 20
388.4857005790521
 40
3.440714680707529
 50
0.0
 51
59.42836299135161
 73
     0
 72
     1
 10
1658.99745576714
 20
385.523266189224
 11
1658.99745576714
 21
381.9080925071099
 72
     2
 10
1657.24745576714
 20
388.4857005790521
 40
6.806425489791268
 50
284.8986481111874
 51
360.0000000000008
 73
     1
 97
        0
 92
        0
 93
        8
 72
     2
 10
1657.24745576714
 20
388.4857005790521
 40
3.440714680707529
 50
120.5716370086479
 51
180.0
 73
     0
 72
     1
 10
1653.806741086432
 20
388.4857005790521
 11
1653.806741086432
 21
402.6810297308583
 72
     2
 10
1657.24745576714
 20
407.6242915052733
 40
6.022819479648148
 50
124.839513449459
 51
253.1084194600749
 73
     0
 72
     1
 10
1655.49745576714
 20
413.3872642177221
 11
1655.49745576714
 21
417.2832408527408
 72
     2
 10
1657.24745576714
 20
407.6242915052733
 40
9.816201021624591
 50
100.2693989666618
 51
226.1011846554899
 73
     1
 72
     1
 10
1650.441030277349
 20
400.5510762145541
 11
1650.441030277349
 21
388.4857005790521
 72
     2
 10
1657.24745576714
 20
388.4857005790521
 40
6.806425489791268
 50
180.0
 51
255.1013518888142
 73
     1
 72
     1
 10
1655.49745576714
 20
381.9080925071099
 11
1655.49745576714
 21
385.5232661892239
 97
        0
 92
        0
 93
        4
 72
     2
 10
1657.24745576714
 20
399.693420697851
 40
21.00000000000007
 50
274.7801918471999
 51
445.2198081528016
 73
     0
 72
     1
 10
1658.99745576714
 20
378.7664643974235
 11
1658.99745576714
 21
373.5018189904334
 72
     2
 10
1657.24745576714
 20
399.693420697851
 40
26.25000000000005
 50
273.8225537292751
 51
446.1774462707265
 73
     1
 72
     1
 10
1658.99745576714
 20
425.8850224052687
 11
1658.99745576714
 21
420.6203769982786
 97
        0
 75
     0
 76
     1
 98
        1
 10
0.0
 20
0.0
  0
INSERT
  5
B4
330
8F
100
AcDbEntity
  8
FORMAT
 62
     7
100
AcDbBlockReference
  2
SW_NOTE_0_1
 10
1625.7602656139
 20
334.0630571774
 30
0.0
  0
INSERT
  5
BC
330
8F
100
AcDbEntity
  8
0
  6
Continuous
 62
     7
370
     0
100
AcDbBlockReference
  2
SW_NOTE_0_2
 10
1708.506124485
 20
399.8232127904
 30
0.0
  0
ENDBLK
  5
91
330
8F
100
AcDbEntity
  8
0
100
AcDbBlockEnd
  0
BLOCK
  5
B0
330
AF
100
AcDbEntity
  8
0
100
AcDbBlockBegin
  2
SW_NOTE_0_1
 70
     0
 10
0.0
 20
0.0
 30
0.0
  3
SW_NOTE_0_1
  1

  0
MTEXT
  5
B3
330
AF
100
AcDbEntity
  8
FORMAT
 62
     0
100
AcDbMText
 10
0.0
 20
27.0563380282
 30
0.0
 40
21.0
 41
0.0
 71
     1
 72
     1
  1
ECO
  7
SLDTEXTSTYLE1
 73
     1
 44
1.0
  0
ENDBLK
  5
B1
330
AF
100
AcDbEntity
  8
0
100
AcDbBlockEnd
  0
BLOCK
  5
B6
330
B5
100
AcDbEntity
  8
0
100
AcDbBlockBegin
  2
SW_NOTE_0_2
 70
     0
 10
0.0
 20
0.0
 30
0.0
  3
SW_NOTE_0_2
  1

  0
MTEXT
  5
B9
330
B5
100
AcDbEntity
  8
0
  6
Continuous
 62
     0
370
     0
100
AcDbMText
 10
0.0
 20
22.558685446
 30
0.0
 40
17.5
 41
0.0
 71
     1
 72
     1
  1
ECO Schulte GmbH & Co. KG
  7
SLDTEXTSTYLE2
 73
     1
 44
1.0
  0
MTEXT
  5
BA
330
B5
100
AcDbEntity
  8
0
  6
Continuous
 62
     0
370
     0
100
AcDbMText
 10
0.0
 20
-1.9413153102
 30
0.0
 40
17.5
 41
0.0
 71
     1
 72
     1
  1
Postfach 206
  7
SLDTEXTSTYLE2
 73
     1
 44
1.0
  0
MTEXT
  5
BB
330
B5
100
AcDbEntity
  8
0
  6
Continuous
 62
     0
370
     0
100
AcDbMText
 10
0.0
 20
-26.4413160665
 30
0.0
 40
17.5
 41
0.0
 71
     1
 72
     1
  1
58682 Menden
  7
SLDTEXTSTYLE2
 73
     1
 44
1.0
  0
ENDBLK
  5
B7
330
B5
100
AcDbEntity
  8
0
100
AcDbBlockEnd
  0
BLOCK
  5
BE
330
BD
100
AcDbEntity
  8
0
100
AcDbBlockBegin
  2
rechtlicher_Hinweis_Katalogzeichnungen_1
 70
     0
 10
0.0
 20
0.0
 30
0.0
  3
rechtlicher_Hinweis_Katalogzeichnungen_1
  1

  0
INSERT
  5
C9
330
BD
100
AcDbEntity
  8
0
  6
Continuous
 62
     7
370
     0
100
AcDbBlockReference
  2
SW_NOTE_0_3
 10
2.1768074632
 20
401.5030406501
 30
0.0
  0
ENDBLK
  5
BF
330
BD
100
AcDbEntity
  8
0
100
AcDbBlockEnd
  0
BLOCK
  5
C1
330
C0
100
AcDbEntity
  8
0
100
AcDbBlockBegin
  2
SW_NOTE_0_3
 70
     0
 10
0.0
 20
0.0
 30
0.0
  3
SW_NOTE_0_3
  1

  0
MTEXT
  5
C3
330
C0
100
AcDbEntity
  8
0
  6
Continuous
 62
     0
370
     0
100
AcDbMText
 10
0.0
 20
45.117370892
 30
0.0
 40
35.0
 41
0.0
 71
     1
 72
     1
  1
Technische Änderungen und Irrtümer vorbehalten. Aus dem Gebrauch der Zeichnung können keinerlei Ansprüche (inkl. 
  7
SLDTEXTSTYLE0
 73
     1
 44
1.0
  0
MTEXT
  5
C4
330
C0
100
AcDbEntity
  8
0
  6
Continuous
 62
     0
370
     0
100
AcDbMText
 10
0.0
 20
-3.8826306204
 30
0.0
 40
35.0
 41
0.0
 71
     1
 72
     1
  1
Schadenersatzansprüche) erhoben und gegen ECO Schulte geltend gemacht werden. Die Zeichnung bleibt unser 
  7
SLDTEXTSTYLE0
 73
     1
 44
1.0
  0
MTEXT
  5
C5
330
C0
100
AcDbEntity
  8
0
  6
Continuous
 62
     0
370
     0
100
AcDbMText
 10
0.0
 20
-52.8826321329
 30
0.0
 40
35.0
 41
0.0
 71
     1
 72
     1
  1
Eigentum. Sämtliche sich aus der Zeichnung ergebenden Ansprüche stehen ausschließlich ECO Schulte zu.
  7
SLDTEXTSTYLE0
 73
     1
 44
1.0
  0
MTEXT
  5
C6
330
C0
100
AcDbEntity
  8
0
  6
Continuous
 62
     0
370
     0
100
AcDbMText
 10
0.0
 20
-150.8826351579
 30
0.0
 40
35.0
 41
0.0
 71
     1
 72
     1
  1
Technical changes and errors excepted. No claims (including compensation claims) may be raised against ECO Schulte by 
  7
SLDTEXTSTYLE0
 73
     1
 44
1.0
  0
MTEXT
  5
C7
330
C0
100
AcDbEntity
  8
0
  6
Continuous
 62
     0
370
     0
100
AcDbMText
 10
0.0
 20
-199.8826366703
 30
0.0
 40
35.0
 41
0.0
 71
     1
 72
     1
  1
using of this drawing. The drawing remains the property of ECO Schulte. All claims resulting from this drawing are solely 
  7
SLDTEXTSTYLE0
 73
     1
 44
1.0
  0
MTEXT
  5
C8
330
C0
100
AcDbEntity
  8
0
  6
Continuous
 62
     0
370
     0
100
AcDbMText
 10
0.0
 20
-248.8826381828
 30
0.0
 40
35.0
 41
0.0
 71
     1
 72
     1
  1
entitled to ECO Schulte.
  7
SLDTEXTSTYLE0
 73
     1
 44
1.0
  0
ENDBLK
  5
C2
330
C0
100
AcDbEntity
  8
0
100
AcDbBlockEnd
  0
BLOCK
  5
DE
330
DD
100
AcDbEntity
  8
0
100
AcDbBlockBegin
  2
SW_NOTE_0_4
 70
     0
 10
0.0
 20
0.0
 30
0.0
  3
SW_NOTE_0_4
  1

  0
MTEXT
  5
E0
330
DD
100
AcDbEntity
  8
FORMAT
 62
     0
100
AcDbMText
 10
0.0
 20
23.8746087637
 30
0.0
 40
18.5208333333
 41
0.0
 71
     1
 72
     1
  1
\LBefestigungsmittel:
  7
SLDTEXTSTYLE0
 73
     1
 44
1.0
  0
MTEXT
  5
E1
330
DD
100
AcDbEntity
  8
FORMAT
 62
     0
100
AcDbMText
 10
0.0
 20
-9.7180977825
 30
0.0
 40
18.5208333333
 41
0.0
 71
     1
 72
     1
  1
1. Montageplatte: Stahl/Alu-Tür: 6x M6 (Einnietmutter M6) ; Holztür: 6x Senkschraube ø6x60
  7
SLDTEXTSTYLE0
 73
     1
 44
1.0
  0
MTEXT
  5
E2
330
DD
100
AcDbEntity
  8
FORMAT
 62
     0
100
AcDbMText
 10
0.0
 20
-41.4125430759
 30
0.0
 40
18.5208333333
 41
0.0
 71
     1
 72
     1
  1
2. Gleitschiene: Stahl/Alu-Tür: 2x M6 (Einnietmutter M6) ; Holztür: 2x Senkschraube ø4x30
  7
SLDTEXTSTYLE0
 73
     1
 44
1.0
  0
ENDBLK
  5
DF
330
DD
100
AcDbEntity
  8
0
100
AcDbBlockEnd
  0
BLOCK
  5
F6
330
F5
100
AcDbEntity
  8
0
100
AcDbBlockBegin
  2
SW_TABLEANNOTATION_0
 70
     0
 10
0.0
 20
0.0
 30
0.0
  3
SW_TABLEANNOTATION_0
  1

  0
LINE
  5
F8
330
F5
100
AcDbEntity
  8
FORMAT
 62
     0
100
AcDbLine
 10
0.0
 20
0.0
 30
0.0
 11
0.0
 21
-38.645834446
 31
0.0
  0
LINE
  5
F9
330
F5
100
AcDbEntity
  8
FORMAT
 62
     0
100
AcDbLine
 10
277.081071603
 20
0.0
 30
0.0
 11
277.081071603
 21
-38.645834446
 31
0.0
  0
LINE
  5
FA
330
F5
100
AcDbEntity
  8
FORMAT
 62
     0
100
AcDbLine
 10
0.0
 20
-38.645834446
 30
0.0
 11
0.0
 21
-77.2916688919
 31
0.0
  0
LINE
  5
FB
330
F5
100
AcDbEntity
  8
FORMAT
 62
     0
100
AcDbLine
 10
277.081071603
 20
-38.645834446
 30
0.0
 11
277.081071603
 21
-77.2916688919
 31
0.0
  0
LINE
  5
FC
330
F5
100
AcDbEntity
  8
FORMAT
 62
     0
100
AcDbLine
 10
0.0
 20
-77.2916688919
 30
0.0
 11
0.0
 21
-115.9375033379
 31
0.0
  0
LINE
  5
FD
330
F5
100
AcDbEntity
  8
FORMAT
 62
     0
100
AcDbLine
 10
277.081071603
 20
-77.2916688919
 30
0.0
 11
277.081071603
 21
-115.9375033379
 31
0.0
  0
LINE
  5
FE
330
F5
100
AcDbEntity
  8
FORMAT
 62
     0
100
AcDbLine
 10
0.0
 20
-115.9375033379
 30
0.0
 11
0.0
 21
-154.5833377838
 31
0.0
  0
LINE
  5
FF
330
F5
100
AcDbEntity
  8
FORMAT
 62
     0
100
AcDbLine
 10
277.081071603
 20
-115.9375033379
 30
0.0
 11
277.081071603
 21
-154.5833377838
 31
0.0
  0
LINE
  5
100
330
F5
100
AcDbEntity
  8
FORMAT
 62
     0
100
AcDbLine
 10
0.0
 20
-154.5833377838
 30
0.0
 11
0.0
 21
-193.2291722298
 31
0.0
  0
LINE
  5
101
330
F5
100
AcDbEntity
  8
FORMAT
 62
     0
100
AcDbLine
 10
277.081071603
 20
-154.5833377838
 30
0.0
 11
277.081071603
 21
-193.2291722298
 31
0.0
  0
LINE
  5
102
330
F5
100
AcDbEntity
  8
FORMAT
 62
     0
100
AcDbLine
 10
461.2657539477
 20
0.0
 30
0.0
 11
461.2657539477
 21
-38.645834446
 31
0.0
  0
LINE
  5
103
330
F5
100
AcDbEntity
  8
FORMAT
 62
     0
100
AcDbLine
 10
461.2657539477
 20
-38.645834446
 30
0.0
 11
461.2657539477
 21
-77.2916688919
 31
0.0
  0
LINE
  5
104
330
F5
100
AcDbEntity
  8
FORMAT
 62
     0
100
AcDbLine
 10
461.2657539477
 20
-77.2916688919
 30
0.0
 11
461.2657539477
 21
-115.9375033379
 31
0.0
  0
LINE
  5
105
330
F5
100
AcDbEntity
  8
FORMAT
 62
     0
100
AcDbLine
 10
461.2657539477
 20
-115.9375033379
 30
0.0
 11
461.2657539477
 21
-154.5833377838
 31
0.0
  0
LINE
  5
106
330
F5
100
AcDbEntity
  8
FORMAT
 62
     0
100
AcDbLine
 10
461.2657539477
 20
-154.5833377838
 30
0.0
 11
461.2657539477
 21
-193.2291722298
 31
0.0
  0
LINE
  5
107
330
F5
100
AcDbEntity
  8
FORMAT
 62
     0
100
AcDbLine
 10
0.0
 20
0.0
 30
0.0
 11
277.081071603
 21
0.0
 31
0.0
  0
LINE
  5
108
330
F5
100
AcDbEntity
  8
FORMAT
 62
     0
100
AcDbLine
 10
0.0
 20
-38.645834446
 30
0.0
 11
277.081071603
 21
-38.645834446
 31
0.0
  0
LINE
  5
109
330
F5
100
AcDbEntity
  8
FORMAT
 62
     0
100
AcDbLine
 10
277.081071603
 20
0.0
 30
0.0
 11
461.2657539477
 21
0.0
 31
0.0
  0
LINE
  5
10A
330
F5
100
AcDbEntity
  8
FORMAT
 62
     0
100
AcDbLine
 10
277.081071603
 20
-38.645834446
 30
0.0
 11
461.2657539477
 21
-38.645834446
 31
0.0
  0
LINE
  5
10B
330
F5
100
AcDbEntity
  8
FORMAT
 62
     0
100
AcDbLine
 10
0.0
 20
-77.2916688919
 30
0.0
 11
277.081071603
 21
-77.2916688919
 31
0.0
  0
LINE
  5
10C
330
F5
100
AcDbEntity
  8
FORMAT
 62
     0
100
AcDbLine
 10
277.081071603
 20
-77.2916688919
 30
0.0
 11
461.2657539477
 21
-77.2916688919
 31
0.0
  0
LINE
  5
10D
330
F5
100
AcDbEntity
  8
FORMAT
 62
     0
100
AcDbLine
 10
0.0
 20
-115.9375033379
 30
0.0
 11
277.081071603
 21
-115.9375033379
 31
0.0
  0
LINE
  5
10E
330
F5
100
AcDbEntity
  8
FORMAT
 62
     0
100
AcDbLine
 10
277.081071603
 20
-115.9375033379
 30
0.0
 11
461.2657539477
 21
-115.9375033379
 31
0.0
  0
LINE
  5
10F
330
F5
100
AcDbEntity
  8
FORMAT
 62
     0
100
AcDbLine
 10
0.0
 20
-154.5833377838
 30
0.0
 11
277.081071603
 21
-154.5833377838
 31
0.0
  0
LINE
  5
110
330
F5
100
AcDbEntity
  8
FORMAT
 62
     0
100
AcDbLine
 10
277.081071603
 20
-154.5833377838
 30
0.0
 11
461.2657539477
 21
-154.5833377838
 31
0.0
  0
LINE
  5
111
330
F5
100
AcDbEntity
  8
FORMAT
 62
     0
100
AcDbLine
 10
0.0
 20
-193.2291722298
 30
0.0
 11
277.081071603
 21
-193.2291722298
 31
0.0
  0
LINE
  5
112
330
F5
100
AcDbEntity
  8
FORMAT
 62
     0
100
AcDbLine
 10
277.081071603
 20
-193.2291722298
 30
0.0
 11
461.2657539477
 21
-193.2291722298
 31
0.0
  0
MTEXT
  5
113
330
F5
100
AcDbEntity
  8
FORMAT
 62
     0
100
AcDbMText
 10
16.0915810703
 20
-6.7004728098
 30
0.0
 40
24.5
 41
0.0
 71
     1
 72
     1
  1
Sturztiefe (mm)
  7
SLDTEXTSTYLE0
 73
     1
 44
1.0
  0
MTEXT
  5
114
330
F5
100
AcDbEntity
  8
FORMAT
 62
     0
100
AcDbMText
 10
311.2411150762
 20
-6.7004728098
 30
0.0
 40
24.5
 41
0.0
 71
     1
 72
     1
  1
D (mm)
  7
SLDTEXTSTYLE0
 73
     1
 44
1.0
  0
MTEXT
  5
115
330
F5
100
AcDbEntity
  8
FORMAT
 62
     0
100
AcDbMText
 10
62.2842857702
 20
-45.3463072558
 30
0.0
 40
24.5
 41
0.0
 71
     1
 72
     1
  1
-30 ... +30
  7
SLDTEXTSTYLE0
 73
     1
 44
1.0
  0
MTEXT
  5
116
330
F5
100
AcDbEntity
  8
FORMAT
 62
     0
100
AcDbMText
 10
350.4581354612
 20
-45.3463072558
 30
0.0
 40
24.5
 41
0.0
 71
     1
 72
     1
  1
89
  7
SLDTEXTSTYLE0
 73
     1
 44
1.0
  0
MTEXT
  5
117
330
F5
100
AcDbEntity
  8
FORMAT
 62
     0
100
AcDbMText
 10
58.0478306948
 20
-83.9921417017
 30
0.0
 40
24.5
 41
0.0
 71
     1
 72
     1
  1
+31 ... +80
  7
SLDTEXTSTYLE0
 73
     1
 44
1.0
  0
MTEXT
  5
118
330
F5
100
AcDbEntity
  8
FORMAT
 62
     0
100
AcDbMText
 10
350.4581354612
 20
-83.9921417017
 30
0.0
 40
24.5
 41
0.0
 71
     1
 72
     1
  1
99
  7
SLDTEXTSTYLE0
 73
     1
 44
1.0
  0
MTEXT
  5
119
330
F5
100
AcDbEntity
  8
FORMAT
 62
     0
100
AcDbMText
 10
48.6901920377
 20
-122.6379761477
 30
0.0
 40
24.5
 41
0.0
 71
     1
 72
     1
  1
+81 ... +100
  7
SLDTEXTSTYLE0
 73
     1
 44
1.0
  0
MTEXT
  5
11A
330
F5
100
AcDbEntity
  8
FORMAT
 62
     0
100
AcDbMText
 10
341.1004968041
 20
-122.6379761477
 30
0.0
 40
24.5
 41
0.0
 71
     1
 72
     1
  1
109
  7
SLDTEXTSTYLE0
 73
     1
 44
1.0
  0
MTEXT
  5
11B
330
F5
100
AcDbEntity
  8
FORMAT
 62
     0
100
AcDbMText
 10
39.3325533806
 20
-161.2838105936
 30
0.0
 40
24.5
 41
0.0
 71
     1
 72
     1
  1
+101 ... +120
  7
SLDTEXTSTYLE0
 73
     1
 44
1.0
  0
MTEXT
  5
11C
330
F5
100
AcDbEntity
  8
FORMAT
 62
     0
100
AcDbMText
 10
341.1004968041
 20
-161.2838105936
 30
0.0
 40
24.5
 41
0.0
 71
     1
 72
     1
  1
119
  7
SLDTEXTSTYLE0
 73
     1
 44
1.0
  0
ENDBLK
  5
F7
330
F5
100
AcDbEntity
  8
0
100
AcDbBlockEnd
  0
BLOCK
  5
230
330
22F
100
AcDbEntity
  8
0
100
AcDbBlockBegin
  2
_D
 70
     0
 10
0.0
 20
0.0
 30
0.0
  3
_D
  1

  0
SOLID
  5
232
330
22F
100
AcDbEntity
  8
FORMAT
100
AcDbTrace
 10
570.8068445458
 20
1491.3213473439
 30
0.0
 11
593.9208445458
 21
1487.7653473439
 31
0.0
 12
593.9208445458
 22
1494.8773473439
 32
0.0
 13
593.9208445458
 23
1494.8773473439
 33
0.0
  0
SOLID
  5
233
330
22F
100
AcDbEntity
  8
FORMAT
100
AcDbTrace
 10
1223.8068445458
 20
1491.3213473439
 30
0.0
 11
1200.6928445458
 21
1494.8773473439
 31
0.0
 12
1200.6928445458
 22
1487.7653473439
 32
0.0
 13
1200.6928445458
 23
1487.7653473439
 33
0.0
  0
LINE
  5
234
330
22F
100
AcDbEntity
  8
FORMAT
100
AcDbLine
 10
570.8068445458
 20
1604.4102171491
 30
0.0
 11
570.8068445458
 21
1484.3213473439
 31
0.0
  0
LINE
  5
235
330
22F
100
AcDbEntity
  8
FORMAT
100
AcDbLine
 10
1223.8068445458
 20
1604.4102171491
 30
0.0
 11
1223.8068445458
 21
1484.3213473439
 31
0.0
  0
LINE
  5
236
330
22F
100
AcDbEntity
  8
FORMAT
100
AcDbLine
 10
570.8068445458
 20
1491.3213473439
 30
0.0
 11
1223.8068445458
 21
1491.3213473439
 31
0.0
  0
MTEXT
  5
237
330
22F
100
AcDbEntity
  8
FORMAT
100
AcDbMText
 10
869.2339285745
 20
1522.9035085981
 30
0.0
 40
24.5
 41
0.0
 71
     1
 72
     1
  1
653
  7
SLDTEXTSTYLE0
 73
     1
 44
1.0
  0
ENDBLK
  5
231
330
22F
100
AcDbEntity
  8
0
100
AcDbBlockEnd
  0
BLOCK
  5
23A
330
239
100
AcDbEntity
  8
0
100
AcDbBlockBegin
  2
_D_1
 70
     0
 10
0.0
 20
0.0
 30
0.0
  3
_D_1
  1

  0
SOLID
  5
23C
330
239
100
AcDbEntity
  8
FORMAT
100
AcDbTrace
 10
468.4607436903
 20
1700.9102171429
 30
0.0
 11
472.0167436903
 21
1724.0242171429
 31
0.0
 12
464.9047436903
 22
1724.0242171429
 32
0.0
 13
464.9047436903
 23
1724.0242171429
 33
0.0
  0
SOLID
  5
23D
330
239
100
AcDbEntity
  8
FORMAT
100
AcDbTrace
 10
468.4607436903
 20
1795.9102171429
 30
0.0
 11
464.9047436903
 21
1772.7962171429
 31
0.0
 12
472.0167436903
 22
1772.7962171429
 32
0.0
 13
472.0167436903
 23
1772.7962171429
 33
0.0
  0
LINE
  5
23E
330
239
100
AcDbEntity
  8
FORMAT
100
AcDbLine
 10
494.8068445458
 20
1700.9102171429
 30
0.0
 11
461.4607436903
 21
1700.9102171429
 31
0.0
  0
LINE
  5
23F
330
239
100
AcDbEntity
  8
FORMAT
100
AcDbLine
 10
494.8068445458
 20
1795.9102171429
 30
0.0
 11
461.4607436903
 21
1795.9102171429
 31
0.0
  0
LINE
  5
240
330
239
100
AcDbEntity
  8
FORMAT
100
AcDbLine
 10
468.4607436903
 20
1700.9102171429
 30
0.0
 11
468.4607436903
 21
1795.9102171429
 31
0.0
  0
MTEXT
  5
241
330
239
100
AcDbEntity
  8
FORMAT
100
AcDbMText
 10
436.8785824361
 20
1729.6949398287
 30
0.0
 40
24.5
 41
0.0
 71
     1
 72
     1
  1
95
  7
SLDTEXTSTYLE0
 11
7.273661547324616E-16
 21
1.0
 31
0.0
 73
     1
 44
1.0
  0
ENDBLK
  5
23B
330
239
100
AcDbEntity
  8
0
100
AcDbBlockEnd
  0
BLOCK
  5
244
330
243
100
AcDbEntity
  8
0
100
AcDbBlockBegin
  2
_D_2
 70
     0
 10
0.0
 20
0.0
 30
0.0
  3
_D_2
  1

  0
SOLID
  5
246
330
243
100
AcDbEntity
  8
FORMAT
100
AcDbTrace
 10
492.3068445458
 20
1859.5575068494
 30
0.0
 11
515.4208445458
 21
1856.0015068494
 31
0.0
 12
515.4208445458
 22
1863.1135068494
 32
0.0
 13
515.4208445458
 23
1863.1135068494
 33
0.0
  0
SOLID
  5
247
330
243
100
AcDbEntity
  8
FORMAT
100
AcDbTrace
 10
1181.3068445458
 20
1859.5575068494
 30
0.0
 11
1158.1928445458
 21
1863.1135068494
 31
0.0
 12
1158.1928445458
 22
1856.0015068494
 32
0.0
 13
1158.1928445458
 23
1856.0015068494
 33
0.0
  0
LINE
  5
248
330
243
100
AcDbEntity
  8
FORMAT
100
AcDbLine
 10
492.3068445458
 20
1797.9102171429
 30
0.0
 11
492.3068445458
 21
1866.5575068494
 31
0.0
  0
LINE
  5
249
330
243
100
AcDbEntity
  8
FORMAT
100
AcDbLine
 10
1181.3068445458
 20
1797.9102171428
 30
0.0
 11
1181.3068445458
 21
1866.5575068494
 31
0.0
  0
LINE
  5
24A
330
243
100
AcDbEntity
  8
FORMAT
100
AcDbLine
 10
492.3068445458
 20
1859.5575068494
 30
0.0
 11
1181.3068445458
 21
1859.5575068494
 31
0.0
  0
MTEXT
  5
24B
330
243
100
AcDbEntity
  8
FORMAT
100
AcDbMText
 10
808.7339285746
 20
1891.1396681036
 30
0.0
 40
24.5
 41
0.0
 71
     1
 72
     1
  1
689
  7
SLDTEXTSTYLE0
 73
     1
 44
1.0
  0
ENDBLK
  5
245
330
243
100
AcDbEntity
  8
0
100
AcDbBlockEnd
  0
BLOCK
  5
24F
330
24E
100
AcDbEntity
  8
0
100
AcDbBlockBegin
  2
_D_3
 70
     0
 10
0.0
 20
0.0
 30
0.0
  3
_D_3
  1

  0
SOLID
  5
251
330
24E
100
AcDbEntity
  8
FORMAT
100
AcDbTrace
 10
1267.163134394
 20
1610.9102171491
 30
0.0
 11
1263.607134394
 21
1587.7962171491
 31
0.0
 12
1270.719134394
 22
1587.7962171491
 32
0.0
 13
1270.719134394
 23
1587.7962171491
 33
0.0
  0
SOLID
  5
252
330
24E
100
AcDbEntity
  8
FORMAT
100
AcDbTrace
 10
1267.163134394
 20
1627.9102171491
 30
0.0
 11
1270.719134394
 21
1651.0242171491
 31
0.0
 12
1263.607134394
 22
1651.0242171491
 32
0.0
 13
1263.607134394
 23
1651.0242171491
 33
0.0
  0
LINE
  5
253
330
24E
100
AcDbEntity
  8
FORMAT
100
AcDbLine
 10
1230.3068445458
 20
1610.9102171491
 30
0.0
 11
1274.163134394
 21
1610.9102171491
 31
0.0
  0
LINE
  5
254
330
24E
100
AcDbEntity
  8
FORMAT
100
AcDbLine
 10
1230.3068445458
 20
1627.9102171491
 30
0.0
 11
1274.163134394
 21
1627.9102171491
 31
0.0
  0
LINE
  5
255
330
24E
100
AcDbEntity
  8
FORMAT
100
AcDbLine
 10
1267.163134394
 20
1610.9102171491
 30
0.0
 11
1267.163134394
 21
1549.3027962597
 31
0.0
  0
LINE
  5
256
330
24E
100
AcDbEntity
  8
FORMAT
100
AcDbLine
 10
1267.163134394
 20
1610.9102171491
 30
0.0
 11
1267.163134394
 21
1627.9102171491
 31
0.0
  0
LINE
  5
257
330
24E
100
AcDbEntity
  8
FORMAT
100
AcDbLine
 10
1267.163134394
 20
1627.9102171491
 30
0.0
 11
1267.163134394
 21
1672.3602171491
 31
0.0
  0
MTEXT
  5
258
330
24E
100
AcDbEntity
  8
FORMAT
100
AcDbMText
 10
1235.5809731398
 20
1549.3027962597
 30
0.0
 40
24.5
 41
0.0
 71
     1
 72
     1
  1
17
  7
SLDTEXTSTYLE0
 11
-3.269436733918102E-15
 21
1.0
 31
0.0
 73
     1
 44
1.0
  0
ENDBLK
  5
250
330
24E
100
AcDbEntity
  8
0
100
AcDbBlockEnd
  0
BLOCK
  5
25B
330
25A
100
AcDbEntity
  8
0
100
AcDbBlockBegin
  2
_D_4
 70
     0
 10
0.0
 20
0.0
 30
0.0
  3
_D_4
  1

  0
SOLID
  5
25D
330
25A
100
AcDbEntity
  8
FORMAT
100
AcDbTrace
 10
491.8068445458
 20
1444.7808979445
 30
0.0
 11
514.9208445458
 21
1441.2248979445
 31
0.0
 12
514.9208445458
 22
1448.3368979445
 32
0.0
 13
514.9208445458
 23
1448.3368979445
 33
0.0
  0
SOLID
  5
25E
330
25A
100
AcDbEntity
  8
FORMAT
100
AcDbTrace
 10
771.8068445458
 20
1444.7808979445
 30
0.0
 11
748.6928445458
 21
1448.3368979445
 31
0.0
 12
748.6928445458
 22
1441.2248979445
 32
0.0
 13
748.6928445458
 23
1441.2248979445
 33
0.0
  0
LINE
  5
25F
330
25A
100
AcDbEntity
  8
FORMAT
100
AcDbLine
 10
771.8068445458
 20
1638.6753469202
 30
0.0
 11
771.8068445458
 21
1437.7808979445
 31
0.0
  0
LINE
  5
260
330
25A
100
AcDbEntity
  8
FORMAT
100
AcDbLine
 10
491.8068445458
 20
1444.7808979445
 30
0.0
 11
771.8068445458
 21
1444.7808979445
 31
0.0
  0
MTEXT
  5
261
330
25A
100
AcDbEntity
  8
FORMAT
100
AcDbMText
 10
603.7339285745
 20
1476.3630591987
 30
0.0
 40
24.5
 41
0.0
 71
     1
 72
     1
  1
280
  7
SLDTEXTSTYLE0
 73
     1
 44
1.0
  0
ENDBLK
  5
25C
330
25A
100
AcDbEntity
  8
0
100
AcDbBlockEnd
  0
BLOCK
  5
32F
330
32E
100
AcDbEntity
  8
0
100
AcDbBlockBegin
  2
_D_5
 70
     0
 10
0.0
 20
0.0
 30
0.0
  3
_D_5
  1

  0
SOLID
  5
331
330
32E
100
AcDbEntity
  8
FORMAT
100
AcDbTrace
 10
1212.5821448685
 20
906.1457783435
 30
0.0
 11
1209.0261448685
 21
883.0317783435
 31
0.0
 12
1216.1381448685
 22
883.0317783435
 32
0.0
 13
1216.1381448685
 23
883.0317783435
 33
0.0
  0
SOLID
  5
332
330
32E
100
AcDbEntity
  8
FORMAT
100
AcDbTrace
 10
1212.5821448685
 20
815.1457783435
 30
0.0
 11
1216.1381448685
 21
838.2597783435
 31
0.0
 12
1209.0261448685
 22
838.2597783435
 32
0.0
 13
1209.0261448685
 23
838.2597783435
 33
0.0
  0
LINE
  5
333
330
32E
100
AcDbEntity
  8
FORMAT
100
AcDbLine
 10
1178.8068445458
 20
906.1457783435
 30
0.0
 11
1219.5821448685
 21
906.1457783435
 31
0.0
  0
LINE
  5
334
330
32E
100
AcDbEntity
  8
FORMAT
100
AcDbLine
 10
1178.8068445458
 20
815.1457783435
 30
0.0
 11
1219.5821448685
 21
815.1457783435
 31
0.0
  0
LINE
  5
335
330
32E
100
AcDbEntity
  8
FORMAT
100
AcDbLine
 10
1212.5821448685
 20
906.1457783435
 30
0.0
 11
1212.5821448685
 21
815.1457783435
 31
0.0
  0
MTEXT
  5
336
330
32E
100
AcDbEntity
  8
FORMAT
100
AcDbMText
 10
1180.9999836142
 20
841.9305010293
 30
0.0
 40
24.5
 41
0.0
 71
     1
 72
     1
  1
91
  7
SLDTEXTSTYLE0
 11
-5.267838178243384E-15
 21
1.0
 31
0.0
 73
     1
 44
1.0
  0
ENDBLK
  5
330
330
32E
100
AcDbEntity
  8
0
100
AcDbBlockEnd
  0
BLOCK
  5
33A
330
339
100
AcDbEntity
  8
0
100
AcDbBlockBegin
  2
_D_6
 70
     0
 10
0.0
 20
0.0
 30
0.0
  3
_D_6
  1

  0
SOLID
  5
33C
330
339
100
AcDbEntity
  8
FORMAT
100
AcDbTrace
 10
1261.1651545496
 20
731.3957783439
 30
0.0
 11
1257.6091545496
 21
708.2817783439
 31
0.0
 12
1264.7211545496
 22
708.2817783439
 32
0.0
 13
1264.7211545496
 23
708.2817783439
 33
0.0
  0
SOLID
  5
33D
330
339
100
AcDbEntity
  8
FORMAT
100
AcDbTrace
 10
1261.1651545496
 20
766.6457783439
 30
0.0
 11
1264.7211545496
 21
789.7597783439
 31
0.0
 12
1257.6091545496
 22
789.7597783439
 32
0.0
 13
1257.6091545496
 23
789.7597783439
 33
0.0
  0
LINE
  5
33E
330
339
100
AcDbEntity
  8
FORMAT
100
AcDbLine
 10
1226.5568445458
 20
731.3957783439
 30
0.0
 11
1268.1651545496
 21
731.3957783439
 31
0.0
  0
LINE
  5
33F
330
339
100
AcDbEntity
  8
FORMAT
100
AcDbLine
 10
1261.1651545496
 20
731.3957783439
 30
0.0
 11
1261.1651545496
 21
662.4548643888
 31
0.0
  0
LINE
  5
340
330
339
100
AcDbEntity
  8
FORMAT
100
AcDbLine
 10
1261.1651545496
 20
731.3957783439
 30
0.0
 11
1261.1651545496
 21
766.6457783439
 31
0.0
  0
LINE
  5
341
330
339
100
AcDbEntity
  8
FORMAT
100
AcDbLine
 10
1261.1651545496
 20
766.6457783439
 30
0.0
 11
1261.1651545496
 21
811.0957783439
 31
0.0
  0
MTEXT
  5
342
330
339
100
AcDbEntity
  8
FORMAT
100
AcDbMText
 10
1229.5829932954
 20
662.4548643888
 30
0.0
 40
24.5
 41
0.0
 71
     1
 72
     1
  1
35
  7
SLDTEXTSTYLE0
 11
6.123233995736766E-17
 21
1.0
 31
0.0
 73
     1
 44
1.0
  0
ENDBLK
  5
33B
330
339
100
AcDbEntity
  8
0
100
AcDbBlockEnd
  0
BLOCK
  5
345
330
344
100
AcDbEntity
  8
0
100
AcDbBlockBegin
  2
_D_7
 70
     0
 10
0.0
 20
0.0
 30
0.0
  3
_D_7
  1

  0
SOLID
  5
347
330
344
100
AcDbEntity
  8
FORMAT
100
AcDbTrace
 10
491.8068445458
 20
599.6856771869
 30
0.0
 11
514.9208445458
 21
596.1296771869
 31
0.0
 12
514.9208445458
 22
603.2416771869
 32
0.0
 13
514.9208445458
 23
603.2416771869
 33
0.0
  0
SOLID
  5
348
330
344
100
AcDbEntity
  8
FORMAT
100
AcDbTrace
 10
580.8068445458
 20
599.6856771869
 30
0.0
 11
557.6928445458
 21
603.2416771869
 31
0.0
 12
557.6928445458
 22
596.1296771869
 32
0.0
 13
557.6928445458
 23
596.1296771869
 33
0.0
  0
LINE
  5
349
330
344
100
AcDbEntity
  8
FORMAT
100
AcDbLine
 10
580.8068445458
 20
718.6457783439
 30
0.0
 11
580.8068445458
 21
592.6856771869
 31
0.0
  0
LINE
  5
34A
330
344
100
AcDbEntity
  8
FORMAT
100
AcDbLine
 10
491.8068445458
 20
599.6856771869
 30
0.0
 11
580.8068445458
 21
599.6856771869
 31
0.0
  0
MTEXT
  5
34B
330
344
100
AcDbEntity
  8
FORMAT
100
AcDbMText
 10
524.1589275993
 20
631.2678384411
 30
0.0
 40
24.5
 41
0.0
 71
     1
 72
     1
  1
D
  7
SLDTEXTSTYLE0
 73
     1
 44
1.0
  0
ENDBLK
  5
346
330
344
100
AcDbEntity
  8
0
100
AcDbBlockEnd
  0
BLOCK
  5
34E
330
34D
100
AcDbEntity
  8
0
100
AcDbBlockBegin
  2
_D_8
 70
     0
 10
0.0
 20
0.0
 30
0.0
  3
_D_8
  1

  0
SOLID
  5
350
330
34D
100
AcDbEntity
  8
FORMAT
100
AcDbTrace
 10
580.8068445458
 20
599.6856771869
 30
0.0
 11
603.9208445458
 21
596.1296771869
 31
0.0
 12
603.9208445458
 22
603.2416771869
 32
0.0
 13
603.9208445458
 23
603.2416771869
 33
0.0
  0
SOLID
  5
351
330
34D
100
AcDbEntity
  8
FORMAT
100
AcDbTrace
 10
1213.8068445458
 20
599.6856771869
 30
0.0
 11
1190.6928445458
 21
603.2416771869
 31
0.0
 12
1190.6928445458
 22
596.1296771869
 32
0.0
 13
1190.6928445458
 23
596.1296771869
 33
0.0
  0
LINE
  5
352
330
34D
100
AcDbEntity
  8
FORMAT
100
AcDbLine
 10
580.8068445458
 20
718.6457783439
 30
0.0
 11
580.8068445458
 21
592.6856771869
 31
0.0
  0
LINE
  5
353
330
34D
100
AcDbEntity
  8
FORMAT
100
AcDbLine
 10
1213.8068445458
 20
718.6457783439
 30
0.0
 11
1213.8068445458
 21
592.6856771869
 31
0.0
  0
LINE
  5
354
330
34D
100
AcDbEntity
  8
FORMAT
100
AcDbLine
 10
580.8068445458
 20
599.6856771869
 30
0.0
 11
1213.8068445458
 21
599.6856771869
 31
0.0
  0
MTEXT
  5
355
330
34D
100
AcDbEntity
  8
FORMAT
100
AcDbMText
 10
869.2339285745
 20
631.2678384411
 30
0.0
 40
24.5
 41
0.0
 71
     1
 72
     1
  1
633
  7
SLDTEXTSTYLE0
 73
     1
 44
1.0
  0
ENDBLK
  5
34F
330
34D
100
AcDbEntity
  8
0
100
AcDbBlockEnd
  0
BLOCK
  5
358
330
357
100
AcDbEntity
  8
0
100
AcDbBlockBegin
  2
_D_9
 70
     0
 10
0.0
 20
0.0
 30
0.0
  3
_D_9
  1

  0
SOLID
  5
35A
330
357
100
AcDbEntity
  8
FORMAT
100
AcDbTrace
 10
650.6937556873
 20
766.6457783439
 30
0.0
 11
647.1377556873
 21
743.5317783439
 31
0.0
 12
654.2497556873
 22
743.5317783439
 32
0.0
 13
654.2497556873
 23
743.5317783439
 33
0.0
  0
SOLID
  5
35B
330
357
100
AcDbEntity
  8
FORMAT
100
AcDbTrace
 10
650.6937556873
 20
822.6457783435
 30
0.0
 11
654.2497556873
 21
845.7597783435
 31
0.0
 12
647.1377556873
 22
845.7597783435
 32
0.0
 13
647.1377556873
 23
845.7597783435
 33
0.0
  0
LINE
  5
35C
330
357
100
AcDbEntity
  8
FORMAT
100
AcDbLine
 10
696.0568445458
 20
822.6457783435
 30
0.0
 11
643.6937556873
 21
822.6457783435
 31
0.0
  0
LINE
  5
35D
330
357
100
AcDbEntity
  8
FORMAT
100
AcDbLine
 10
650.6937556873
 20
766.6457783439
 30
0.0
 11
650.6937556873
 21
703.4185635706
 31
0.0
  0
LINE
  5
35E
330
357
100
AcDbEntity
  8
FORMAT
100
AcDbLine
 10
650.6937556873
 20
766.6457783439
 30
0.0
 11
650.6937556873
 21
822.6457783435
 31
0.0
  0
LINE
  5
35F
330
357
100
AcDbEntity
  8
FORMAT
100
AcDbLine
 10
650.6937556873
 20
822.6457783435
 30
0.0
 11
650.6937556873
 21
867.0957783435
 31
0.0
  0
MTEXT
  5
360
330
357
100
AcDbEntity
  8
FORMAT
100
AcDbMText
 10
619.1115944331
 20
703.4185635706
 30
0.0
 40
24.5
 41
0.0
 71
     1
 72
     1
  1
56
  7
SLDTEXTSTYLE0
 11
6.123233995736766E-17
 21
1.0
 31
0.0
 73
     1
 44
1.0
  0
ENDBLK
  5
359
330
357
100
AcDbEntity
  8
0
100
AcDbBlockEnd
  0
BLOCK
  5
363
330
362
100
AcDbEntity
  8
0
100
AcDbBlockBegin
  2
_D_10
 70
     0
 10
0.0
 20
0.0
 30
0.0
  3
_D_10
  1

  0
SOLID
  5
365
330
362
100
AcDbEntity
  8
FORMAT
100
AcDbTrace
 10
356.9774816063
 20
766.6457783439
 30
0.0
 11
353.4214816063
 21
743.5317783439
 31
0.0
 12
360.5334816063
 22
743.5317783439
 32
0.0
 13
360.5334816063
 23
743.5317783439
 33
0.0
  0
SOLID
  5
366
330
362
100
AcDbEntity
  8
FORMAT
100
AcDbTrace
 10
356.9774816063
 20
815.1457783435
 30
0.0
 11
360.5334816063
 21
838.2597783435
 31
0.0
 12
353.4214816063
 22
838.2597783435
 32
0.0
 13
353.4214816063
 23
838.2597783435
 33
0.0
  0
LINE
  5
367
330
362
100
AcDbEntity
  8
FORMAT
100
AcDbLine
 10
489.8068445458
 20
766.6457783439
 30
0.0
 11
349.9774816063
 21
766.6457783439
 31
0.0
  0
LINE
  5
368
330
362
100
AcDbEntity
  8
FORMAT
100
AcDbLine
 10
494.8068445458
 20
815.1457783435
 30
0.0
 11
349.9774816063
 21
815.1457783435
 31
0.0
  0
LINE
  5
369
330
362
100
AcDbEntity
  8
FORMAT
100
AcDbLine
 10
356.9774816063
 20
766.6457783439
 30
0.0
 11
356.9774816063
 21
684.1744055039
 31
0.0
  0
LINE
  5
36A
330
362
100
AcDbEntity
  8
FORMAT
100
AcDbLine
 10
356.9774816063
 20
766.6457783439
 30
0.0
 11
356.9774816063
 21
815.1457783435
 31
0.0
  0
LINE
  5
36B
330
362
100
AcDbEntity
  8
FORMAT
100
AcDbLine
 10
356.9774816063
 20
815.1457783435
 30
0.0
 11
356.9774816063
 21
859.5957783435
 31
0.0
  0
MTEXT
  5
36C
330
362
100
AcDbEntity
  8
FORMAT
100
AcDbMText
 10
325.3953203521
 20
684.1744055039
 30
0.0
 40
24.5
 41
0.0
 71
     1
 72
     1
  1
49
  7
SLDTEXTSTYLE0
 11
6.123233995736766E-17
 21
1.0
 31
0.0
 73
     1
 44
1.0
  0
ENDBLK
  5
364
330
362
100
AcDbEntity
  8
0
100
AcDbBlockEnd
  0
BLOCK
  5
36F
330
36E
100
AcDbEntity
  8
0
100
AcDbBlockBegin
  2
_D_11
 70
     0
 10
0.0
 20
0.0
 30
0.0
  3
_D_11
  1

  0
SOLID
  5
371
330
36E
100
AcDbEntity
  8
FORMAT
100
AcDbTrace
 10
313.8117579247
 20
815.1457783435
 30
0.0
 11
310.2557579247
 21
792.0317783435
 31
0.0
 12
317.3677579247
 22
792.0317783435
 32
0.0
 13
317.3677579247
 23
792.0317783435
 33
0.0
  0
SOLID
  5
372
330
36E
100
AcDbEntity
  8
FORMAT
100
AcDbTrace
 10
313.8117579247
 20
849.6457783439
 30
0.0
 11
317.3677579247
 21
872.7597783439
 31
0.0
 12
310.2557579247
 22
872.7597783439
 32
0.0
 13
310.2557579247
 23
872.7597783439
 33
0.0
  0
LINE
  5
373
330
36E
100
AcDbEntity
  8
FORMAT
100
AcDbLine
 10
494.8068445458
 20
815.1457783435
 30
0.0
 11
306.8117579247
 21
815.1457783435
 31
0.0
  0
LINE
  5
374
330
36E
100
AcDbEntity
  8
FORMAT
100
AcDbLine
 10
496.3068445458
 20
849.6457783439
 30
0.0
 11
367.4774816063
 21
849.6457783439
 31
0.0
  0
LINE
  5
375
330
36E
100
AcDbEntity
  8
FORMAT
100
AcDbLine
 10
346.4774816063
 20
849.6457783439
 30
0.0
 11
306.8117579247
 21
849.6457783439
 31
0.0
  0
LINE
  5
376
330
36E
100
AcDbEntity
  8
FORMAT
100
AcDbLine
 10
313.8117579247
 20
815.1457783435
 30
0.0
 11
313.8117579247
 21
684.1744055039
 31
0.0
  0
LINE
  5
377
330
36E
100
AcDbEntity
  8
FORMAT
100
AcDbLine
 10
313.8117579247
 20
815.1457783435
 30
0.0
 11
313.8117579247
 21
849.6457783439
 31
0.0
  0
LINE
  5
378
330
36E
100
AcDbEntity
  8
FORMAT
100
AcDbLine
 10
313.8117579247
 20
849.6457783439
 30
0.0
 11
313.8117579247
 21
894.0957783439
 31
0.0
  0
MTEXT
  5
379
330
36E
100
AcDbEntity
  8
FORMAT
100
AcDbMText
 10
282.2295966705
 20
684.1744055039
 30
0.0
 40
24.5
 41
0.0
 71
     1
 72
     1
  1
35
  7
SLDTEXTSTYLE0
 11
9.494107596574928E-16
 21
1.0
 31
0.0
 73
     1
 44
1.0
  0
ENDBLK
  5
370
330
36E
100
AcDbEntity
  8
0
100
AcDbBlockEnd
  0
BLOCK
  5
37C
330
37B
100
AcDbEntity
  8
0
100
AcDbBlockBegin
  2
_D_12
 70
     0
 10
0.0
 20
0.0
 30
0.0
  3
_D_12
  1

  0
SOLID
  5
37E
330
37B
100
AcDbEntity
  8
FORMAT
100
AcDbTrace
 10
269.0109689521
 20
849.6457783439
 30
0.0
 11
265.4549689521
 21
826.5317783439
 31
0.0
 12
272.5669689521
 22
826.5317783439
 32
0.0
 13
272.5669689521
 23
826.5317783439
 33
0.0
  0
SOLID
  5
37F
330
37B
100
AcDbEntity
  8
FORMAT
100
AcDbTrace
 10
269.0109689521
 20
872.6457783439
 30
0.0
 11
272.5669689521
 21
895.7597783439
 31
0.0
 12
265.4549689521
 22
895.7597783439
 32
0.0
 13
265.4549689521
 23
895.7597783439
 33
0.0
  0
LINE
  5
380
330
37B
100
AcDbEntity
  8
FORMAT
100
AcDbLine
 10
496.3068445458
 20
849.6457783439
 30
0.0
 11
367.4774816063
 21
849.6457783439
 31
0.0
  0
LINE
  5
381
330
37B
100
AcDbEntity
  8
FORMAT
100
AcDbLine
 10
346.4774816063
 20
849.6457783439
 30
0.0
 11
262.0109689521
 21
849.6457783439
 31
0.0
  0
LINE
  5
382
330
37B
100
AcDbEntity
  8
FORMAT
100
AcDbLine
 10
496.3068445458
 20
872.6457783439
 30
0.0
 11
324.3117579247
 21
872.6457783439
 31
0.0
  0
LINE
  5
383
330
37B
100
AcDbEntity
  8
FORMAT
100
AcDbLine
 10
303.3117579247
 20
872.6457783439
 30
0.0
 11
262.0109689521
 21
872.6457783439
 31
0.0
  0
LINE
  5
384
330
37B
100
AcDbEntity
  8
FORMAT
100
AcDbLine
 10
269.0109689521
 20
849.6457783439
 30
0.0
 11
269.0109689521
 21
684.1744055039
 31
0.0
  0
LINE
  5
385
330
37B
100
AcDbEntity
  8
FORMAT
100
AcDbLine
 10
269.0109689521
 20
849.6457783439
 30
0.0
 11
269.0109689521
 21
872.6457783439
 31
0.0
  0
LINE
  5
386
330
37B
100
AcDbEntity
  8
FORMAT
100
AcDbLine
 10
269.0109689521
 20
872.6457783439
 30
0.0
 11
269.0109689521
 21
917.0957783439
 31
0.0
  0
MTEXT
  5
387
330
37B
100
AcDbEntity
  8
FORMAT
100
AcDbMText
 10
237.4288076978
 20
684.1744055039
 30
0.0
 40
24.5
 41
0.0
 71
     1
 72
     1
  1
23
  7
SLDTEXTSTYLE0
 11
6.123233995736766E-17
 21
1.0
 31
0.0
 73
     1
 44
1.0
  0
ENDBLK
  5
37D
330
37B
100
AcDbEntity
  8
0
100
AcDbBlockEnd
  0
BLOCK
  5
38A
330
389
100
AcDbEntity
  8
0
100
AcDbBlockBegin
  2
_D_13
 70
     0
 10
0.0
 20
0.0
 30
0.0
  3
_D_13
  1

  0
SOLID
  5
38C
330
389
100
AcDbEntity
  8
FORMAT
100
AcDbTrace
 10
491.8068445458
 20
966.5676142425
 30
0.0
 11
468.6928445458
 21
970.1236142425
 31
0.0
 12
468.6928445458
 22
963.0116142425
 32
0.0
 13
468.6928445458
 23
963.0116142425
 33
0.0
  0
SOLID
  5
38D
330
389
100
AcDbEntity
  8
FORMAT
100
AcDbTrace
 10
501.8068445458
 20
966.5676142425
 30
0.0
 11
524.9208445458
 21
963.0116142425
 31
0.0
 12
524.9208445458
 22
970.1236142425
 32
0.0
 13
524.9208445458
 23
970.1236142425
 33
0.0
  0
LINE
  5
38E
330
389
100
AcDbEntity
  8
FORMAT
100
AcDbLine
 10
491.8068445458
 20
632.9729803131
 30
0.0
 11
491.8068445458
 21
973.5676142425
 31
0.0
  0
LINE
  5
38F
330
389
100
AcDbEntity
  8
FORMAT
100
AcDbLine
 10
501.8068445458
 20
840.1457783435
 30
0.0
 11
501.8068445458
 21
973.5676142425
 31
0.0
  0
LINE
  5
390
330
389
100
AcDbEntity
  8
FORMAT
100
AcDbLine
 10
491.8068445458
 20
966.5676142425
 30
0.0
 11
420.7473879726
 21
966.5676142425
 31
0.0
  0
LINE
  5
391
330
389
100
AcDbEntity
  8
FORMAT
100
AcDbLine
 10
491.8068445458
 20
966.5676142425
 30
0.0
 11
501.8068445458
 21
966.5676142425
 31
0.0
  0
LINE
  5
392
330
389
100
AcDbEntity
  8
FORMAT
100
AcDbLine
 10
501.8068445458
 20
966.5676142425
 30
0.0
 11
546.2568445458
 21
966.5676142425
 31
0.0
  0
MTEXT
  5
393
330
389
100
AcDbEntity
  8
FORMAT
100
AcDbMText
 10
420.7473879726
 20
998.1497754968
 30
0.0
 40
24.5
 41
0.0
 71
     1
 72
     1
  1
10
  7
SLDTEXTSTYLE0
 73
     1
 44
1.0
  0
ENDBLK
  5
38B
330
389
100
AcDbEntity
  8
0
100
AcDbBlockEnd
  0
BLOCK
  5
396
330
395
100
AcDbEntity
  8
0
100
AcDbBlockBegin
  2
_D_14
 70
     0
 10
0.0
 20
0.0
 30
0.0
  3
_D_14
  1

  0
SOLID
  5
398
330
395
100
AcDbEntity
  8
FORMAT
100
AcDbTrace
 10
491.8068445458
 20
1008.8375601916
 30
0.0
 11
468.6928445458
 21
1012.3935601916
 31
0.0
 12
468.6928445458
 22
1005.2815601916
 32
0.0
 13
468.6928445458
 23
1005.2815601916
 33
0.0
  0
SOLID
  5
399
330
395
100
AcDbEntity
  8
FORMAT
100
AcDbTrace
 10
515.8068445458
 20
1008.8375601916
 30
0.0
 11
538.9208445458
 21
1005.2815601916
 31
0.0
 12
538.9208445458
 22
1012.3935601916
 32
0.0
 13
538.9208445458
 23
1012.3935601916
 33
0.0
  0
LINE
  5
39A
330
395
100
AcDbEntity
  8
FORMAT
100
AcDbLine
 10
491.8068445458
 20
632.9729803131
 30
0.0
 11
491.8068445458
 21
1015.8375601916
 31
0.0
  0
LINE
  5
39B
330
395
100
AcDbEntity
  8
FORMAT
100
AcDbLine
 10
515.8068445458
 20
869.1457783439
 30
0.0
 11
515.8068445458
 21
1015.8375601916
 31
0.0
  0
LINE
  5
39C
330
395
100
AcDbEntity
  8
FORMAT
100
AcDbLine
 10
491.8068445458
 20
1008.8375601916
 30
0.0
 11
420.7473879726
 21
1008.8375601916
 31
0.0
  0
LINE
  5
39D
330
395
100
AcDbEntity
  8
FORMAT
100
AcDbLine
 10
491.8068445458
 20
1008.8375601916
 30
0.0
 11
515.8068445458
 21
1008.8375601916
 31
0.0
  0
LINE
  5
39E
330
395
100
AcDbEntity
  8
FORMAT
100
AcDbLine
 10
515.8068445458
 20
1008.8375601916
 30
0.0
 11
560.2568445458
 21
1008.8375601916
 31
0.0
  0
MTEXT
  5
39F
330
395
100
AcDbEntity
  8
FORMAT
100
AcDbMText
 10
420.7473879726
 20
1040.4197214458
 30
0.0
 40
24.5
 41
0.0
 71
     1
 72
     1
  1
24
  7
SLDTEXTSTYLE0
 73
     1
 44
1.0
  0
ENDBLK
  5
397
330
395
100
AcDbEntity
  8
0
100
AcDbBlockEnd
  0
BLOCK
  5
3A2
330
3A1
100
AcDbEntity
  8
0
100
AcDbBlockBegin
  2
_D_15
 70
     0
 10
0.0
 20
0.0
 30
0.0
  3
_D_15
  1

  0
SOLID
  5
3A4
330
3A1
100
AcDbEntity
  8
FORMAT
100
AcDbTrace
 10
491.8068445458
 20
1038.6551486193
 30
0.0
 11
514.9208445458
 21
1035.0991486193
 31
0.0
 12
514.9208445458
 22
1042.2111486193
 32
0.0
 13
514.9208445458
 23
1042.2111486193
 33
0.0
  0
SOLID
  5
3A5
330
3A1
100
AcDbEntity
  8
FORMAT
100
AcDbTrace
 10
708.8068445458
 20
1038.6551486193
 30
0.0
 11
685.6928445458
 21
1042.2111486193
 31
0.0
 12
685.6928445458
 22
1035.0991486193
 32
0.0
 13
685.6928445458
 23
1035.0991486193
 33
0.0
  0
LINE
  5
3A6
330
3A1
100
AcDbEntity
  8
FORMAT
100
AcDbLine
 10
491.8068445458
 20
632.9729803131
 30
0.0
 11
491.8068445458
 21
1045.6551486193
 31
0.0
  0
LINE
  5
3A7
330
3A1
100
AcDbEntity
  8
FORMAT
100
AcDbLine
 10
708.8068445458
 20
911.3957783435
 30
0.0
 11
708.8068445458
 21
1045.6551486193
 31
0.0
  0
LINE
  5
3A8
330
3A1
100
AcDbEntity
  8
FORMAT
100
AcDbLine
 10
491.8068445458
 20
1038.6551486193
 30
0.0
 11
708.8068445458
 21
1038.6551486193
 31
0.0
  0
MTEXT
  5
3A9
330
3A1
100
AcDbEntity
  8
FORMAT
100
AcDbMText
 10
572.2339285745
 20
1070.2373098735
 30
0.0
 40
24.5
 41
0.0
 71
     1
 72
     1
  1
217
  7
SLDTEXTSTYLE0
 73
     1
 44
1.0
  0
ENDBLK
  5
3A3
330
3A1
100
AcDbEntity
  8
0
100
AcDbBlockEnd
  0
BLOCK
  5
3AC
330
3AB
100
AcDbEntity
  8
0
100
AcDbBlockBegin
  2
_D_16
 70
     0
 10
0.0
 20
0.0
 30
0.0
  3
_D_16
  1

  0
SOLID
  5
3AE
330
3AB
100
AcDbEntity
  8
FORMAT
100
AcDbTrace
 10
708.8068445458
 20
1038.6551486193
 30
0.0
 11
731.9208445458
 21
1035.0991486193
 31
0.0
 12
731.9208445458
 22
1042.2111486193
 32
0.0
 13
731.9208445458
 23
1042.2111486193
 33
0.0
  0
SOLID
  5
3AF
330
3AB
100
AcDbEntity
  8
FORMAT
100
AcDbTrace
 10
915.8068445458
 20
1038.6551486193
 30
0.0
 11
892.6928445458
 21
1042.2111486193
 31
0.0
 12
892.6928445458
 22
1035.0991486193
 32
0.0
 13
892.6928445458
 23
1035.0991486193
 33
0.0
  0
LINE
  5
3B0
330
3AB
100
AcDbEntity
  8
FORMAT
100
AcDbLine
 10
708.8068445458
 20
911.3957783435
 30
0.0
 11
708.8068445458
 21
1045.6551486193
 31
0.0
  0
LINE
  5
3B1
330
3AB
100
AcDbEntity
  8
FORMAT
100
AcDbLine
 10
915.8068445458
 20
911.3957783435
 30
0.0
 11
915.8068445458
 21
1045.6551486193
 31
0.0
  0
LINE
  5
3B2
330
3AB
100
AcDbEntity
  8
FORMAT
100
AcDbLine
 10
708.8068445458
 20
1038.6551486193
 30
0.0
 11
915.8068445458
 21
1038.6551486193
 31
0.0
  0
MTEXT
  5
3B3
330
3AB
100
AcDbEntity
  8
FORMAT
100
AcDbMText
 10
784.2339285745
 20
1070.2373098735
 30
0.0
 40
24.5
 41
0.0
 71
     1
 72
     1
  1
207
  7
SLDTEXTSTYLE0
 73
     1
 44
1.0
  0
ENDBLK
  5
3AD
330
3AB
100
AcDbEntity
  8
0
100
AcDbBlockEnd
  0
BLOCK
  5
3B6
330
3B5
100
AcDbEntity
  8
0
100
AcDbBlockBegin
  2
_D_17
 70
     0
 10
0.0
 20
0.0
 30
0.0
  3
_D_17
  1

  0
SOLID
  5
3B8
330
3B5
100
AcDbEntity
  8
FORMAT
100
AcDbTrace
 10
915.8068445458
 20
1038.6551486193
 30
0.0
 11
938.9208445458
 21
1035.0991486193
 31
0.0
 12
938.9208445458
 22
1042.2111486193
 32
0.0
 13
938.9208445458
 23
1042.2111486193
 33
0.0
  0
SOLID
  5
3B9
330
3B5
100
AcDbEntity
  8
FORMAT
100
AcDbTrace
 10
1141.8068445458
 20
1038.6551486193
 30
0.0
 11
1118.6928445458
 21
1042.2111486193
 31
0.0
 12
1118.6928445458
 22
1035.0991486193
 32
0.0
 13
1118.6928445458
 23
1035.0991486193
 33
0.0
  0
LINE
  5
3BA
330
3B5
100
AcDbEntity
  8
FORMAT
100
AcDbLine
 10
915.8068445458
 20
911.3957783435
 30
0.0
 11
915.8068445458
 21
1045.6551486193
 31
0.0
  0
LINE
  5
3BB
330
3B5
100
AcDbEntity
  8
FORMAT
100
AcDbLine
 10
1141.8068445458
 20
911.3957783435
 30
0.0
 11
1141.8068445458
 21
1045.6551486193
 31
0.0
  0
LINE
  5
3BC
330
3B5
100
AcDbEntity
  8
FORMAT
100
AcDbLine
 10
915.8068445458
 20
1038.6551486193
 30
0.0
 11
1141.8068445458
 21
1038.6551486193
 31
0.0
  0
MTEXT
  5
3BD
330
3B5
100
AcDbEntity
  8
FORMAT
100
AcDbMText
 10
1000.7339285745
 20
1070.2373098735
 30
0.0
 40
24.5
 41
0.0
 71
     1
 72
     1
  1
226
  7
SLDTEXTSTYLE0
 73
     1
 44
1.0
  0
ENDBLK
  5
3B7
330
3B5
100
AcDbEntity
  8
0
100
AcDbBlockEnd
  0
BLOCK
  5
3C0
330
3BF
100
AcDbEntity
  8
0
100
AcDbBlockBegin
  2
_D_18
 70
     0
 10
0.0
 20
0.0
 30
0.0
  3
_D_18
  1

  0
SOLID
  5
3C2
330
3BF
100
AcDbEntity
  8
FORMAT
100
AcDbTrace
 10
491.8068445458
 20
1086.7573582678
 30
0.0
 11
514.9208445458
 21
1083.2013582678
 31
0.0
 12
514.9208445458
 22
1090.3133582678
 32
0.0
 13
514.9208445458
 23
1090.3133582678
 33
0.0
  0
SOLID
  5
3C3
330
3BF
100
AcDbEntity
  8
FORMAT
100
AcDbTrace
 10
1157.8068445458
 20
1086.7573582678
 30
0.0
 11
1134.6928445458
 21
1090.3133582678
 31
0.0
 12
1134.6928445458
 22
1083.2013582678
 32
0.0
 13
1134.6928445458
 23
1083.2013582678
 33
0.0
  0
LINE
  5
3C4
330
3BF
100
AcDbEntity
  8
FORMAT
100
AcDbLine
 10
491.8068445458
 20
632.9729803131
 30
0.0
 11
491.8068445458
 21
1093.7573582678
 31
0.0
  0
LINE
  5
3C5
330
3BF
100
AcDbEntity
  8
FORMAT
100
AcDbLine
 10
1157.8068445458
 20
869.1457783439
 30
0.0
 11
1157.8068445458
 21
1093.7573582678
 31
0.0
  0
LINE
  5
3C6
330
3BF
100
AcDbEntity
  8
FORMAT
100
AcDbLine
 10
491.8068445458
 20
1086.7573582678
 30
0.0
 11
1157.8068445458
 21
1086.7573582678
 31
0.0
  0
MTEXT
  5
3C7
330
3BF
100
AcDbEntity
  8
FORMAT
100
AcDbMText
 10
796.7339285745
 20
1118.339519522
 30
0.0
 40
24.5
 41
0.0
 71
     1
 72
     1
  1
666
  7
SLDTEXTSTYLE0
 73
     1
 44
1.0
  0
ENDBLK
  5
3C1
330
3BF
100
AcDbEntity
  8
0
100
AcDbBlockEnd
  0
BLOCK
  5
3CA
330
3C9
100
AcDbEntity
  8
0
100
AcDbBlockBegin
  2
_D_19
 70
     0
 10
0.0
 20
0.0
 30
0.0
  3
_D_19
  1

  0
SOLID
  5
3CC
330
3C9
100
AcDbEntity
  8
FORMAT
100
AcDbTrace
 10
491.8068445458
 20
1131.9582630258
 30
0.0
 11
514.9208445458
 21
1128.4022630258
 31
0.0
 12
514.9208445458
 22
1135.5142630258
 32
0.0
 13
514.9208445458
 23
1135.5142630258
 33
0.0
  0
SOLID
  5
3CD
330
3C9
100
AcDbEntity
  8
FORMAT
100
AcDbTrace
 10
1171.8068445458
 20
1131.9582630258
 30
0.0
 11
1148.6928445458
 21
1135.5142630258
 31
0.0
 12
1148.6928445458
 22
1128.4022630258
 32
0.0
 13
1148.6928445458
 23
1128.4022630258
 33
0.0
  0
LINE
  5
3CE
330
3C9
100
AcDbEntity
  8
FORMAT
100
AcDbLine
 10
491.8068445458
 20
632.9729803131
 30
0.0
 11
491.8068445458
 21
1138.9582630258
 31
0.0
  0
LINE
  5
3CF
330
3C9
100
AcDbEntity
  8
FORMAT
100
AcDbLine
 10
1171.8068445458
 20
905.6457783435
 30
0.0
 11
1171.8068445458
 21
1138.9582630258
 31
0.0
  0
LINE
  5
3D0
330
3C9
100
AcDbEntity
  8
FORMAT
100
AcDbLine
 10
491.8068445458
 20
1131.9582630258
 30
0.0
 11
1171.8068445458
 21
1131.9582630258
 31
0.0
  0
MTEXT
  5
3D1
330
3C9
100
AcDbEntity
  8
FORMAT
100
AcDbMText
 10
803.7339285745
 20
1163.5404242801
 30
0.0
 40
24.5
 41
0.0
 71
     1
 72
     1
  1
680
  7
SLDTEXTSTYLE0
 73
     1
 44
1.0
  0
ENDBLK
  5
3CB
330
3C9
100
AcDbEntity
  8
0
100
AcDbBlockEnd
  0
BLOCK
  5
3D8
330
3D7
100
AcDbEntity
  8
0
100
AcDbBlockBegin
  2
SW_NOTE_0_5
 70
     0
 10
0.0
 20
0.0
 30
0.0
  3
SW_NOTE_0_5
  1

  0
MTEXT
  5
3DA
330
3D7
100
AcDbEntity
  8
FORMAT
 62
     0
100
AcDbMText
 10
-306.5581674437
 20
37.2226244705
 30
0.0
 40
18.5208333333
 41
0.0
 71
     1
 72
     1
  1
ø20
  7
SLDTEXTSTYLE0
 73
     1
 44
1.0
  0
MTEXT
  5
3DB
330
3D7
100
AcDbEntity
  8
FORMAT
 62
     0
100
AcDbMText
 10
-306.5581674437
 20
5.5281791771
 30
0.0
 40
18.5208333333
 41
0.0
 71
     1
 72
     1
  1
(verdeckte Kabelzuführung)
  7
SLDTEXTSTYLE0
 73
     1
 44
1.0
  0
ENDBLK
  5
3D9
330
3D7
100
AcDbEntity
  8
0
100
AcDbBlockEnd
  0
BLOCK
  5
3DF
330
3DE
100
AcDbEntity
  8
0
100
AcDbBlockBegin
  2
SW_CENTERMARKSYMBOL_0
 70
     0
 10
0.0
 20
0.0
 30
0.0
  3
SW_CENTERMARKSYMBOL_0
  1

  0
LINE
  5
3E1
330
3DE
100
AcDbEntity
  8
FORMAT
 62
     0
100
AcDbLine
 10
0.0
 20
0.0
 30
0.0
 11
0.0
 21
2.5
 31
0.0
  0
LINE
  5
3E2
330
3DE
100
AcDbEntity
  8
FORMAT
 62
     0
100
AcDbLine
 10
0.0
 20
0.0
 30
0.0
 11
-2.5
 21
0.0
 31
0.0
  0
LINE
  5
3E3
330
3DE
100
AcDbEntity
  8
FORMAT
 62
     0
100
AcDbLine
 10
0.0
 20
0.0
 30
0.0
 11
0.0
 21
-2.5
 31
0.0
  0
LINE
  5
3E4
330
3DE
100
AcDbEntity
  8
FORMAT
 62
     0
100
AcDbLine
 10
0.0
 20
0.0
 30
0.0
 11
2.5
 21
0.0
 31
0.0
  0
LINE
  5
3E5
330
3DE
100
AcDbEntity
  8
FORMAT
 62
     0
100
AcDbLine
 10
0.0
 20
5.0
 30
0.0
 11
0.0
 21
5.75
 31
0.0
  0
LINE
  5
3E6
330
3DE
100
AcDbEntity
  8
FORMAT
 62
     0
100
AcDbLine
 10
-5.0
 20
0.0
 30
0.0
 11
-5.75
 21
0.0
 31
0.0
  0
LINE
  5
3E7
330
3DE
100
AcDbEntity
  8
FORMAT
 62
     0
100
AcDbLine
 10
0.0
 20
-5.0
 30
0.0
 11
0.0
 21
-5.75
 31
0.0
  0
LINE
  5
3E8
330
3DE
100
AcDbEntity
  8
FORMAT
 62
     0
100
AcDbLine
 10
5.0
 20
0.0
 30
0.0
 11
5.75
 21
0.0
 31
0.0
  0
ENDBLK
  5
3E0
330
3DE
100
AcDbEntity
  8
0
100
AcDbBlockEnd
  0
BLOCK
  5
3EB
330
3EA
100
AcDbEntity
  8
0
100
AcDbBlockBegin
  2
SW_CENTERMARKSYMBOL_1
 70
     0
 10
0.0
 20
0.0
 30
0.0
  3
SW_CENTERMARKSYMBOL_1
  1

  0
LINE
  5
3ED
330
3EA
100
AcDbEntity
  8
FORMAT
 62
     0
100
AcDbLine
 10
0.0
 20
0.0
 30
0.0
 11
0.0
 21
2.5
 31
0.0
  0
LINE
  5
3EE
330
3EA
100
AcDbEntity
  8
FORMAT
 62
     0
100
AcDbLine
 10
0.0
 20
0.0
 30
0.0
 11
-2.5
 21
0.0
 31
0.0
  0
LINE
  5
3EF
330
3EA
100
AcDbEntity
  8
FORMAT
 62
     0
100
AcDbLine
 10
0.0
 20
0.0
 30
0.0
 11
0.0
 21
-2.5
 31
0.0
  0
LINE
  5
3F0
330
3EA
100
AcDbEntity
  8
FORMAT
 62
     0
100
AcDbLine
 10
0.0
 20
0.0
 30
0.0
 11
2.5
 21
0.0
 31
0.0
  0
LINE
  5
3F1
330
3EA
100
AcDbEntity
  8
FORMAT
 62
     0
100
AcDbLine
 10
0.0
 20
5.0
 30
0.0
 11
0.0
 21
5.75
 31
0.0
  0
LINE
  5
3F2
330
3EA
100
AcDbEntity
  8
FORMAT
 62
     0
100
AcDbLine
 10
-5.0
 20
0.0
 30
0.0
 11
-5.75
 21
0.0
 31
0.0
  0
LINE
  5
3F3
330
3EA
100
AcDbEntity
  8
FORMAT
 62
     0
100
AcDbLine
 10
0.0
 20
-5.0
 30
0.0
 11
0.0
 21
-5.75
 31
0.0
  0
LINE
  5
3F4
330
3EA
100
AcDbEntity
  8
FORMAT
 62
     0
100
AcDbLine
 10
5.0
 20
0.0
 30
0.0
 11
5.75
 21
0.0
 31
0.0
  0
ENDBLK
  5
3EC
330
3EA
100
AcDbEntity
  8
0
100
AcDbBlockEnd
  0
BLOCK
  5
3F7
330
3F6
100
AcDbEntity
  8
0
100
AcDbBlockBegin
  2
SW_CENTERMARKSYMBOL_2
 70
     0
 10
0.0
 20
0.0
 30
0.0
  3
SW_CENTERMARKSYMBOL_2
  1

  0
LINE
  5
3F9
330
3F6
100
AcDbEntity
  8
FORMAT
 62
     0
100
AcDbLine
 10
0.0
 20
0.0
 30
0.0
 11
0.0
 21
2.5
 31
0.0
  0
LINE
  5
3FA
330
3F6
100
AcDbEntity
  8
FORMAT
 62
     0
100
AcDbLine
 10
0.0
 20
0.0
 30
0.0
 11
-2.5
 21
0.0
 31
0.0
  0
LINE
  5
3FB
330
3F6
100
AcDbEntity
  8
FORMAT
 62
     0
100
AcDbLine
 10
0.0
 20
0.0
 30
0.0
 11
0.0
 21
-2.5
 31
0.0
  0
LINE
  5
3FC
330
3F6
100
AcDbEntity
  8
FORMAT
 62
     0
100
AcDbLine
 10
0.0
 20
0.0
 30
0.0
 11
2.5
 21
0.0
 31
0.0
  0
LINE
  5
3FD
330
3F6
100
AcDbEntity
  8
FORMAT
 62
     0
100
AcDbLine
 10
0.0
 20
5.0
 30
0.0
 11
0.0
 21
5.75
 31
0.0
  0
LINE
  5
3FE
330
3F6
100
AcDbEntity
  8
FORMAT
 62
     0
100
AcDbLine
 10
-5.0
 20
0.0
 30
0.0
 11
-5.75
 21
0.0
 31
0.0
  0
LINE
  5
3FF
330
3F6
100
AcDbEntity
  8
FORMAT
 62
     0
100
AcDbLine
 10
0.0
 20
-5.0
 30
0.0
 11
0.0
 21
-5.75
 31
0.0
  0
LINE
  5
400
330
3F6
100
AcDbEntity
  8
FORMAT
 62
     0
100
AcDbLine
 10
5.0
 20
0.0
 30
0.0
 11
5.75
 21
0.0
 31
0.0
  0
ENDBLK
  5
3F8
330
3F6
100
AcDbEntity
  8
0
100
AcDbBlockEnd
  0
BLOCK
  5
403
330
402
100
AcDbEntity
  8
0
100
AcDbBlockBegin
  2
SW_CENTERMARKSYMBOL_3
 70
     0
 10
0.0
 20
0.0
 30
0.0
  3
SW_CENTERMARKSYMBOL_3
  1

  0
LINE
  5
405
330
402
100
AcDbEntity
  8
FORMAT
 62
     0
100
AcDbLine
 10
0.0
 20
0.0
 30
0.0
 11
0.0
 21
2.5
 31
0.0
  0
LINE
  5
406
330
402
100
AcDbEntity
  8
FORMAT
 62
     0
100
AcDbLine
 10
0.0
 20
0.0
 30
0.0
 11
-2.5
 21
0.0
 31
0.0
  0
LINE
  5
407
330
402
100
AcDbEntity
  8
FORMAT
 62
     0
100
AcDbLine
 10
0.0
 20
0.0
 30
0.0
 11
0.0
 21
-2.5
 31
0.0
  0
LINE
  5
408
330
402
100
AcDbEntity
  8
FORMAT
 62
     0
100
AcDbLine
 10
0.0
 20
0.0
 30
0.0
 11
2.5
 21
0.0
 31
0.0
  0
LINE
  5
409
330
402
100
AcDbEntity
  8
FORMAT
 62
     0
100
AcDbLine
 10
0.0
 20
5.0
 30
0.0
 11
0.0
 21
5.75
 31
0.0
  0
LINE
  5
40A
330
402
100
AcDbEntity
  8
FORMAT
 62
     0
100
AcDbLine
 10
-5.0
 20
0.0
 30
0.0
 11
-5.75
 21
0.0
 31
0.0
  0
LINE
  5
40B
330
402
100
AcDbEntity
  8
FORMAT
 62
     0
100
AcDbLine
 10
0.0
 20
-5.0
 30
0.0
 11
0.0
 21
-5.75
 31
0.0
  0
LINE
  5
40C
330
402
100
AcDbEntity
  8
FORMAT
 62
     0
100
AcDbLine
 10
5.0
 20
0.0
 30
0.0
 11
5.75
 21
0.0
 31
0.0
  0
ENDBLK
  5
404
330
402
100
AcDbEntity
  8
0
100
AcDbBlockEnd
  0
BLOCK
  5
40F
330
40E
100
AcDbEntity
  8
0
100
AcDbBlockBegin
  2
SW_CENTERMARKSYMBOL_4
 70
     0
 10
0.0
 20
0.0
 30
0.0
  3
SW_CENTERMARKSYMBOL_4
  1

  0
LINE
  5
411
330
40E
100
AcDbEntity
  8
FORMAT
 62
     0
100
AcDbLine
 10
0.0
 20
0.0
 30
0.0
 11
0.0
 21
2.5
 31
0.0
  0
LINE
  5
412
330
40E
100
AcDbEntity
  8
FORMAT
 62
     0
100
AcDbLine
 10
0.0
 20
0.0
 30
0.0
 11
-2.5
 21
0.0
 31
0.0
  0
LINE
  5
413
330
40E
100
AcDbEntity
  8
FORMAT
 62
     0
100
AcDbLine
 10
0.0
 20
0.0
 30
0.0
 11
0.0
 21
-2.5
 31
0.0
  0
LINE
  5
414
330
40E
100
AcDbEntity
  8
FORMAT
 62
     0
100
AcDbLine
 10
0.0
 20
0.0
 30
0.0
 11
2.5
 21
0.0
 31
0.0
  0
LINE
  5
415
330
40E
100
AcDbEntity
  8
FORMAT
 62
     0
100
AcDbLine
 10
0.0
 20
5.0
 30
0.0
 11
0.0
 21
5.75
 31
0.0
  0
LINE
  5
416
330
40E
100
AcDbEntity
  8
FORMAT
 62
     0
100
AcDbLine
 10
-5.0
 20
0.0
 30
0.0
 11
-5.75
 21
0.0
 31
0.0
  0
LINE
  5
417
330
40E
100
AcDbEntity
  8
FORMAT
 62
     0
100
AcDbLine
 10
0.0
 20
-5.0
 30
0.0
 11
0.0
 21
-5.75
 31
0.0
  0
LINE
  5
418
330
40E
100
AcDbEntity
  8
FORMAT
 62
     0
100
AcDbLine
 10
5.0
 20
0.0
 30
0.0
 11
5.75
 21
0.0
 31
0.0
  0
ENDBLK
  5
410
330
40E
100
AcDbEntity
  8
0
100
AcDbBlockEnd
  0
BLOCK
  5
41B
330
41A
100
AcDbEntity
  8
0
100
AcDbBlockBegin
  2
SW_CENTERMARKSYMBOL_5
 70
     0
 10
0.0
 20
0.0
 30
0.0
  3
SW_CENTERMARKSYMBOL_5
  1

  0
LINE
  5
41D
330
41A
100
AcDbEntity
  8
FORMAT
 62
     0
100
AcDbLine
 10
0.0
 20
0.0
 30
0.0
 11
0.0
 21
2.5
 31
0.0
  0
LINE
  5
41E
330
41A
100
AcDbEntity
  8
FORMAT
 62
     0
100
AcDbLine
 10
0.0
 20
0.0
 30
0.0
 11
-2.5
 21
0.0
 31
0.0
  0
LINE
  5
41F
330
41A
100
AcDbEntity
  8
FORMAT
 62
     0
100
AcDbLine
 10
0.0
 20
0.0
 30
0.0
 11
0.0
 21
-2.5
 31
0.0
  0
LINE
  5
420
330
41A
100
AcDbEntity
  8
FORMAT
 62
     0
100
AcDbLine
 10
0.0
 20
0.0
 30
0.0
 11
2.5
 21
0.0
 31
0.0
  0
LINE
  5
421
330
41A
100
AcDbEntity
  8
FORMAT
 62
     0
100
AcDbLine
 10
0.0
 20
5.0
 30
0.0
 11
0.0
 21
12.5
 31
0.0
  0
LINE
  5
422
330
41A
100
AcDbEntity
  8
FORMAT
 62
     0
100
AcDbLine
 10
-5.0
 20
0.0
 30
0.0
 11
-12.5
 21
0.0
 31
0.0
  0
LINE
  5
423
330
41A
100
AcDbEntity
  8
FORMAT
 62
     0
100
AcDbLine
 10
0.0
 20
-5.0
 30
0.0
 11
0.0
 21
-12.5
 31
0.0
  0
LINE
  5
424
330
41A
100
AcDbEntity
  8
FORMAT
 62
     0
100
AcDbLine
 10
5.0
 20
0.0
 30
0.0
 11
12.5
 21
0.0
 31
0.0
  0
ENDBLK
  5
41C
330
41A
100
AcDbEntity
  8
0
100
AcDbBlockEnd
  0
BLOCK
  5
427
330
426
100
AcDbEntity
  8
0
100
AcDbBlockBegin
  2
SW_CENTERMARKSYMBOL_6
 70
     0
 10
0.0
 20
0.0
 30
0.0
  3
SW_CENTERMARKSYMBOL_6
  1

  0
LINE
  5
429
330
426
100
AcDbEntity
  8
FORMAT
 62
     0
100
AcDbLine
 10
0.0
 20
0.0
 30
0.0
 11
0.0
 21
2.5
 31
0.0
  0
LINE
  5
42A
330
426
100
AcDbEntity
  8
FORMAT
 62
     0
100
AcDbLine
 10
0.0
 20
0.0
 30
0.0
 11
-2.5
 21
0.0
 31
0.0
  0
LINE
  5
42B
330
426
100
AcDbEntity
  8
FORMAT
 62
     0
100
AcDbLine
 10
0.0
 20
0.0
 30
0.0
 11
0.0
 21
-2.5
 31
0.0
  0
LINE
  5
42C
330
426
100
AcDbEntity
  8
FORMAT
 62
     0
100
AcDbLine
 10
0.0
 20
0.0
 30
0.0
 11
2.5
 21
0.0
 31
0.0
  0
LINE
  5
42D
330
426
100
AcDbEntity
  8
FORMAT
 62
     0
100
AcDbLine
 10
0.0
 20
5.0
 30
0.0
 11
0.0
 21
12.5
 31
0.0
  0
LINE
  5
42E
330
426
100
AcDbEntity
  8
FORMAT
 62
     0
100
AcDbLine
 10
-5.0
 20
0.0
 30
0.0
 11
-12.5
 21
0.0
 31
0.0
  0
LINE
  5
42F
330
426
100
AcDbEntity
  8
FORMAT
 62
     0
100
AcDbLine
 10
0.0
 20
-5.0
 30
0.0
 11
0.0
 21
-12.5
 31
0.0
  0
LINE
  5
430
330
426
100
AcDbEntity
  8
FORMAT
 62
     0
100
AcDbLine
 10
5.0
 20
0.0
 30
0.0
 11
12.5
 21
0.0
 31
0.0
  0
ENDBLK
  5
428
330
426
100
AcDbEntity
  8
0
100
AcDbBlockEnd
  0
BLOCK
  5
433
330
432
100
AcDbEntity
  8
0
100
AcDbBlockBegin
  2
SW_CENTERMARKSYMBOL_7
 70
     0
 10
0.0
 20
0.0
 30
0.0
  3
SW_CENTERMARKSYMBOL_7
  1

  0
LINE
  5
435
330
432
100
AcDbEntity
  8
FORMAT
 62
     0
100
AcDbLine
 10
0.0
 20
0.0
 30
0.0
 11
0.0
 21
2.5
 31
0.0
  0
LINE
  5
436
330
432
100
AcDbEntity
  8
FORMAT
 62
     0
100
AcDbLine
 10
0.0
 20
0.0
 30
0.0
 11
-2.5
 21
0.0
 31
0.0
  0
LINE
  5
437
330
432
100
AcDbEntity
  8
FORMAT
 62
     0
100
AcDbLine
 10
0.0
 20
0.0
 30
0.0
 11
0.0
 21
-2.5
 31
0.0
  0
LINE
  5
438
330
432
100
AcDbEntity
  8
FORMAT
 62
     0
100
AcDbLine
 10
0.0
 20
0.0
 30
0.0
 11
2.5
 21
0.0
 31
0.0
  0
LINE
  5
439
330
432
100
AcDbEntity
  8
FORMAT
 62
     0
100
AcDbLine
 10
0.0
 20
5.0
 30
0.0
 11
0.0
 21
12.5
 31
0.0
  0
LINE
  5
43A
330
432
100
AcDbEntity
  8
FORMAT
 62
     0
100
AcDbLine
 10
-5.0
 20
0.0
 30
0.0
 11
-12.5
 21
0.0
 31
0.0
  0
LINE
  5
43B
330
432
100
AcDbEntity
  8
FORMAT
 62
     0
100
AcDbLine
 10
0.0
 20
-5.0
 30
0.0
 11
0.0
 21
-12.5
 31
0.0
  0
LINE
  5
43C
330
432
100
AcDbEntity
  8
FORMAT
 62
     0
100
AcDbLine
 10
5.0
 20
0.0
 30
0.0
 11
12.5
 21
0.0
 31
0.0
  0
ENDBLK
  5
434
330
432
100
AcDbEntity
  8
0
100
AcDbBlockEnd
  0
BLOCK
  5
43F
330
43E
100
AcDbEntity
  8
0
100
AcDbBlockBegin
  2
SW_CENTERMARKSYMBOL_8
 70
     0
 10
0.0
 20
0.0
 30
0.0
  3
SW_CENTERMARKSYMBOL_8
  1

  0
LINE
  5
441
330
43E
100
AcDbEntity
  8
FORMAT
 62
     0
100
AcDbLine
 10
0.0
 20
0.0
 30
0.0
 11
0.0
 21
2.5
 31
0.0
  0
LINE
  5
442
330
43E
100
AcDbEntity
  8
FORMAT
 62
     0
100
AcDbLine
 10
0.0
 20
0.0
 30
0.0
 11
-2.5
 21
0.0
 31
0.0
  0
LINE
  5
443
330
43E
100
AcDbEntity
  8
FORMAT
 62
     0
100
AcDbLine
 10
0.0
 20
0.0
 30
0.0
 11
0.0
 21
-2.5
 31
0.0
  0
LINE
  5
444
330
43E
100
AcDbEntity
  8
FORMAT
 62
     0
100
AcDbLine
 10
0.0
 20
0.0
 30
0.0
 11
2.5
 21
0.0
 31
0.0
  0
LINE
  5
445
330
43E
100
AcDbEntity
  8
FORMAT
 62
     0
100
AcDbLine
 10
0.0
 20
5.0
 30
0.0
 11
0.0
 21
12.5
 31
0.0
  0
LINE
  5
446
330
43E
100
AcDbEntity
  8
FORMAT
 62
     0
100
AcDbLine
 10
-5.0
 20
0.0
 30
0.0
 11
-12.5
 21
0.0
 31
0.0
  0
LINE
  5
447
330
43E
100
AcDbEntity
  8
FORMAT
 62
     0
100
AcDbLine
 10
0.0
 20
-5.0
 30
0.0
 11
0.0
 21
-12.5
 31
0.0
  0
LINE
  5
448
330
43E
100
AcDbEntity
  8
FORMAT
 62
     0
100
AcDbLine
 10
5.0
 20
0.0
 30
0.0
 11
12.5
 21
0.0
 31
0.0
  0
ENDBLK
  5
440
330
43E
100
AcDbEntity
  8
0
100
AcDbBlockEnd
  0
BLOCK
  5
44B
330
44A
100
AcDbEntity
  8
0
100
AcDbBlockBegin
  2
SW_CENTERMARKSYMBOL_9
 70
     0
 10
0.0
 20
0.0
 30
0.0
  3
SW_CENTERMARKSYMBOL_9
  1

  0
LINE
  5
44D
330
44A
100
AcDbEntity
  8
FORMAT
 62
     0
100
AcDbLine
 10
0.0
 20
0.0
 30
0.0
 11
0.0
 21
2.5
 31
0.0
  0
LINE
  5
44E
330
44A
100
AcDbEntity
  8
FORMAT
 62
     0
100
AcDbLine
 10
0.0
 20
0.0
 30
0.0
 11
-2.5
 21
0.0
 31
0.0
  0
LINE
  5
44F
330
44A
100
AcDbEntity
  8
FORMAT
 62
     0
100
AcDbLine
 10
0.0
 20
0.0
 30
0.0
 11
0.0
 21
-2.5
 31
0.0
  0
LINE
  5
450
330
44A
100
AcDbEntity
  8
FORMAT
 62
     0
100
AcDbLine
 10
0.0
 20
0.0
 30
0.0
 11
2.5
 21
0.0
 31
0.0
  0
LINE
  5
451
330
44A
100
AcDbEntity
  8
FORMAT
 62
     0
100
AcDbLine
 10
0.0
 20
5.0
 30
0.0
 11
0.0
 21
5.75
 31
0.0
  0
LINE
  5
452
330
44A
100
AcDbEntity
  8
FORMAT
 62
     0
100
AcDbLine
 10
-5.0
 20
0.0
 30
0.0
 11
-5.75
 21
0.0
 31
0.0
  0
LINE
  5
453
330
44A
100
AcDbEntity
  8
FORMAT
 62
     0
100
AcDbLine
 10
0.0
 20
-5.0
 30
0.0
 11
0.0
 21
-5.75
 31
0.0
  0
LINE
  5
454
330
44A
100
AcDbEntity
  8
FORMAT
 62
     0
100
AcDbLine
 10
5.0
 20
0.0
 30
0.0
 11
5.75
 21
0.0
 31
0.0
  0
ENDBLK
  5
44C
330
44A
100
AcDbEntity
  8
0
100
AcDbBlockEnd
  0
BLOCK
  5
457
330
456
100
AcDbEntity
  8
0
100
AcDbBlockBegin
  2
SW_CENTERMARKSYMBOL_10
 70
     0
 10
0.0
 20
0.0
 30
0.0
  3
SW_CENTERMARKSYMBOL_10
  1

  0
LINE
  5
459
330
456
100
AcDbEntity
  8
FORMAT
 62
     0
100
AcDbLine
 10
0.0
 20
0.0
 30
0.0
 11
0.0
 21
2.5
 31
0.0
  0
LINE
  5
45A
330
456
100
AcDbEntity
  8
FORMAT
 62
     0
100
AcDbLine
 10
0.0
 20
0.0
 30
0.0
 11
-2.5
 21
0.0
 31
0.0
  0
LINE
  5
45B
330
456
100
AcDbEntity
  8
FORMAT
 62
     0
100
AcDbLine
 10
0.0
 20
0.0
 30
0.0
 11
0.0
 21
-2.5
 31
0.0
  0
LINE
  5
45C
330
456
100
AcDbEntity
  8
FORMAT
 62
     0
100
AcDbLine
 10
0.0
 20
0.0
 30
0.0
 11
2.5
 21
0.0
 31
0.0
  0
LINE
  5
45D
330
456
100
AcDbEntity
  8
FORMAT
 62
     0
100
AcDbLine
 10
0.0
 20
5.0
 30
0.0
 11
0.0
 21
5.75
 31
0.0
  0
LINE
  5
45E
330
456
100
AcDbEntity
  8
FORMAT
 62
     0
100
AcDbLine
 10
-5.0
 20
0.0
 30
0.0
 11
-5.75
 21
0.0
 31
0.0
  0
LINE
  5
45F
330
456
100
AcDbEntity
  8
FORMAT
 62
     0
100
AcDbLine
 10
0.0
 20
-5.0
 30
0.0
 11
0.0
 21
-5.75
 31
0.0
  0
LINE
  5
460
330
456
100
AcDbEntity
  8
FORMAT
 62
     0
100
AcDbLine
 10
5.0
 20
0.0
 30
0.0
 11
5.75
 21
0.0
 31
0.0
  0
ENDBLK
  5
458
330
456
100
AcDbEntity
  8
0
100
AcDbBlockEnd
  0
BLOCK
  5
463
330
462
100
AcDbEntity
  8
0
100
AcDbBlockBegin
  2
SW_CENTERMARKSYMBOL_11
 70
     0
 10
0.0
 20
0.0
 30
0.0
  3
SW_CENTERMARKSYMBOL_11
  1

  0
LINE
  5
465
330
462
100
AcDbEntity
  8
FORMAT
 62
     0
100
AcDbLine
 10
0.0
 20
0.0
 30
0.0
 11
0.0
 21
2.5
 31
0.0
  0
LINE
  5
466
330
462
100
AcDbEntity
  8
FORMAT
 62
     0
100
AcDbLine
 10
0.0
 20
0.0
 30
0.0
 11
-2.5
 21
0.0
 31
0.0
  0
LINE
  5
467
330
462
100
AcDbEntity
  8
FORMAT
 62
     0
100
AcDbLine
 10
0.0
 20
0.0
 30
0.0
 11
0.0
 21
-2.5
 31
0.0
  0
LINE
  5
468
330
462
100
AcDbEntity
  8
FORMAT
 62
     0
100
AcDbLine
 10
0.0
 20
0.0
 30
0.0
 11
2.5
 21
0.0
 31
0.0
  0
LINE
  5
469
330
462
100
AcDbEntity
  8
FORMAT
 62
     0
100
AcDbLine
 10
0.0
 20
5.0
 30
0.0
 11
0.0
 21
5.75
 31
0.0
  0
LINE
  5
46A
330
462
100
AcDbEntity
  8
FORMAT
 62
     0
100
AcDbLine
 10
-5.0
 20
0.0
 30
0.0
 11
-5.75
 21
0.0
 31
0.0
  0
LINE
  5
46B
330
462
100
AcDbEntity
  8
FORMAT
 62
     0
100
AcDbLine
 10
0.0
 20
-5.0
 30
0.0
 11
0.0
 21
-5.75
 31
0.0
  0
LINE
  5
46C
330
462
100
AcDbEntity
  8
FORMAT
 62
     0
100
AcDbLine
 10
5.0
 20
0.0
 30
0.0
 11
5.75
 21
0.0
 31
0.0
  0
ENDBLK
  5
464
330
462
100
AcDbEntity
  8
0
100
AcDbBlockEnd
  0
BLOCK
  5
53C
330
53B
100
AcDbEntity
  8
0
100
AcDbBlockBegin
  2
_Dot
 70
     0
 10
0.0
 20
0.0
 30
0.0
  3
_Dot
  1

  0
LWPOLYLINE
  5
53E
330
53B
100
AcDbEntity
  8
0
  6
ByBlock
 62
     0
100
AcDbPolyline
 90
        2
 70
     1
 43
0.5
 10
-0.25
 20
0.0
 42
1.0
 10
0.25
 20
0.0
 42
1.0
  0
LINE
  5
53F
330
53B
100
AcDbEntity
  8
0
  6
ByBlock
 62
     0
370
    -2
100
AcDbLine
 10
-0.5
 20
0.0
 30
0.0
 11
-1.0
 21
0.0
 31
0.0
  0
ENDBLK
  5
53D
330
53B
100
AcDbEntity
  8
0
100
AcDbBlockEnd
  0
BLOCK
  5
541
330
540
100
AcDbEntity
  8
0
100
AcDbBlockBegin
  2
_D_20
 70
     0
 10
0.0
 20
0.0
 30
0.0
  3
_D_20
  1

  0
INSERT
  5
543
330
540
100
AcDbEntity
  8
FORMAT
100
AcDbBlockReference
  2
_Dot
 10
2304.9986328533
 20
1904.4102171428
 30
0.0
 41
7.112
 42
7.112
 50
180.0
  0
SOLID
  5
544
330
540
100
AcDbEntity
  8
FORMAT
100
AcDbTrace
 10
2424.9986328533
 20
1904.4102171428
 30
0.0
 11
2401.8846328533
 21
1907.9662171428
 31
0.0
 12
2401.8846328533
 22
1900.8542171428
 32
0.0
 13
2401.8846328533
 23
1900.8542171428
 33
0.0
  0
LINE
  5
545
330
540
100
AcDbEntity
  8
FORMAT
100
AcDbLine
 10
2304.9986328533
 20
1841.4102171429
 30
0.0
 11
2304.9986328533
 21
1911.4102171428
 31
0.0
  0
LINE
  5
546
330
540
100
AcDbEntity
  8
FORMAT
100
AcDbLine
 10
2304.9986328533
 20
1904.4102171428
 30
0.0
 11
2424.9986328533
 21
1904.4102171428
 31
0.0
  0
LINE
  5
547
330
540
100
AcDbEntity
  8
FORMAT
100
AcDbLine
 10
2424.9986328533
 20
1904.4102171428
 30
0.0
 11
2558.6832844432
 21
1904.4102171428
 31
0.0
  0
MTEXT
  5
548
330
540
100
AcDbEntity
  8
FORMAT
100
AcDbMText
 10
2442.7565735544
 20
1928.2848271289
 30
0.0
 40
18.5208333333
 41
0.0
 71
     1
 72
     1
  1
max. +
  7
SLDTEXTSTYLE0
 73
     1
 44
1.0
  0
MTEXT
  5
549
330
540
100
AcDbEntity
  8
FORMAT
100
AcDbMText
 10
2517.5258655812
 20
1928.2848271289
 30
0.0
 40
18.5208333333
 41
0.0
 71
     1
 72
     1
  1
120
  7
SLDTEXTSTYLE0
 73
     1
 44
1.0
  0
ENDBLK
  5
542
330
540
100
AcDbEntity
  8
0
100
AcDbBlockEnd
  0
BLOCK
  5
54C
330
54B
100
AcDbEntity
  8
0
100
AcDbBlockBegin
  2
_D_21
 70
     0
 10
0.0
 20
0.0
 30
0.0
  3
_D_21
  1

  0
INSERT
  5
54E
330
54B
100
AcDbEntity
  8
FORMAT
100
AcDbBlockReference
  2
_Dot
 10
2304.9986328533
 20
1904.4102171429
 30
0.0
 41
7.112
 42
7.112
 50
0.0
  0
SOLID
  5
54F
330
54B
100
AcDbEntity
  8
FORMAT
100
AcDbTrace
 10
2274.9986328533
 20
1904.4102171429
 30
0.0
 11
2298.1126328533
 21
1900.8542171429
 31
0.0
 12
2298.1126328533
 22
1907.9662171429
 32
0.0
 13
2298.1126328533
 23
1907.9662171429
 33
0.0
  0
LINE
  5
550
330
54B
100
AcDbEntity
  8
FORMAT
100
AcDbLine
 10
2304.9986328533
 20
1841.4102171429
 30
0.0
 11
2304.9986328533
 21
1911.4102171429
 31
0.0
  0
LINE
  5
551
330
54B
100
AcDbEntity
  8
FORMAT
100
AcDbLine
 10
2304.9986328533
 20
1904.4102171429
 30
0.0
 11
2274.9986328533
 21
1904.4102171429
 31
0.0
  0
LINE
  5
552
330
54B
100
AcDbEntity
  8
FORMAT
100
AcDbLine
 10
2274.9986328533
 20
1904.4102171429
 30
0.0
 11
2155.6782007587
 21
1904.4102171429
 31
0.0
  0
MTEXT
  5
553
330
54B
100
AcDbEntity
  8
FORMAT
100
AcDbMText
 10
2155.6782007587
 20
1928.2848271289
 30
0.0
 40
18.5208333333
 41
0.0
 71
     1
 72
     1
  1
max. -
  7
SLDTEXTSTYLE0
 73
     1
 44
1.0
  0
MTEXT
  5
554
330
54B
100
AcDbEntity
  8
FORMAT
100
AcDbMText
 10
2224.2738793043
 20
1928.2848271289
 30
0.0
 40
18.5208333333
 41
0.0
 71
     1
 72
     1
  1
30
  7
SLDTEXTSTYLE0
 73
     1
 44
1.0
  0
ENDBLK
  5
54D
330
54B
100
AcDbEntity
  8
0
100
AcDbBlockEnd
  0
BLOCK
  5
557
330
556
100
AcDbEntity
  8
0
100
AcDbBlockBegin
  2
_D_22
 70
     0
 10
0.0
 20
0.0
 30
0.0
  3
_D_22
  1

  0
SOLID
  5
559
330
556
100
AcDbEntity
  8
FORMAT
100
AcDbTrace
 10
2304.9986328533
 20
1515.3259587413
 30
0.0
 11
2281.8846328533
 21
1518.8819587413
 31
0.0
 12
2281.8846328533
 22
1511.7699587413
 32
0.0
 13
2281.8846328533
 23
1511.7699587413
 33
0.0
  0
SOLID
  5
55A
330
556
100
AcDbEntity
  8
FORMAT
100
AcDbTrace
 10
2332.9986328509
 20
1515.3259587413
 30
0.0
 11
2356.1126328509
 21
1511.7699587413
 31
0.0
 12
2356.1126328509
 22
1518.8819587413
 32
0.0
 13
2356.1126328509
 23
1518.8819587413
 33
0.0
  0
LINE
  5
55B
330
556
100
AcDbEntity
  8
FORMAT
100
AcDbLine
 10
2332.9986328509
 20
1604.4102171491
 30
0.0
 11
2332.9986328509
 21
1508.3259587413
 31
0.0
  0
LINE
  5
55C
330
556
100
AcDbEntity
  8
FORMAT
100
AcDbLine
 10
2304.9986328533
 20
1515.3259587413
 30
0.0
 11
2260.5486328533
 21
1515.3259587413
 31
0.0
  0
LINE
  5
55D
330
556
100
AcDbEntity
  8
FORMAT
100
AcDbLine
 10
2304.9986328533
 20
1515.3259587413
 30
0.0
 11
2332.9986328509
 21
1515.3259587413
 31
0.0
  0
LINE
  5
55E
330
556
100
AcDbEntity
  8
FORMAT
100
AcDbLine
 10
2332.9986328509
 20
1515.3259587413
 30
0.0
 11
2405.0619547419
 21
1515.3259587413
 31
0.0
  0
MTEXT
  5
55F
330
556
100
AcDbEntity
  8
FORMAT
100
AcDbMText
 10
2367.6314001135
 20
1546.9081199955
 30
0.0
 40
24.5
 41
0.0
 71
     1
 72
     1
  1
28
  7
SLDTEXTSTYLE0
 73
     1
 44
1.0
  0
ENDBLK
  5
558
330
556
100
AcDbEntity
  8
0
100
AcDbBlockEnd
  0
BLOCK
  5
562
330
561
100
AcDbEntity
  8
0
100
AcDbBlockBegin
  2
_D_23
 70
     0
 10
0.0
 20
0.0
 30
0.0
  3
_D_23
  1

  0
SOLID
  5
564
330
561
100
AcDbEntity
  8
FORMAT
100
AcDbTrace
 10
2304.9986328533
 20
1451.0481513522
 30
0.0
 11
2328.1126328533
 21
1447.4921513522
 31
0.0
 12
2328.1126328533
 22
1454.6041513522
 32
0.0
 13
2328.1126328533
 23
1454.6041513522
 33
0.0
  0
SOLID
  5
565
330
561
100
AcDbEntity
  8
FORMAT
100
AcDbTrace
 10
2424.9986328529
 20
1451.0481513522
 30
0.0
 11
2401.8846328529
 21
1454.6041513522
 31
0.0
 12
2401.8846328529
 22
1447.4921513522
 32
0.0
 13
2401.8846328529
 23
1447.4921513522
 33
0.0
  0
LINE
  5
566
330
561
100
AcDbEntity
  8
FORMAT
100
AcDbLine
 10
2424.9986328529
 20
1698.9102171429
 30
0.0
 11
2424.9986328529
 21
1444.0481513522
 31
0.0
  0
LINE
  5
567
330
561
100
AcDbEntity
  8
FORMAT
100
AcDbLine
 10
2304.9986328533
 20
1451.0481513522
 30
0.0
 11
2424.9986328529
 21
1451.0481513522
 31
0.0
  0
MTEXT
  5
568
330
561
100
AcDbEntity
  8
FORMAT
100
AcDbMText
 10
2336.9257168818
 20
1482.6303126064
 30
0.0
 40
24.5
 41
0.0
 71
     1
 72
     1
  1
120
  7
SLDTEXTSTYLE0
 73
     1
 44
1.0
  0
ENDBLK
  5
563
330
561
100
AcDbEntity
  8
0
100
AcDbBlockEnd
  0
BLOCK
  5
56B
330
56A
100
AcDbEntity
  8
0
100
AcDbBlockBegin
  2
_D_24
 70
     0
 10
0.0
 20
0.0
 30
0.0
  3
_D_24
  1

  0
SOLID
  5
56D
330
56A
100
AcDbEntity
  8
FORMAT
100
AcDbTrace
 10
2494.9986328529
 20
1610.9102171491
 30
0.0
 11
2498.5546328529
 21
1634.0242171491
 31
0.0
 12
2491.4426328529
 22
1634.0242171491
 32
0.0
 13
2491.4426328529
 23
1634.0242171491
 33
0.0
  0
SOLID
  5
56E
330
56A
100
AcDbEntity
  8
FORMAT
100
AcDbTrace
 10
2494.9986328529
 20
1795.9102171429
 30
0.0
 11
2491.4426328529
 21
1772.7962171429
 31
0.0
 12
2498.5546328529
 22
1772.7962171429
 32
0.0
 13
2498.5546328529
 23
1772.7962171429
 33
0.0
  0
LINE
  5
56F
330
56A
100
AcDbEntity
  8
FORMAT
100
AcDbLine
 10
2339.4986328509
 20
1610.9102171491
 30
0.0
 11
2501.9986328529
 21
1610.9102171491
 31
0.0
  0
LINE
  5
570
330
56A
100
AcDbEntity
  8
FORMAT
100
AcDbLine
 10
2426.9986328529
 20
1795.9102171429
 30
0.0
 11
2501.9986328529
 21
1795.9102171429
 31
0.0
  0
LINE
  5
571
330
56A
100
AcDbEntity
  8
FORMAT
100
AcDbLine
 10
2494.9986328529
 20
1610.9102171491
 30
0.0
 11
2494.9986328529
 21
1795.9102171429
 31
0.0
  0
MTEXT
  5
572
330
56A
100
AcDbEntity
  8
FORMAT
100
AcDbMText
 10
2463.4164715987
 20
1675.3373011747
 30
0.0
 40
24.5
 41
0.0
 71
     1
 72
     1
  1
185
  7
SLDTEXTSTYLE0
 11
1.837589179357618E-15
 21
1.0
 31
0.0
 73
     1
 44
1.0
  0
ENDBLK
  5
56C
330
56A
100
AcDbEntity
  8
0
100
AcDbBlockEnd
  0
BLOCK
  5
575
330
574
100
AcDbEntity
  8
0
100
AcDbBlockBegin
  2
_D_25
 70
     0
 10
0.0
 20
0.0
 30
0.0
  3
_D_25
  1

  0
SOLID
  5
577
330
574
100
AcDbEntity
  8
FORMAT
100
AcDbTrace
 10
2198.6519946405
 20
1659.4102171429
 30
0.0
 11
2202.2079946405
 21
1682.5242171429
 31
0.0
 12
2195.0959946405
 22
1682.5242171429
 32
0.0
 13
2195.0959946405
 23
1682.5242171429
 33
0.0
  0
SOLID
  5
578
330
574
100
AcDbEntity
  8
FORMAT
100
AcDbTrace
 10
2198.6519946405
 20
1796.9102171429
 30
0.0
 11
2195.0959946405
 21
1773.7962171429
 31
0.0
 12
2202.2079946405
 22
1773.7962171429
 32
0.0
 13
2202.2079946405
 23
1773.7962171429
 33
0.0
  0
LINE
  5
579
330
574
100
AcDbEntity
  8
FORMAT
100
AcDbLine
 10
2257.9986328533
 20
1659.4102171429
 30
0.0
 11
2191.6519946405
 21
1659.4102171429
 31
0.0
  0
LINE
  5
57A
330
574
100
AcDbEntity
  8
FORMAT
100
AcDbLine
 10
2298.9986328529
 20
1796.9102171429
 30
0.0
 11
2191.6519946405
 21
1796.9102171429
 31
0.0
  0
LINE
  5
57B
330
574
100
AcDbEntity
  8
FORMAT
100
AcDbLine
 10
2198.6519946405
 20
1659.4102171429
 30
0.0
 11
2198.6519946405
 21
1796.9102171429
 31
0.0
  0
MTEXT
  5
57C
330
574
100
AcDbEntity
  8
FORMAT
100
AcDbMText
 10
2167.0698333863
 20
1686.0508431859
 30
0.0
 40
24.5
 41
0.0
 71
     1
 72
     1
  1
137,5
  7
SLDTEXTSTYLE0
 11
5.390302858158119E-15
 21
1.0
 31
0.0
 73
     1
 44
1.0
  0
ENDBLK
  5
576
330
574
100
AcDbEntity
  8
0
100
AcDbBlockEnd
  0
BLOCK
  5
660
330
65F
100
AcDbEntity
  8
0
100
AcDbBlockBegin
  2
_D_26
 70
     0
 10
0.0
 20
0.0
 30
0.0
  3
_D_26
  1

  0
INSERT
  5
662
330
65F
100
AcDbEntity
  8
FORMAT
100
AcDbBlockReference
  2
_Dot
 10
2104.2208288594
 20
720.6480842469
 30
991.5655906417
 41
7.112
 42
7.112
 50
270.0
  0
SOLID
  5
663
330
65F
100
AcDbEntity
  8
FORMAT
100
AcDbTrace
 10
2104.2208288594
 20
683.5480842616
 30
0.0
 11
2100.6648288594
 21
660.4340842616
 31
0.0
 12
2107.7768288594
 22
660.4340842616
 32
0.0
 13
2107.7768288594
 23
660.4340842616
 33
0.0
  0
LINE
  5
664
330
65F
100
AcDbEntity
  8
FORMAT
100
AcDbLine
 10
2235.5304064458
 20
720.6480842469
 30
0.0
 11
2175.8530379042
 21
720.6480842469
 31
0.0
  0
LINE
  5
665
330
65F
100
AcDbEntity
  8
FORMAT
100
AcDbLine
 10
2154.8530379042
 20
720.6480842469
 30
0.0
 11
2097.2208288594
 21
720.6480842469
 31
0.0
  0
LINE
  5
666
330
65F
100
AcDbEntity
  8
FORMAT
100
AcDbLine
 10
2292.2304064426
 20
683.5480842616
 30
0.0
 11
2114.7208288594
 21
683.5480842616
 31
0.0
  0
LINE
  5
667
330
65F
100
AcDbEntity
  8
FORMAT
100
AcDbLine
 10
2104.2208288594
 20
720.6480842469
 30
0.0
 11
2104.2208288594
 21
765.0980842469
 31
0.0
  0
LINE
  5
668
330
65F
100
AcDbEntity
  8
FORMAT
100
AcDbLine
 10
2104.2208288594
 20
720.6480842469
 30
0.0
 11
2104.2208288594
 21
683.5480842616
 31
0.0
  0
LINE
  5
669
330
65F
100
AcDbEntity
  8
FORMAT
100
AcDbLine
 10
2104.2208288594
 20
683.5480842616
 30
0.0
 11
2104.2208288594
 21
586.3546856402
 31
0.0
  0
MTEXT
  5
66A
330
65F
100
AcDbEntity
  8
FORMAT
100
AcDbMText
 10
2072.6386676051
 20
586.3546856402
 30
0.0
 40
24.5
 41
0.0
 71
     1
 72
     1
  1
26,5
  7
SLDTEXTSTYLE0
 11
-7.044195017643634E-15
 21
1.0
 31
0.0
 73
     1
 44
1.0
  0
ENDBLK
  5
661
330
65F
100
AcDbEntity
  8
0
100
AcDbBlockEnd
  0
BLOCK
  5
66D
330
66C
100
AcDbEntity
  8
0
100
AcDbBlockBegin
  2
_D_27
 70
     0
 10
0.0
 20
0.0
 30
0.0
  3
_D_27
  1

  0
INSERT
  5
66F
330
66C
100
AcDbEntity
  8
FORMAT
100
AcDbBlockReference
  2
_Dot
 10
2104.2208288594
 20
720.6480842469
 30
991.5655906417
 41
7.112
 42
7.112
 50
90.0
  0
SOLID
  5
670
330
66C
100
AcDbEntity
  8
FORMAT
100
AcDbTrace
 10
2104.2208288594
 20
785.7480842469
 30
0.0
 11
2107.7768288594
 21
808.8620842469
 31
0.0
 12
2100.6648288594
 22
808.8620842469
 32
0.0
 13
2100.6648288594
 23
808.8620842469
 33
0.0
  0
LINE
  5
671
330
66C
100
AcDbEntity
  8
FORMAT
100
AcDbLine
 10
2235.5304064458
 20
720.6480842469
 30
0.0
 11
2175.8530379042
 21
720.6480842469
 31
0.0
  0
LINE
  5
672
330
66C
100
AcDbEntity
  8
FORMAT
100
AcDbLine
 10
2154.8530379042
 20
720.6480842469
 30
0.0
 11
2097.2208288594
 21
720.6480842469
 31
0.0
  0
LINE
  5
673
330
66C
100
AcDbEntity
  8
FORMAT
100
AcDbLine
 10
2291.5304064453
 20
785.7480842469
 30
0.0
 11
2097.2208288594
 21
785.7480842469
 31
0.0
  0
LINE
  5
674
330
66C
100
AcDbEntity
  8
FORMAT
100
AcDbLine
 10
2104.2208288594
 20
720.6480842469
 30
0.0
 11
2104.2208288594
 21
676.1980842469
 31
0.0
  0
LINE
  5
675
330
66C
100
AcDbEntity
  8
FORMAT
100
AcDbLine
 10
2104.2208288594
 20
720.6480842469
 30
0.0
 11
2104.2208288594
 21
785.7480842469
 31
0.0
  0
LINE
  5
676
330
66C
100
AcDbEntity
  8
FORMAT
100
AcDbLine
 10
2104.2208288594
 20
785.7480842469
 30
0.0
 11
2104.2208288594
 21
885.4229914371
 31
0.0
  0
MTEXT
  5
677
330
66C
100
AcDbEntity
  8
FORMAT
100
AcDbMText
 10
2072.6386676051
 20
819.9195208375
 30
0.0
 40
24.5
 41
0.0
 71
     1
 72
     1
  1
46,5
  7
SLDTEXTSTYLE0
 11
3.835990623682900E-15
 21
1.0
 31
0.0
 73
     1
 44
1.0
  0
ENDBLK
  5
66E
330
66C
100
AcDbEntity
  8
0
100
AcDbBlockEnd
  0
BLOCK
  5
67B
330
67A
100
AcDbEntity
  8
0
100
AcDbBlockBegin
  2
_D_28
 70
     0
 10
0.0
 20
0.0
 30
0.0
  3
_D_28
  1

  0
SOLID
  5
67D
330
67A
100
AcDbEntity
  8
FORMAT
100
AcDbTrace
 10
2165.3530379042
 20
736.0480842469
 30
0.0
 11
2161.7970379042
 21
712.9340842469
 31
0.0
 12
2168.9090379042
 22
712.9340842469
 32
0.0
 13
2168.9090379042
 23
712.9340842469
 33
0.0
  0
SOLID
  5
67E
330
67A
100
AcDbEntity
  8
FORMAT
100
AcDbTrace
 10
2165.3530379042
 20
785.7480842469
 30
0.0
 11
2168.9090379042
 21
808.8620842469
 31
0.0
 12
2161.7970379042
 22
808.8620842469
 32
0.0
 13
2161.7970379042
 23
808.8620842469
 33
0.0
  0
LINE
  5
67F
330
67A
100
AcDbEntity
  8
FORMAT
100
AcDbLine
 10
2321.6263685922
 20
736.0480842469
 30
0.0
 11
2158.3530379042
 21
736.0480842469
 31
0.0
  0
LINE
  5
680
330
67A
100
AcDbEntity
  8
FORMAT
100
AcDbLine
 10
2291.5304064453
 20
785.7480842469
 30
0.0
 11
2158.3530379042
 21
785.7480842469
 31
0.0
  0
LINE
  5
681
330
67A
100
AcDbEntity
  8
FORMAT
100
AcDbLine
 10
2165.3530379042
 20
736.0480842469
 30
0.0
 11
2165.3530379042
 21
691.5980842469
 31
0.0
  0
LINE
  5
682
330
67A
100
AcDbEntity
  8
FORMAT
100
AcDbLine
 10
2165.3530379042
 20
736.0480842469
 30
0.0
 11
2165.3530379042
 21
785.7480842469
 31
0.0
  0
LINE
  5
683
330
67A
100
AcDbEntity
  8
FORMAT
100
AcDbLine
 10
2165.3530379042
 20
785.7480842469
 30
0.0
 11
2165.3530379042
 21
885.4229914388
 31
0.0
  0
MTEXT
  5
684
330
67A
100
AcDbEntity
  8
FORMAT
100
AcDbMText
 10
2133.77087665
 20
819.9195208392
 30
0.0
 40
24.5
 41
0.0
 71
     1
 72
     1
  1
35,5
  7
SLDTEXTSTYLE0
 11
3.835990623682900E-15
 21
1.0
 31
0.0
 73
     1
 44
1.0
  0
ENDBLK
  5
67C
330
67A
100
AcDbEntity
  8
0
100
AcDbBlockEnd
  0
BLOCK
  5
687
330
686
100
AcDbEntity
  8
0
100
AcDbBlockBegin
  2
_D_29
 70
     0
 10
0.0
 20
0.0
 30
0.0
  3
_D_29
  1

  0
ARC
  5
689
330
686
100
AcDbEntity
  8
FORMAT
100
AcDbCircle
 10
2427.7396942038
 20
539.2029104955
 30
0.0
 40
42.03885414329039
100
AcDbArc
 50
153.4349488229
 51
206.5650511771
  0
ARC
  5
68A
330
686
100
AcDbEntity
  8
FORMAT
100
AcDbCircle
 10
2389.9688603837
 20
539.2029104955
 30
0.0
 40
42.03885414329039
100
AcDbArc
 50
333.4349488229
 51
26.5650511771
  0
SOLID
  5
68B
330
686
100
AcDbEntity
  8
FORMAT
100
AcDbTrace
 10
2298.5304064458
 20
520.4025633834
 30
0.0
 11
2275.4164064458
 21
523.9585633834
 31
0.0
 12
2275.4164064458
 22
516.8465633834
 32
0.0
 13
2275.4164064458
 23
516.8465633834
 33
0.0
  0
SOLID
  5
68C
330
686
100
AcDbEntity
  8
FORMAT
100
AcDbTrace
 10
2337.7304064426
 20
520.4025633834
 30
0.0
 11
2360.8444064426
 21
516.8465633834
 31
0.0
 12
2360.8444064426
 22
523.9585633834
 32
0.0
 13
2360.8444064426
 23
523.9585633834
 33
0.0
  0
LINE
  5
68D
330
686
100
AcDbEntity
  8
FORMAT
100
AcDbLine
 10
2298.5304064458
 20
564.9157450733
 30
0.0
 11
2298.5304064458
 21
513.4025633834
 31
0.0
  0
LINE
  5
68E
330
686
100
AcDbEntity
  8
FORMAT
100
AcDbLine
 10
2337.7304064426
 20
653.4480842616
 30
0.0
 11
2337.7304064426
 21
513.4025633834
 31
0.0
  0
LINE
  5
68F
330
686
100
AcDbEntity
  8
FORMAT
100
AcDbLine
 10
2298.5304064458
 20
520.4025633834
 30
0.0
 11
2254.0804064458
 21
520.4025633834
 31
0.0
  0
LINE
  5
690
330
686
100
AcDbEntity
  8
FORMAT
100
AcDbLine
 10
2298.5304064458
 20
520.4025633834
 30
0.0
 11
2337.7304064426
 21
520.4025633834
 31
0.0
  0
LINE
  5
691
330
686
100
AcDbEntity
  8
FORMAT
100
AcDbLine
 10
2337.7304064426
 20
520.4025633834
 30
0.0
 11
2432.0077130818
 21
520.4025633834
 31
0.0
  0
MTEXT
  5
692
330
686
100
AcDbEntity
  8
FORMAT
100
AcDbMText
 10
2390.1389999795
 20
551.9847246376
 30
0.0
 40
24.5
 41
0.0
 71
     1
 72
     1
  1
28
  7
SLDTEXTSTYLE0
 73
     1
 44
1.0
  0
ENDBLK
  5
688
330
686
100
AcDbEntity
  8
0
100
AcDbBlockEnd
  0
BLOCK
  5
695
330
694
100
AcDbEntity
  8
0
100
AcDbBlockBegin
  2
_D_30
 70
     0
 10
0.0
 20
0.0
 30
0.0
  3
_D_30
  1

  0
ARC
  5
697
330
694
100
AcDbEntity
  8
FORMAT
100
AcDbCircle
 10
2474.7946036784
 20
613.1351479822
 30
0.0
 40
42.03885414329059
100
AcDbArc
 50
243.4349488229
 51
296.5650511771
  0
ARC
  5
698
330
694
100
AcDbEntity
  8
FORMAT
100
AcDbCircle
 10
2474.7946036784
 20
575.3643141621
 30
0.0
 40
42.03885414329049
100
AcDbArc
 50
63.4349488229
 51
116.5650511771
  0
SOLID
  5
699
330
694
100
AcDbEntity
  8
FORMAT
100
AcDbTrace
 10
2493.5949507905
 20
659.7480842616
 30
0.0
 11
2490.0389507905
 21
636.6340842616
 31
0.0
 12
2497.1509507905
 22
636.6340842616
 32
0.0
 13
2497.1509507905
 23
636.6340842616
 33
0.0
  0
SOLID
  5
69A
330
694
100
AcDbEntity
  8
FORMAT
100
AcDbTrace
 10
2493.5949507905
 20
683.5480842616
 30
0.0
 11
2497.1509507905
 21
706.6620842616
 31
0.0
 12
2490.0389507905
 22
706.6620842616
 32
0.0
 13
2490.0389507905
 23
706.6620842616
 33
0.0
  0
LINE
  5
69B
330
694
100
AcDbEntity
  8
FORMAT
100
AcDbLine
 10
2344.0304064426
 20
659.7480842616
 30
0.0
 11
2500.5949507905
 21
659.7480842616
 31
0.0
  0
LINE
  5
69C
330
694
100
AcDbEntity
  8
FORMAT
100
AcDbLine
 10
2344.0304064426
 20
683.5480842616
 30
0.0
 11
2500.5949507905
 21
683.5480842616
 31
0.0
  0
LINE
  5
69D
330
694
100
AcDbEntity
  8
FORMAT
100
AcDbLine
 10
2493.5949507905
 20
659.7480842616
 30
0.0
 11
2493.5949507905
 21
571.0962936542
 31
0.0
  0
LINE
  5
69E
330
694
100
AcDbEntity
  8
FORMAT
100
AcDbLine
 10
2493.5949507905
 20
659.7480842616
 30
0.0
 11
2493.5949507905
 21
683.5480842616
 31
0.0
  0
LINE
  5
69F
330
694
100
AcDbEntity
  8
FORMAT
100
AcDbLine
 10
2493.5949507905
 20
683.5480842616
 30
0.0
 11
2493.5949507905
 21
727.9980842616
 31
0.0
  0
MTEXT
  5
6A0
330
694
100
AcDbEntity
  8
FORMAT
100
AcDbMText
 10
2462.0127895363
 20
575.5344537579
 30
0.0
 40
24.5
 41
0.0
 71
     1
 72
     1
  1
17
  7
SLDTEXTSTYLE0
 11
-1.191767205047844E-13
 21
1.0
 31
0.0
 73
     1
 44
1.0
  0
ENDBLK
  5
696
330
694
100
AcDbEntity
  8
0
100
AcDbBlockEnd
  0
BLOCK
  5
6A4
330
6A3
100
AcDbEntity
  8
0
100
AcDbBlockBegin
  2
_D_31
 70
     0
 10
0.0
 20
0.0
 30
0.0
  3
_D_31
  1

  0
SOLID
  5
6A6
330
6A3
100
AcDbEntity
  8
FORMAT
100
AcDbTrace
 10
2543.8630408744
 20
720.6480842469
 30
0.0
 11
2540.3070408744
 21
697.5340842469
 31
0.0
 12
2547.4190408744
 22
697.5340842469
 32
0.0
 13
2547.4190408744
 23
697.5340842469
 33
0.0
  0
SOLID
  5
6A7
330
6A3
100
AcDbEntity
  8
FORMAT
100
AcDbTrace
 10
2543.8630408744
 20
726.248084247
 30
0.0
 11
2547.4190408744
 21
749.362084247
 31
0.0
 12
2540.3070408744
 22
749.362084247
 32
0.0
 13
2540.3070408744
 23
749.362084247
 33
0.0
  0
LINE
  5
6A8
330
6A3
100
AcDbEntity
  8
FORMAT
100
AcDbLine
 10
2305.5304064458
 20
720.6480842469
 30
0.0
 11
2550.8630408744
 21
720.6480842469
 31
0.0
  0
LINE
  5
6A9
330
6A3
100
AcDbEntity
  8
FORMAT
100
AcDbLine
 10
2370.0647324412
 20
726.248084247
 30
0.0
 11
2550.8630408744
 21
726.248084247
 31
0.0
  0
LINE
  5
6AA
330
6A3
100
AcDbEntity
  8
FORMAT
100
AcDbLine
 10
2543.8630408744
 20
720.6480842469
 30
0.0
 11
2543.8630408744
 21
659.5178081465
 31
0.0
  0
LINE
  5
6AB
330
6A3
100
AcDbEntity
  8
FORMAT
100
AcDbLine
 10
2543.8630408744
 20
720.6480842469
 30
0.0
 11
2543.8630408744
 21
726.248084247
 31
0.0
  0
LINE
  5
6AC
330
6A3
100
AcDbEntity
  8
FORMAT
100
AcDbLine
 10
2543.8630408744
 20
726.248084247
 30
0.0
 11
2543.8630408744
 21
770.698084247
 31
0.0
  0
MTEXT
  5
6AD
330
6A3
100
AcDbEntity
  8
FORMAT
100
AcDbMText
 10
2510.4385886052
 20
659.5178081465
 30
0.0
 40
25.9291666667
 41
0.0
 71
     1
 72
     1
  1
4
  7
SLDTEXTSTYLE0
 11
6.123233995736766E-17
 21
1.0
 31
0.0
 73
     1
 44
1.0
  0
MTEXT
  5
6AE
330
6A3
100
AcDbEntity
  8
FORMAT
100
AcDbMText
 10
2510.4385886052
 20
678.7245984
 30
0.0
 40
25.9291666667
 41
0.0
 71
     1
 72
     1
  1
*
  7
SLDTEXTSTYLE0
 11
6.123233995736766E-17
 21
1.0
 31
0.0
 73
     1
 44
1.0
  0
ENDBLK
  5
6A5
330
6A3
100
AcDbEntity
  8
0
100
AcDbBlockEnd
  0
BLOCK
  5
6B1
330
6B0
100
AcDbEntity
  8
0
100
AcDbBlockBegin
  2
_D_32
 70
     0
 10
0.0
 20
0.0
 30
0.0
  3
_D_32
  1

  0
SOLID
  5
6B3
330
6B0
100
AcDbEntity
  8
FORMAT
100
AcDbTrace
 10
2578.5304064453
 20
726.248084247
 30
0.0
 11
2574.9744064453
 21
703.134084247
 31
0.0
 12
2582.0864064453
 22
703.134084247
 32
0.0
 13
2582.0864064453
 23
703.134084247
 33
0.0
  0
SOLID
  5
6B4
330
6B0
100
AcDbEntity
  8
FORMAT
100
AcDbTrace
 10
2578.5304064453
 20
785.7480842469
 30
0.0
 11
2582.0864064453
 21
808.8620842469
 31
0.0
 12
2574.9744064453
 22
808.8620842469
 32
0.0
 13
2574.9744064453
 23
808.8620842469
 33
0.0
  0
LINE
  5
6B5
330
6B0
100
AcDbEntity
  8
FORMAT
100
AcDbLine
 10
2370.0647324412
 20
726.248084247
 30
0.0
 11
2585.5304064453
 21
726.248084247
 31
0.0
  0
LINE
  5
6B6
330
6B0
100
AcDbEntity
  8
FORMAT
100
AcDbLine
 10
2466.5304064453
 20
785.7480842469
 30
0.0
 11
2585.5304064453
 21
785.7480842469
 31
0.0
  0
LINE
  5
6B7
330
6B0
100
AcDbEntity
  8
FORMAT
100
AcDbLine
 10
2578.5304064453
 20
726.248084247
 30
0.0
 11
2578.5304064453
 21
681.798084247
 31
0.0
  0
LINE
  5
6B8
330
6B0
100
AcDbEntity
  8
FORMAT
100
AcDbLine
 10
2578.5304064453
 20
726.248084247
 30
0.0
 11
2578.5304064453
 21
785.7480842469
 31
0.0
  0
LINE
  5
6B9
330
6B0
100
AcDbEntity
  8
FORMAT
100
AcDbLine
 10
2578.5304064453
 20
785.7480842469
 30
0.0
 11
2578.5304064453
 21
885.9919192217
 31
0.0
  0
MTEXT
  5
6BA
330
6B0
100
AcDbEntity
  8
FORMAT
100
AcDbMText
 10
2546.9482451911
 20
820.4884486221
 30
0.0
 40
24.5
 41
0.0
 71
     1
 72
     1
  1
42,5
  7
SLDTEXTSTYLE0
 11
3.835990623682900E-15
 21
1.0
 31
0.0
 73
     1
 44
1.0
  0
ENDBLK
  5
6B2
330
6B0
100
AcDbEntity
  8
0
100
AcDbBlockEnd
  0
BLOCK
  5
6E0
330
6DF
100
AcDbEntity
  8
0
100
AcDbBlockBegin
  2
_D_33
 70
     0
 10
0.0
 20
0.0
 30
0.0
  3
_D_33
  1

  0
SOLID
  5
6E2
330
6DF
100
AcDbEntity
  8
FORMAT
100
AcDbTrace
 10
1766.0242117345
 20
222.0601005488
 30
0.0
 11
1762.4682117345
 21
198.9461005488
 31
0.0
 12
1769.5802117345
 22
198.9461005488
 32
0.0
 13
1769.5802117345
 23
198.9461005488
 33
0.0
  0
SOLID
  5
6E3
330
6DF
100
AcDbEntity
  8
FORMAT
100
AcDbTrace
 10
1766.0242117345
 20
232.5601005488
 30
0.0
 11
1769.5802117345
 21
255.6741005488
 31
0.0
 12
1762.4682117345
 22
255.6741005488
 32
0.0
 13
1762.4682117345
 23
255.6741005488
 33
0.0
  0
LINE
  5
6E4
330
6DF
100
AcDbEntity
  8
FORMAT
100
AcDbLine
 10
1810.1280364524
 20
222.0601005487
 30
0.0
 11
1759.0242117345
 21
222.0601005488
 31
0.0
  0
LINE
  5
6E5
330
6DF
100
AcDbEntity
  8
FORMAT
100
AcDbLine
 10
1837.4550447475
 20
232.5601005488
 30
0.0
 11
1759.0242117345
 21
232.5601005488
 31
0.0
  0
LINE
  5
6E6
330
6DF
100
AcDbEntity
  8
FORMAT
100
AcDbLine
 10
1766.0242117345
 20
222.0601005488
 30
0.0
 11
1766.0242117345
 21
146.876216434
 31
0.0
  0
LINE
  5
6E7
330
6DF
100
AcDbEntity
  8
FORMAT
100
AcDbLine
 10
1766.0242117345
 20
222.0601005488
 30
0.0
 11
1766.0242117345
 21
232.5601005488
 31
0.0
  0
LINE
  5
6E8
330
6DF
100
AcDbEntity
  8
FORMAT
100
AcDbLine
 10
1766.0242117345
 20
232.5601005488
 30
0.0
 11
1766.0242117345
 21
277.0101005488
 31
0.0
  0
MTEXT
  5
6E9
330
6DF
100
AcDbEntity
  8
FORMAT
100
AcDbMText
 10
1734.4420504803
 20
146.876216434
 30
0.0
 40
24.5
 41
0.0
 71
     1
 72
     1
  1
7,5
  7
SLDTEXTSTYLE0
 11
9.494107596574928E-16
 21
1.0
 31
0.0
 73
     1
 44
1.0
  0
ENDBLK
  5
6E1
330
6DF
100
AcDbEntity
  8
0
100
AcDbBlockEnd
  0
BLOCK
  5
6ED
330
6EC
100
AcDbEntity
  8
0
100
AcDbBlockBegin
  2
_D_34
 70
     0
 10
0.0
 20
0.0
 30
0.0
  3
_D_34
  1

  0
SOLID
  5
6EF
330
6EC
100
AcDbEntity
  8
FORMAT
100
AcDbTrace
 10
1723.0461514899
 20
232.5601005488
 30
0.0
 11
1726.6021514899
 21
255.6741005488
 31
0.0
 12
1719.4901514899
 22
255.6741005488
 32
0.0
 13
1719.4901514899
 23
255.6741005488
 33
0.0
  0
SOLID
  5
6F0
330
6EC
100
AcDbEntity
  8
FORMAT
100
AcDbTrace
 10
1723.0461514899
 20
338.9601005488
 30
0.0
 11
1719.4901514899
 21
315.8461005488
 31
0.0
 12
1726.6021514899
 22
315.8461005488
 32
0.0
 13
1726.6021514899
 23
315.8461005488
 33
0.0
  0
LINE
  5
6F1
330
6EC
100
AcDbEntity
  8
FORMAT
100
AcDbLine
 10
1829.4050447475
 20
232.5601005488
 30
0.0
 11
1716.0461514899
 21
232.5601005488
 31
0.0
  0
LINE
  5
6F2
330
6EC
100
AcDbEntity
  8
FORMAT
100
AcDbLine
 10
1829.4050447475
 20
338.9601005488
 30
0.0
 11
1716.0461514899
 21
338.9601005488
 31
0.0
  0
LINE
  5
6F3
330
6EC
100
AcDbEntity
  8
FORMAT
100
AcDbLine
 10
1723.0461514899
 20
232.5601005488
 30
0.0
 11
1723.0461514899
 21
338.9601005488
 31
0.0
  0
MTEXT
  5
6F4
330
6EC
100
AcDbEntity
  8
FORMAT
100
AcDbMText
 10
1691.4639902357
 20
267.0448232346
 30
0.0
 40
24.5
 41
0.0
 71
     1
 72
     1
  1
76
  7
SLDTEXTSTYLE0
 11
6.123233995736766E-17
 21
1.0
 31
0.0
 73
     1
 44
1.0
  0
ENDBLK
  5
6EE
330
6EC
100
AcDbEntity
  8
0
100
AcDbBlockEnd
  0
BLOCK
  5
6F7
330
6F6
100
AcDbEntity
  8
0
100
AcDbBlockBegin
  2
SW_CENTERMARKSYMBOL_12
 70
     0
 10
0.0
 20
0.0
 30
0.0
  3
SW_CENTERMARKSYMBOL_12
  1

  0
LINE
  5
6F9
330
6F6
100
AcDbEntity
  8
FORMAT
 62
     0
100
AcDbLine
 10
0.0
 20
0.0
 30
0.0
 11
0.0
 21
3.4999966621
 31
0.0
  0
LINE
  5
6FA
330
6F6
100
AcDbEntity
  8
FORMAT
 62
     0
100
AcDbLine
 10
0.0
 20
0.0
 30
0.0
 11
-3.4999966621
 21
0.0
 31
0.0
  0
LINE
  5
6FB
330
6F6
100
AcDbEntity
  8
FORMAT
 62
     0
100
AcDbLine
 10
0.0
 20
0.0
 30
0.0
 11
0.0
 21
-3.500007093
 31
0.0
  0
LINE
  5
6FC
330
6F6
100
AcDbEntity
  8
FORMAT
 62
     0
100
AcDbLine
 10
0.0
 20
0.0
 30
0.0
 11
3.4999966621
 21
0.0
 31
0.0
  0
LINE
  5
6FD
330
6F6
100
AcDbEntity
  8
FORMAT
 62
     0
100
AcDbLine
 10
0.0
 20
6.9999933243
 30
0.0
 11
0.0
 21
8.0500006676
 31
0.0
  0
LINE
  5
6FE
330
6F6
100
AcDbEntity
  8
FORMAT
 62
     0
100
AcDbLine
 10
-6.9999933243
 20
0.0
 30
0.0
 11
-8.0500006676
 21
0.0
 31
0.0
  0
LINE
  5
6FF
330
6F6
100
AcDbEntity
  8
FORMAT
 62
     0
100
AcDbLine
 10
0.0
 20
-7.0000037551
 30
0.0
 11
0.0
 21
-8.0500006676
 31
0.0
  0
LINE
  5
700
330
6F6
100
AcDbEntity
  8
FORMAT
 62
     0
100
AcDbLine
 10
6.9999933243
 20
0.0
 30
0.0
 11
8.0500006676
 21
0.0
 31
0.0
  0
ENDBLK
  5
6F8
330
6F6
100
AcDbEntity
  8
0
100
AcDbBlockEnd
  0
BLOCK
  5
703
330
702
100
AcDbEntity
  8
0
100
AcDbBlockBegin
  2
SW_CENTERMARKSYMBOL_13
 70
     0
 10
0.0
 20
0.0
 30
0.0
  3
SW_CENTERMARKSYMBOL_13
  1

  0
LINE
  5
705
330
702
100
AcDbEntity
  8
FORMAT
 62
     0
100
AcDbLine
 10
0.0
 20
0.0
 30
0.0
 11
0.0
 21
3.4999966621
 31
0.0
  0
LINE
  5
706
330
702
100
AcDbEntity
  8
FORMAT
 62
     0
100
AcDbLine
 10
0.0
 20
0.0
 30
0.0
 11
-3.4999966621
 21
0.0
 31
0.0
  0
LINE
  5
707
330
702
100
AcDbEntity
  8
FORMAT
 62
     0
100
AcDbLine
 10
0.0
 20
0.0
 30
0.0
 11
0.0
 21
-3.5000175238
 31
0.0
  0
LINE
  5
708
330
702
100
AcDbEntity
  8
FORMAT
 62
     0
100
AcDbLine
 10
0.0
 20
0.0
 30
0.0
 11
3.4999966621
 21
0.0
 31
0.0
  0
LINE
  5
709
330
702
100
AcDbEntity
  8
FORMAT
 62
     0
100
AcDbLine
 10
0.0
 20
6.9999933243
 30
0.0
 11
0.0
 21
8.0499798059
 31
0.0
  0
LINE
  5
70A
330
702
100
AcDbEntity
  8
FORMAT
 62
     0
100
AcDbLine
 10
-6.9999933243
 20
0.0
 30
0.0
 11
-8.0500006676
 21
0.0
 31
0.0
  0
LINE
  5
70B
330
702
100
AcDbEntity
  8
FORMAT
 62
     0
100
AcDbLine
 10
0.0
 20
-7.0000141859
 30
0.0
 11
0.0
 21
-8.0500006676
 31
0.0
  0
LINE
  5
70C
330
702
100
AcDbEntity
  8
FORMAT
 62
     0
100
AcDbLine
 10
6.9999933243
 20
0.0
 30
0.0
 11
8.0500006676
 21
0.0
 31
0.0
  0
ENDBLK
  5
704
330
702
100
AcDbEntity
  8
0
100
AcDbBlockEnd
  0
ENDSEC
  0
SECTION
  2
ENTITIES
  0
LINE
  5
CA
330
1F
100
AcDbEntity
  8
FORMAT
  6
Continuous
 62
     7
370
    18
100
AcDbLine
 10
2648.7467156628
 20
249.0548071362
 30
0.0
 11
2121.8704816337
 21
249.0548071362
 31
0.0
  0
LINE
  5
CB
330
1F
100
AcDbEntity
  8
FORMAT
  6
Continuous
 62
     7
370
    18
100
AcDbLine
 10
2648.7467156628
 20
341.1944719343
 30
0.0
 11
2869.6070185003
 21
341.1944719343
 31
0.0
  0
LINE
  5
CC
330
1F
100
AcDbEntity
  8
0
  6
Continuous
 62
     7
370
    18
100
AcDbLine
 10
2552.9704263625
 20
249.0548071362
 30
0.0
 11
2552.9704263625
 21
181.3583509723
 31
0.0
  0
LINE
  5
CD
330
1F
100
AcDbEntity
  8
FORMAT
100
AcDbLine
 10
2869.6070185003
 20
2009.0
 30
0.0
 11
69.6070185003
 21
2009.0
 31
0.0
  0
LINE
  5
CE
330
1F
100
AcDbEntity
  8
FORMAT
100
AcDbLine
 10
69.6070185003
 20
2009.0
 30
0.0
 11
69.6070185003
 21
70.0
 31
0.0
  0
LINE
  5
CF
330
1F
100
AcDbEntity
  8
BEMASSUNG
  6
Continuous
 62
     7
370
    18
100
AcDbLine
 10
2648.7467156628
 20
283.9466531596
 30
0.0
 11
2869.6070185003
 21
283.9466531596
 31
0.0
  0
LINE
  5
D0
330
1F
100
AcDbEntity
  8
FORMAT
100
AcDbLine
 10
69.6070185003
 20
70.0
 30
0.0
 11
2869.6070185003
 21
70.0
 31
0.0
  0
LINE
  5
D1
330
1F
100
AcDbEntity
  8
FORMAT
100
AcDbLine
 10
2869.6070185003
 20
70.0
 30
0.0
 11
2869.6070185003
 21
2009.0
 31
0.0
  0
LINE
  5
D2
330
1F
100
AcDbEntity
  8
0
  6
Continuous
 62
     7
370
    18
100
AcDbLine
 10
2121.8704816337
 20
368.7467824209
 30
0.0
 11
2121.8704816337
 21
70.0000160588
 31
0.0
  0
LINE
  5
D3
330
1F
100
AcDbEntity
  8
0
  6
Continuous
 62
     7
370
    18
100
AcDbLine
 10
2766.39523512
 20
70.0
 30
0.0
 11
2766.39523512
 21
135.4292810523
 31
0.0
  0
LINE
  5
D4
330
1F
100
AcDbEntity
  8
0
  6
Continuous
 62
     7
370
    18
100
AcDbLine
 10
2121.8704816337
 20
181.3583509723
 30
0.0
 11
2869.6070185003
 21
181.3583509723
 31
0.0
  0
LINE
  5
D5
330
1F
100
AcDbEntity
  8
0
  6
Continuous
 62
     7
370
    18
100
AcDbLine
 10
2648.7467156628
 20
135.4292810523
 30
0.0
 11
2869.6070185003
 21
135.4292810523
 31
0.0
  0
LINE
  5
D6
330
1F
100
AcDbEntity
  8
0
  6
Continuous
 62
     7
370
    18
100
AcDbLine
 10
2121.8704816337
 20
368.7467824209
 30
0.0
 11
2869.7006917056
 21
368.7467824209
 31
0.0
  0
LINE
  5
D7
330
1F
100
AcDbEntity
  8
0
  6
Continuous
 62
     7
370
    18
100
AcDbLine
 10
2648.7467156628
 20
70.0
 30
0.0
 11
2648.7467156628
 21
368.7467824209
 31
0.0
  0
INSERT
  5
D8
330
1F
100
AcDbEntity
  8
0
  6
Continuous
 62
     7
100
AcDbBlockReference
  2
Block1_3_1
 10
2700.6135347481
 20
189.6696797211
 30
0.0
  0
INSERT
  5
D9
330
1F
100
AcDbEntity
  8
FORMAT
100
AcDbBlockReference
  2
rechtlicher_Hinweis_Katalogzeichnungen_1
 10
86.2294908427
 20
31.5549972483
 30
0.0
 41
0.5
 42
0.5
 43
0.5
  0
INSERT
  5
DA
330
1F
100
AcDbEntity
  8
0
  6
Continuous
 62
     7
100
AcDbBlockReference
  2
Block2_3_1
 10
509.1807851128
 20
-261.5944962483
 30
0.0
  0
MTEXT
  5
DB
330
1F
100
AcDbEntity
  8
FORMAT
100
AcDbMText
 10
2295.8055295289
 20
1937.6167193269
 30
0.0
 40
18.5208333333
 41
0.0
 71
     1
 72
     1
  1
**
  7
SLDTEXTSTYLE0
 73
     1
 44
1.0
  0
MTEXT
  5
DC
330
1F
100
AcDbEntity
  8
FORMAT
100
AcDbMText
 10
2204.7159499608
 20
478.018163818
 30
0.0
 40
18.5208333333
 41
0.0
 71
     1
 72
     1
  1
* Abstand Unterkante Hebel zu Oberkante Türflügel
  7
SLDTEXTSTYLE0
 73
     1
 44
1.0
  0
INSERT
  5
E3
330
1F
100
AcDbEntity
  8
FORMAT
100
AcDbBlockReference
  2
SW_NOTE_0_4
 10
93.9104808096
 20
361.5780163476
 30
0.0
  0
MTEXT
  5
E4
330
1F
100
AcDbEntity
  8
0
  6
Continuous
 62
     7
370
     0
100
AcDbMText
 10
2655.2495495755
 20
165.0094332157
 30
0.0
 40
14.0
 41
0.0
 71
     1
 72
     1
  1
Maßstab:
  7
SLDTEXTSTYLE0
 73
     1
 44
1.0
  0
MTEXT
  5
E5
330
1F
100
AcDbEntity
  8
0
  6
Continuous
 62
     7
370
     0
100
AcDbMText
 10
2785.9502817651
 20
125.2286542559
 30
0.0
 40
14.0
 41
0.0
 71
     1
 72
     1
  1
Format
  7
SLDTEXTSTYLE0
 73
     1
 44
1.0
  0
MTEXT
  5
E6
330
1F
100
AcDbEntity
  8
0
  6
Continuous
 62
     7
370
     0
100
AcDbMText
 10
2135.8123898948
 20
356.9818853041
 30
0.0
 40
14.0
 41
0.0
 71
     1
 72
     1
  1
Benennung:
  7
SLDTEXTSTYLE0
 73
     1
 44
1.0
  0
MTEXT
  5
E7
330
1F
100
AcDbEntity
  8
0
  6
Continuous
 62
     7
370
     0
100
AcDbMText
 10
2664.5005395913
 20
125.2286542559
 30
0.0
 40
14.0
 41
0.0
 71
     1
 72
     1
  1
Blatt / von
  7
SLDTEXTSTYLE0
 73
     1
 44
1.0
  0
MTEXT
  5
E8
330
1F
100
AcDbEntity
  8
0
  6
Continuous
 62
     7
370
     0
100
AcDbMText
 10
2706.4725907482
 20
100.6974422258
 30
0.0
 40
17.5
 41
0.0
 71
     2
 72
     1
  1
/
  7
SLDTEXTSTYLE0
 73
     1
 44
1.0
  0
MTEXT
  5
EA
330
1F
100
AcDbEntity
  8
0
  6
Continuous
 62
     7
370
     0
100
AcDbMText
 10
2134.2541581219
 20
214.7882486886
 30
0.0
 40
22.225
 41
0.0
 71
     1
 72
     1
  1
D052-49468
  7
SLDTEXTSTYLE3
 73
     1
 44
1.0
  0
MTEXT
  5
EB
330
1F
100
AcDbEntity
  8
0
  6
Continuous
 62
     7
370
     0
100
AcDbMText
 10
2752.495267605
 20
165.9085614452
 30
0.0
 40
14.8166666667
 41
0.0
 71
     1
 72
     1
  1
1:7
  7
SLDTEXTSTYLE0
 73
     1
 44
1.0
  0
MTEXT
  5
EC
330
1F
100
AcDbEntity
  8
0
  6
Continuous
 62
     7
370
     0
100
AcDbMText
 10
2803.7489693293
 20
99.2074950551
 30
0.0
 40
14.8166666667
 41
0.0
 71
     1
 72
     1
  1
A3
  7
SLDTEXTSTYLE0
 73
     1
 44
1.0
  0
MTEXT
  5
ED
330
1F
100
AcDbEntity
  8
0
  6
Continuous
 62
     7
370
     0
100
AcDbMText
 10
2680.0334055091
 20
99.9642475618
 30
0.0
 40
14.8166666667
 41
0.0
 71
     1
 72
     1
  1
1
  7
SLDTEXTSTYLE0
 73
     1
 44
1.0
  0
MTEXT
  5
EE
330
1F
100
AcDbEntity
  8
0
  6
Continuous
 62
     7
370
     0
100
AcDbMText
 10
2722.5410575592
 20
99.9642475618
 30
0.0
 40
14.8166666667
 41
0.0
 71
     1
 72
     1
  1
1
  7
SLDTEXTSTYLE0
 73
     1
 44
1.0
  0
MTEXT
  5
EF
330
1F
100
AcDbEntity
  8
FORMAT
100
AcDbMText
 10
2137.971220638
 20
240.9301481691
 30
0.0
 40
14.0
 41
0.0
 71
     1
 72
     1
  1
Zeichnungsnummer:
  7
SLDTEXTSTYLE0
 73
     1
 44
1.0
  0
MTEXT
  5
F0
330
1F
100
AcDbEntity
  8
FORMAT
100
AcDbMText
 10
2666.6233339517
 20
361.2067203863
 30
0.0
 40
12.6
 41
0.0
 71
     1
 72
     1
  1
KATALOGZEICHNUNG
  7
SLDTEXTSTYLE3
 73
     1
 44
1.0
  0
MTEXT
  5
F1
330
1F
100
AcDbEntity
  8
FORMAT
100
AcDbMText
 10
2573.4610565193
 20
241.0417881835
 30
0.0
 40
14.0
 41
0.0
 71
     1
 72
     1
  1
Index:
  7
SLDTEXTSTYLE0
 73
     1
 44
1.0
  0
MTEXT
  5
F2
330
1F
100
AcDbEntity
  8
BEMASSUNG
 62
     7
100
AcDbMText
 10
2654.3752871088
 20
335.5547520888
 30
0.0
 40
14.0
 41
0.0
 71
     1
 72
     1
  1
Ausführung:
  7
SLDTEXTSTYLE0
 73
     1
 44
1.0
  0
MTEXT
  5
F3
330
1F
100
AcDbEntity
  8
FORMAT
100
AcDbMText
 10
2134.4508235056
 20
277.1473496808
 30
0.0
 40
17.5
 41
0.0
 71
     1
 72
     1
  1
Bandseite DIN Links
  7
SLDTEXTSTYLE3
 73
     1
 44
1.0
  0
MTEXT
  5
F4
330
1F
100
AcDbEntity
  8
FORMAT
100
AcDbMText
 10
2134.4508235056
 20
333.2914097385
 30
0.0
 40
24.5
 41
0.0
 71
     1
 72
     1
  1
ETS 73 (GSZ - GB 46 - AV 30)
  7
SLDTEXTSTYLE3
 73
     1
 44
1.0
  0
INSERT
  5
11D
330
1F
100
AcDbEntity
  8
FORMAT
100
AcDbBlockReference
  2
SW_TABLEANNOTATION_0
 10
1691.2374424784
 20
1549.4676477201
 30
0.0
  0
LINE
  5
11E
330
1F
100
AcDbEntity
  8
0
  6
Continuous
 62
     7
370
    25
100
AcDbLine
 10
786.8068445458
 20
1681.1542011739
 30
0.0
 11
786.8068445458
 21
1700.9102171429
 31
0.0
  0
LINE
  5
11F
330
1F
100
AcDbEntity
  8
0
  6
Continuous
 62
     7
370
    25
100
AcDbLine
 10
756.8068445458
 20
1700.9102171429
 30
0.0
 11
756.8068445458
 21
1681.1542011739
 31
0.0
  0
LINE
  5
120
330
1F
100
AcDbEntity
  8
0
  6
Continuous
 62
     7
370
    25
100
AcDbLine
 10
1162.0654976911
 20
1657.9102171429
 30
0.0
 11
1162.0654976911
 21
1627.9102171471
 31
0.0
  0
LINE
  5
121
330
1F
100
AcDbEntity
  8
0
  6
Continuous
 62
     7
370
    25
100
AcDbLine
 10
1176.0654976911
 20
1627.9102171471
 30
0.0
 11
1176.0654976911
 21
1657.9102171429
 31
0.0
  0
LINE
  5
122
330
1F
100
AcDbEntity
  8
0
  6
Continuous
 62
     7
370
    25
100
AcDbLine
 10
1174.0654976911
 20
1657.9102171429
 30
0.0
 11
1174.0654976911
 21
1658.4102171429
 31
0.0
  0
LINE
  5
123
330
1F
100
AcDbEntity
  8
0
  6
Continuous
 62
     7
370
    25
100
AcDbLine
 10
1164.0654976911
 20
1658.4102171429
 30
0.0
 11
1164.0654976911
 21
1657.9102171429
 31
0.0
  0
ARC
  5
124
330
1F
100
AcDbEntity
  8
0
  6
Continuous
 62
     7
370
    25
100
AcDbCircle
 10
789.806844546
 20
1668.410217143
 30
0.0
 40
2.999999999999886
100
AcDbArc
 50
179.9999999998
 51
270.0
  0
LINE
  5
125
330
1F
100
AcDbEntity
  8
0
  6
Continuous
 62
     7
370
    25
100
AcDbLine
 10
756.8068445461
 20
1679.210217143
 30
0.0
 11
756.8068445461
 21
1659.410217143
 31
0.0
  0
LINE
  5
126
330
1F
100
AcDbEntity
  8
0
  6
Continuous
 62
     7
370
    25
100
AcDbLine
 10
786.806844546
 20
1668.410217143
 30
0.0
 11
786.806844546
 21
1679.210217143
 31
0.0
  0
LINE
  5
127
330
1F
100
AcDbEntity
  8
0
  6
Continuous
 62
     7
370
    25
100
AcDbLine
 10
756.8068445461
 20
1659.410217143
 30
0.0
 11
757.8068445461
 21
1658.410217143
 31
0.0
  0
LINE
  5
128
330
1F
100
AcDbEntity
  8
0
  6
Continuous
 62
     7
370
    25
100
AcDbLine
 10
786.806844546
 20
1679.210217143
 30
0.0
 11
786.606844546
 21
1679.410217143
 31
0.0
  0
LINE
  5
129
330
1F
100
AcDbEntity
  8
0
  6
Continuous
 62
     7
370
    25
100
AcDbLine
 10
757.0068445461
 20
1679.410217143
 30
0.0
 11
756.8068445461
 21
1679.210217143
 31
0.0
  0
LWPOLYLINE
  5
12A
330
1F
100
AcDbEntity
  8
0
  6
Continuous
 62
     7
370
    25
100
AcDbPolyline
 90
       12
 70
   128
 43
0.0
 10
763.2211350023
 20
1680.218198202
 10
763.1111593668
 20
1679.9191515437
 10
762.9265370185
 20
1679.6829389836
 10
762.8155726206
 20
1679.5925857073
 10
762.7017293749
 20
1679.5231910478
 10
762.5954095565
 20
1679.4743424993
 10
762.5068175913
 20
1679.4429059533
 10
762.445676617
 20
1679.4246194676
 10
762.4212538555
 20
1679.4152814878
 10
762.4420841603
 20
1679.4113802017
 10
762.5149675222
 20
1679.4102911507
 10
762.6005448479
 20
1679.4102416686
  0
LINE
  5
12B
330
1F
100
AcDbEntity
  8
0
  6
Continuous
 62
     7
370
    25
100
AcDbLine
 10
763.404125825
 20
1681.1542011739
 30
0.0
 11
763.2080020589
 21
1680.1510250972
 31
0.0
  0
LWPOLYLINE
  5
12C
330
1F
100
AcDbEntity
  8
0
  6
Continuous
 62
     7
370
    25
100
AcDbPolyline
 90
        4
 70
   128
 43
0.0
 10
782.0371384468
 20
1679.4102398787
 10
782.0767470218
 20
1679.4102625637
 10
782.1023765186
 20
1679.4113138876
 10
782.1016479729
 20
1679.4114727522
  0
ARC
  5
12D
330
1F
100
AcDbEntity
  8
0
  6
Continuous
 62
     7
370
    25
100
AcDbCircle
 10
782.2281596843
 20
1680.4213966018
 30
0.0
 40
1.016334646529234
100
AcDbArc
 50
192.6141786486
 51
261.8326251793
  0
LINE
  5
12E
330
1F
100
AcDbEntity
  8
0
  6
Continuous
 62
     7
370
    25
100
AcDbLine
 10
781.2363572885
 20
1680.1994427179
 30
0.0
 11
781.0305694218
 21
1681.1542011739
 31
0.0
  0
LINE
  5
12F
330
1F
100
AcDbEntity
  8
0
  6
Continuous
 62
     7
370
    25
100
AcDbLine
 10
762.5831196703
 20
1681.1542011739
 30
0.0
 11
762.3670782627
 21
1680.1518711337
 31
0.0
  0
ARC
  5
130
330
1F
100
AcDbEntity
  8
0
  6
Continuous
 62
     7
370
    25
100
AcDbCircle
 10
761.4113452248
 20
1680.395977024
 30
0.0
 40
0.9857770834047348
100
AcDbArc
 50
269.544088549
 51
348.4999965654
  0
LINE
  5
131
330
1F
100
AcDbEntity
  8
0
  6
Continuous
 62
     7
370
    25
100
AcDbLine
 10
1180.0654976911
 20
1664.4102171429
 30
0.0
 11
1179.0654976911
 21
1665.4102171429
 31
0.0
  0
LINE
  5
132
330
1F
100
AcDbEntity
  8
0
  6
Continuous
 62
     7
370
    25
100
AcDbLine
 10
1179.0654976911
 20
1658.4102171429
 30
0.0
 11
1180.0654976911
 21
1659.4102171429
 31
0.0
  0
LINE
  5
133
330
1F
100
AcDbEntity
  8
0
  6
Continuous
 62
     7
370
    25
100
AcDbLine
 10
1180.0654976911
 20
1659.4102171429
 30
0.0
 11
1180.0654976911
 21
1664.4102171429
 31
0.0
  0
LINE
  5
134
330
1F
100
AcDbEntity
  8
0
  6
Continuous
 62
     7
370
    25
100
AcDbLine
 10
479.8068445458
 20
1474.4102171429
 30
0.0
 11
479.8068445458
 21
1434.4102171429
 31
0.0
  0
LINE
  5
135
330
1F
100
AcDbEntity
  8
0
  6
Continuous
 62
     7
370
    25
100
AcDbLine
 10
503.8368445458
 20
1474.4102171429
 30
0.0
 11
503.8368445458
 21
1504.4102171429
 31
0.0
  0
LINE
  5
136
330
1F
100
AcDbEntity
  8
0
  6
Continuous
 62
     7
370
    25
100
AcDbLine
 10
503.8368445458
 20
1404.4102171429
 30
0.0
 11
503.8368445458
 21
1434.4102171429
 31
0.0
  0
LINE
  5
137
330
1F
100
AcDbEntity
  8
0
  6
Continuous
 62
     7
370
    25
100
AcDbLine
 10
767.9678607239
 20
1681.1542011739
 30
0.0
 11
786.8068445458
 21
1681.1542011739
 31
0.0
  0
LINE
  5
138
330
1F
100
AcDbEntity
  8
0
  6
Continuous
 62
     7
370
    25
100
AcDbLine
 10
756.8068445458
 20
1681.1542011739
 30
0.0
 11
767.9678607239
 21
1681.1542011739
 31
0.0
  0
LINE
  5
139
330
1F
100
AcDbEntity
  8
0
  6
Continuous
 62
     7
370
    25
100
AcDbLine
 10
1176.0654976911
 20
1657.9102171429
 30
0.0
 11
1162.0654976911
 21
1657.9102171429
 31
0.0
  0
LWPOLYLINE
  5
13A
330
1F
100
AcDbEntity
  8
0
  6
Continuous
 62
     7
370
    25
100
AcDbPolyline
 90
       16
 70
   128
 43
0.0
 10
784.679266047
 20
1665.410217143
 10
782.8732654962
 20
1665.5464749441
 10
781.0221101894
 20
1665.9058333628
 10
779.1222869253
 20
1666.4315314884
 10
777.8146822385
 20
1666.8558492889
 10
776.3465271483
 20
1667.3724845973
 10
776.008753296
 20
1667.4955095068
 10
775.6643751343
 20
1667.6221531805
 10
775.3132497958
 20
1667.7522437875
 10
774.955207488
 20
1667.8855850641
 10
773.9255310382
 20
1668.2731186484
 10
773.659809372
 20
1668.3732763343
 10
773.5891467981
 20
1668.3996541406
 10
773.5693717457
 20
1668.4069125933
 10
773.5633739752
 20
1668.4090591083
 10
773.5599695461
 20
1668.410217143
  0
LINE
  5
13B
330
1F
100
AcDbEntity
  8
0
  6
Continuous
 62
     7
370
    25
100
AcDbLine
 10
784.796141047
 20
1664.410217143
 30
0.0
 11
784.679266047
 21
1665.410217143
 31
0.0
  0
LWPOLYLINE
  5
13C
330
1F
100
AcDbEntity
  8
0
  6
Continuous
 62
     7
370
    25
100
AcDbPolyline
 90
       16
 70
   128
 43
0.0
 10
784.796141047
 20
1664.410217143
 10
782.811401067
 20
1664.5894852391
 10
780.838270705
 20
1665.0683545325
 10
778.8899341335
 20
1665.7719771808
 10
778.0503876819
 20
1666.1326468738
 10
777.148043928
 20
1666.5508455737
 10
776.1829028718
 20
1667.0265732806
 10
774.866059493
 20
1667.7107064204
 10
774.6273312219
 20
1667.8373829736
 10
774.4094510998
 20
1667.9537637154
 10
774.2124191266
 20
1668.0598486459
 10
773.737061792
 20
1668.3163354173
 10
773.6112325329
 20
1668.3836019108
 10
773.5762802555
 20
1668.4019909346
 10
773.5657947048
 20
1668.4073743907
 10
773.5599695461
 20
1668.410217143
  0
LINE
  5
13D
330
1F
100
AcDbEntity
  8
0
  6
Continuous
 62
     7
370
    25
100
AcDbLine
 10
773.5599695461
 20
1659.410217143
 30
0.0
 11
773.5599695461
 21
1668.410217143
 31
0.0
  0
LINE
  5
13E
330
1F
100
AcDbEntity
  8
0
  6
Continuous
 62
     7
370
    25
100
AcDbLine
 10
773.5599695461
 20
1659.410217143
 30
0.0
 11
756.8068445461
 21
1659.410217143
 31
0.0
  0
LINE
  5
13F
330
1F
100
AcDbEntity
  8
0
  6
Continuous
 62
     7
370
    25
100
AcDbLine
 10
773.5599695461
 20
1679.210217143
 30
0.0
 11
756.8068445461
 21
1679.210217143
 31
0.0
  0
LINE
  5
140
330
1F
100
AcDbEntity
  8
0
  6
Continuous
 62
     7
370
    25
100
AcDbLine
 10
786.806844546
 20
1679.210217143
 30
0.0
 11
773.5599695461
 21
1679.210217143
 31
0.0
  0
LINE
  5
141
330
1F
100
AcDbEntity
  8
0
  6
Continuous
 62
     7
370
    25
100
AcDbLine
 10
773.4430945461
 20
1658.410217143
 30
0.0
 11
773.5599695461
 21
1659.410217143
 31
0.0
  0
LINE
  5
142
330
1F
100
AcDbEntity
  8
0
  6
Continuous
 62
     7
370
    25
100
AcDbLine
 10
773.4430945461
 20
1658.410217143
 30
0.0
 11
757.8068445461
 21
1658.410217143
 31
0.0
  0
LINE
  5
143
330
1F
100
AcDbEntity
  8
0
  6
Continuous
 62
     7
370
    25
100
AcDbLine
 10
773.5365945461
 20
1679.410217143
 30
0.0
 11
757.0068445461
 21
1679.410217143
 31
0.0
  0
LINE
  5
144
330
1F
100
AcDbEntity
  8
0
  6
Continuous
 62
     7
370
    25
100
AcDbLine
 10
786.606844546
 20
1679.410217143
 30
0.0
 11
773.5365945461
 21
1679.410217143
 31
0.0
  0
LINE
  5
145
330
1F
100
AcDbEntity
  8
0
  6
Continuous
 62
     7
370
    25
100
AcDbLine
 10
982.588816589
 20
1659.4102171429
 30
0.0
 11
982.588816589
 21
1664.4102171429
 31
0.0
  0
LINE
  5
146
330
1F
100
AcDbEntity
  8
0
  6
Continuous
 62
     7
370
    25
100
AcDbLine
 10
982.588816589
 20
1659.4102171429
 30
0.0
 11
773.5599695461
 21
1659.410217143
 31
0.0
  0
LINE
  5
147
330
1F
100
AcDbEntity
  8
0
  6
Continuous
 62
     7
370
    25
100
AcDbLine
 10
982.588816589
 20
1664.4102171429
 30
0.0
 11
784.796141047
 21
1664.410217143
 31
0.0
  0
LINE
  5
148
330
1F
100
AcDbEntity
  8
0
  6
Continuous
 62
     7
370
    25
100
AcDbLine
 10
982.588816589
 20
1659.4102171429
 30
0.0
 11
982.471941589
 21
1658.4102171429
 31
0.0
  0
LINE
  5
149
330
1F
100
AcDbEntity
  8
0
  6
Continuous
 62
     7
370
    25
100
AcDbLine
 10
982.471941589
 20
1658.4102171429
 30
0.0
 11
773.4430945461
 21
1658.410217143
 31
0.0
  0
LINE
  5
14A
330
1F
100
AcDbEntity
  8
0
  6
Continuous
 62
     7
370
    25
100
AcDbLine
 10
784.679266047
 20
1665.410217143
 30
0.0
 11
982.471941589
 21
1665.4102171429
 31
0.0
  0
LINE
  5
14B
330
1F
100
AcDbEntity
  8
0
  6
Continuous
 62
     7
370
    25
100
AcDbLine
 10
982.588816589
 20
1664.4102171429
 30
0.0
 11
982.471941589
 21
1665.4102171429
 31
0.0
  0
LWPOLYLINE
  5
14C
330
1F
100
AcDbEntity
  8
0
  6
Continuous
 62
     7
370
    25
100
AcDbPolyline
 90
        9
 70
   128
 43
0.0
 10
769.9306940506
 20
1679.410217143
 10
769.8448985779
 20
1679.4257905749
 10
769.761775365
 20
1679.4720258071
 10
769.6839134394
 20
1679.547482757
 10
769.6137379559
 20
1679.6498111774
 10
769.5534346608
 20
1679.7758238588
 10
769.5048818125
 20
1679.9215959015
 10
769.4695916799
 20
1680.0825869634
 10
769.4486634402
 20
1680.253782678
  0
ARC
  5
14D
330
1F
100
AcDbEntity
  8
0
  6
Continuous
 62
     7
370
    25
100
AcDbCircle
 10
767.9948540146
 20
1680.327774009
 30
0.0
 40
0.9191498472621186
100
AcDbArc
 50
273.3737472446
 51
355.3827081636
  0
ARC
  5
14E
330
1F
100
AcDbEntity
  8
0
  6
Continuous
 62
     7
370
    25
100
AcDbCircle
 10
769.1798421532
 20
1680.7877468063
 30
0.0
 40
0.5978148330900637
100
AcDbArc
 50
243.2772849694
 51
296.7227163648
  0
LWPOLYLINE
  5
14F
330
1F
100
AcDbEntity
  8
0
  6
Continuous
 62
     7
370
    25
100
AcDbPolyline
 90
        3
 70
   128
 43
0.0
 10
772.6106271053
 20
1679.6498111774
 10
772.7051019888
 20
1679.4720258071
 10
772.8204581489
 20
1679.410217143
  0
LINE
  5
150
330
1F
100
AcDbEntity
  8
0
  6
Continuous
 62
     7
370
    25
100
AcDbLine
 10
769.4486634401
 20
1680.253782678
 30
0.0
 11
772.5526776405
 21
1680.253782678
 31
0.0
  0
LWPOLYLINE
  5
151
330
1F
100
AcDbEntity
  8
0
  6
Continuous
 62
     7
370
    25
100
AcDbPolyline
 90
        3
 70
   128
 43
0.0
 10
772.5526776405
 20
1680.253782678
 10
772.5553334873
 20
1679.9215959015
 10
772.6106271053
 20
1679.6498111774
  0
LWPOLYLINE
  5
152
330
1F
100
AcDbEntity
  8
0
  6
Continuous
 62
     7
370
    25
100
AcDbPolyline
 90
        3
 70
   128
 43
0.0
 10
772.8790575953
 20
1679.6498111753
 10
772.880693057
 20
1679.9215959001
 10
772.8529829073
 20
1680.2537826779
  0
LINE
  5
153
330
1F
100
AcDbEntity
  8
0
  6
Continuous
 62
     7
370
    25
100
AcDbLine
 10
772.8529829073
 20
1680.2537826779
 30
0.0
 11
776.2751160165
 21
1680.2537826779
 31
0.0
  0
LWPOLYLINE
  5
154
330
1F
100
AcDbEntity
  8
0
  6
Continuous
 62
     7
370
    25
100
AcDbPolyline
 90
        9
 70
   128
 43
0.0
 10
776.2751160165
 20
1680.2537826779
 10
776.2634485015
 20
1680.0825869634
 10
776.2437742166
 20
1679.9215959015
 10
776.2167059542
 20
1679.7758238588
 10
776.1830868056
 20
1679.6498111774
 10
776.1439639021
 20
1679.547482757
 10
776.1005557992
 20
1679.4720258071
 10
776.0542145232
 20
1679.4257905749
 10
776.0063834597
 20
1679.410217143
  0
LWPOLYLINE
  5
155
330
1F
100
AcDbEntity
  8
0
  6
Continuous
 62
     7
370
    25
100
AcDbPolyline
 90
        3
 70
   128
 43
0.0
 10
772.8204581489
 20
1679.410217143
 10
772.8555785385
 20
1679.4720258065
 10
772.8790575953
 20
1679.6498111753
  0
LWPOLYLINE
  5
156
330
1F
100
AcDbEntity
  8
0
  6
Continuous
 62
     7
370
    25
100
AcDbPolyline
 90
        3
 70
   128
 43
0.0
 10
766.940083667
 20
1679.6498111753
 10
767.104815229
 20
1679.9215959001
 10
767.1754080579
 20
1680.2537826779
  0
LINE
  5
157
330
1F
100
AcDbEntity
  8
0
  6
Continuous
 62
     7
370
    25
100
AcDbLine
 10
767.1754080579
 20
1680.2537826779
 30
0.0
 11
768.9110208796
 21
1680.2537826779
 31
0.0
  0
LWPOLYLINE
  5
158
330
1F
100
AcDbEntity
  8
0
  6
Continuous
 62
     7
370
    25
100
AcDbPolyline
 90
        3
 70
   128
 43
0.0
 10
766.4331303908
 20
1679.410217143
 10
766.7052793325
 20
1679.4720258065
 10
766.940083667
 20
1679.6498111753
  0
ARC
  5
159
330
1F
100
AcDbEntity
  8
0
  6
Continuous
 62
     7
370
    25
100
AcDbCircle
 10
777.7284555705
 20
1680.384593208
 30
0.0
 40
0.9744953823065936
100
AcDbArc
 50
187.7143350978
 51
269.1033892401
  0
ARC
  5
15A
330
1F
100
AcDbEntity
  8
0
  6
Continuous
 62
     7
370
    25
100
AcDbCircle
 10
776.5189478609
 20
1680.6681550712
 30
0.0
 40
0.4807894070811665
100
AcDbArc
 50
239.5258911221
 51
300.474110349
  0
LWPOLYLINE
  5
15B
330
1F
100
AcDbEntity
  8
0
  6
Continuous
 62
     7
370
    25
100
AcDbPolyline
 90
        3
 70
   128
 43
0.0
 10
778.0224716526
 20
1679.6498111774
 10
778.2976622703
 20
1679.4720258071
 10
778.6140248055
 20
1679.410217143
  0
LINE
  5
15C
330
1F
100
AcDbEntity
  8
0
  6
Continuous
 62
     7
370
    25
100
AcDbLine
 10
776.7627797163
 20
1680.253782678
 30
0.0
 11
777.7303856236
 21
1680.253782678
 31
0.0
  0
LWPOLYLINE
  5
15D
330
1F
100
AcDbEntity
  8
0
  6
Continuous
 62
     7
370
    25
100
AcDbPolyline
 90
        3
 70
   128
 43
0.0
 10
777.7303856236
 20
1680.253782678
 10
777.8245353076
 20
1679.9215959015
 10
778.0224716526
 20
1679.6498111774
  0
ARC
  5
15E
330
1F
100
AcDbEntity
  8
0
  6
Continuous
 62
     7
370
    25
100
AcDbCircle
 10
771.3121294226
 20
1680.7017181302
 30
0.0
 40
1.67110875445548
100
AcDbArc
 50
320.9892283155
 51
327.6243106453
  0
ARC
  5
15F
330
1F
100
AcDbEntity
  8
0
  6
Continuous
 62
     7
370
    25
100
AcDbCircle
 10
773.5818738111
 20
1680.5015244039
 30
0.0
 40
1.104249091892181
100
AcDbArc
 50
218.9803668012
 51
230.4712529788
  0
LINE
  5
160
330
1F
100
AcDbEntity
  8
0
  6
Continuous
 62
     7
370
    25
100
AcDbLine
 10
772.6995952754
 20
1680.241248137
 30
0.0
 11
772.5526776405
 21
1680.253782678
 31
0.0
  0
ARC
  5
161
330
1F
100
AcDbEntity
  8
0
  6
Continuous
 62
     7
370
    25
100
AcDbCircle
 10
779.0566249534
 20
1680.3728764186
 30
0.0
 40
6.358392235583615
100
AcDbArc
 50
181.1861930225
 51
185.1068718156
  0
LINE
  5
162
330
1F
100
AcDbEntity
  8
0
  6
Continuous
 62
     7
370
    25
100
AcDbLine
 10
772.8529829073
 20
1680.2537826779
 30
0.0
 11
772.6995952754
 21
1680.241248137
 31
0.0
  0
LWPOLYLINE
  5
163
330
1F
100
AcDbEntity
  8
0
  6
Continuous
 62
     7
370
    25
100
AcDbPolyline
 90
        3
 70
   128
 43
0.0
 10
766.7279376359
 20
1679.6498111774
 10
766.5863546799
 20
1679.4720258071
 10
766.4331303908
 20
1679.410217143
  0
LWPOLYLINE
  5
164
330
1F
100
AcDbEntity
  8
0
  6
Continuous
 62
     7
370
    25
100
AcDbPolyline
 90
        9
 70
   128
 43
0.0
 10
763.2472051165
 20
1679.410217143
 10
763.2950361801
 20
1679.4257905749
 10
763.341377456
 20
1679.4720258071
 10
763.3847855589
 20
1679.547482757
 10
763.4239084625
 20
1679.6498111774
 10
763.457527611
 20
1679.7758238588
 10
763.4845958735
 20
1679.9215959015
 10
763.5042701583
 20
1680.0825869634
 10
763.5159376733
 20
1680.253782678
  0
LINE
  5
165
330
1F
100
AcDbEntity
  8
0
  6
Continuous
 62
     7
370
    25
100
AcDbLine
 10
763.5159376733
 20
1680.253782678
 30
0.0
 11
766.938070746
 21
1680.253782678
 31
0.0
  0
LWPOLYLINE
  5
166
330
1F
100
AcDbEntity
  8
0
  6
Continuous
 62
     7
370
    25
100
AcDbPolyline
 90
        3
 70
   128
 43
0.0
 10
766.938070746
 20
1680.253782678
 10
766.8476769965
 20
1679.9215959015
 10
766.7279376359
 20
1679.6498111774
  0
ARC
  5
167
330
1F
100
AcDbEntity
  8
0
  6
Continuous
 62
     7
370
    25
100
AcDbCircle
 10
766.2498612071
 20
1680.5491559187
 30
0.0
 40
1.018517567636568
100
AcDbArc
 50
297.9943549484
 51
313.2167180078
  0
ARC
  5
168
330
1F
100
AcDbEntity
  8
0
  6
Continuous
 62
     7
370
    25
100
AcDbCircle
 10
766.4814930134
 20
1679.749588308
 30
0.0
 40
0.4693195752944623
100
AcDbArc
 50
347.7252635686
 51
7.0132914396
  0
ARC
  5
169
330
1F
100
AcDbEntity
  8
0
  6
Continuous
 62
     7
370
    25
100
AcDbCircle
 10
765.7297773832
 20
1680.3979639853
 30
0.0
 40
1.353414193740475
100
AcDbArc
 50
334.104790299
 51
353.3506380247
  0
LINE
  5
16A
330
1F
100
AcDbEntity
  8
0
  6
Continuous
 62
     7
370
    25
100
AcDbLine
 10
767.1754080579
 20
1680.2537826779
 30
0.0
 11
767.0740878739
 21
1680.241248137
 31
0.0
  0
LINE
  5
16B
330
1F
100
AcDbEntity
  8
0
  6
Continuous
 62
     7
370
    25
100
AcDbLine
 10
767.0740878739
 20
1680.241248137
 30
0.0
 11
766.938070746
 21
1680.253782678
 31
0.0
  0
LINE
  5
16C
330
1F
100
AcDbEntity
  8
0
  6
Continuous
 62
     7
370
    25
100
AcDbLine
 10
762.4335136991
 20
1679.4209614842
 30
0.0
 11
762.2928331887
 21
1679.410217143
 31
0.0
  0
LWPOLYLINE
  5
16D
330
1F
100
AcDbEntity
  8
0
  6
Continuous
 62
     7
370
    25
100
AcDbPolyline
 90
        8
 70
   128
 43
0.0
 10
763.2432599714
 20
1680.2537826717
 10
763.2213276816
 20
1680.2089120037
 10
763.2350110172
 20
1680.1960532202
 10
763.2662032462
 20
1680.191731046
 10
763.3132887994
 20
1680.1961277624
 10
763.369070245
 20
1680.2078890311
 10
763.4370336101
 20
1680.2270965368
 10
763.5159376733
 20
1680.253782678
  0
LWPOLYLINE
  5
16E
330
1F
100
AcDbEntity
  8
0
  6
Continuous
 62
     7
370
    25
100
AcDbPolyline
 90
        3
 70
   128
 43
0.0
 10
778.1899436611
 20
1679.6498111753
 10
778.0275249911
 20
1679.9215959001
 10
777.9177440928
 20
1680.2537826779
  0
LINE
  5
16F
330
1F
100
AcDbEntity
  8
0
  6
Continuous
 62
     7
370
    25
100
AcDbLine
 10
777.9177440928
 20
1680.2537826779
 30
0.0
 11
781.0217583263
 21
1680.2537826779
 31
0.0
  0
LWPOLYLINE
  5
170
330
1F
100
AcDbEntity
  8
0
  6
Continuous
 62
     7
370
    25
100
AcDbPolyline
 90
        9
 70
   128
 43
0.0
 10
781.0217583263
 20
1680.2537826779
 10
781.0426865661
 20
1680.0825869634
 10
781.0779766986
 20
1679.9215959015
 10
781.126529547
 20
1679.7758238588
 10
781.1868328421
 20
1679.6498111774
 10
781.2570083256
 20
1679.547482757
 10
781.3348702512
 20
1679.4720258071
 10
781.417993464
 20
1679.4257905749
 10
781.5037889368
 20
1679.410217143
  0
LWPOLYLINE
  5
171
330
1F
100
AcDbEntity
  8
0
  6
Continuous
 62
     7
370
    25
100
AcDbPolyline
 90
        3
 70
   128
 43
0.0
 10
778.6140248055
 20
1679.410217143
 10
778.3915435951
 20
1679.4720258065
 10
778.1899436611
 20
1679.6498111753
  0
ARC
  5
172
330
1F
100
AcDbEntity
  8
0
  6
Continuous
 62
     7
370
    25
100
AcDbCircle
 10
778.3153934735
 20
1679.8511928338
 30
0.0
 40
0.3554683736895008
100
AcDbArc
 50
187.1591901882
 51
214.5082446726
  0
ARC
  5
173
330
1F
100
AcDbEntity
  8
0
  6
Continuous
 62
     7
370
    25
100
AcDbCircle
 10
778.6044103949
 20
1680.4923343646
 30
0.0
 40
0.9389504767948614
100
AcDbArc
 50
226.8871512525
 51
243.8058075803
  0
LINE
  5
174
330
1F
100
AcDbEntity
  8
0
  6
Continuous
 62
     7
370
    25
100
AcDbLine
 10
777.8021414075
 20
1680.241248137
 30
0.0
 11
777.7303856236
 21
1680.253782678
 31
0.0
  0
ARC
  5
175
330
1F
100
AcDbEntity
  8
0
  6
Continuous
 62
     7
370
    25
100
AcDbCircle
 10
778.9355372214
 20
1680.4133431436
 30
0.0
 40
1.146386562269863
100
AcDbArc
 50
188.6338504036
 51
211.9386567671
  0
LINE
  5
176
330
1F
100
AcDbEntity
  8
0
  6
Continuous
 62
     7
370
    25
100
AcDbLine
 10
777.9177440928
 20
1680.2537826779
 30
0.0
 11
777.8021414075
 21
1680.241248137
 31
0.0
  0
LWPOLYLINE
  5
177
330
1F
100
AcDbEntity
  8
0
  6
Continuous
 62
     7
370
    25
100
AcDbPolyline
 90
        9
 70
   128
 43
0.0
 10
781.0217583268
 20
1680.2537826717
 10
781.0939894722
 20
1680.2266548065
 10
781.152321528
 20
1680.207277563
 10
781.1955880221
 20
1680.1955823095
 10
781.2232994649
 20
1680.1916436728
 10
781.2357609363
 20
1680.1955759877
 10
781.2323255707
 20
1680.2072698182
 10
781.2118579219
 20
1680.2266494874
 10
781.1737763839
 20
1680.253782678
  0
ARC
  5
178
330
1F
100
AcDbEntity
  8
0
  6
Continuous
 62
     7
370
    25
100
AcDbCircle
 10
761.5237458431
 20
1680.327774009
 30
0.0
 40
0.9191498472666435
100
AcDbArc
 50
273.3737472448
 51
355.3827081651
  0
LINE
  5
179
330
1F
100
AcDbEntity
  8
0
  6
Continuous
 62
     7
370
    25
100
AcDbLine
 10
983.4997272335
 20
1658.4102171429
 30
0.0
 11
983.6375774507
 21
1659.4102171429
 31
0.0
  0
LINE
  5
17A
330
1F
100
AcDbEntity
  8
0
  6
Continuous
 62
     7
370
    25
100
AcDbLine
 10
982.588816589
 20
1659.4102171429
 30
0.0
 11
983.6375774507
 21
1659.4102171429
 31
0.0
  0
LINE
  5
17B
330
1F
100
AcDbEntity
  8
0
  6
Continuous
 62
     7
370
    25
100
AcDbLine
 10
983.4997272335
 20
1658.4102171429
 30
0.0
 11
982.471941589
 21
1658.4102171429
 31
0.0
  0
LINE
  5
17C
330
1F
100
AcDbEntity
  8
0
  6
Continuous
 62
     7
370
    25
100
AcDbLine
 10
983.6375774507
 20
1664.4102171429
 30
0.0
 11
982.588816589
 21
1664.4102171429
 31
0.0
  0
LINE
  5
17D
330
1F
100
AcDbEntity
  8
0
  6
Continuous
 62
     7
370
    25
100
AcDbLine
 10
983.6375774507
 20
1664.4102171429
 30
0.0
 11
983.6375774507
 21
1659.4102171429
 31
0.0
  0
LINE
  5
17E
330
1F
100
AcDbEntity
  8
0
  6
Continuous
 62
     7
370
    25
100
AcDbLine
 10
983.4997272335
 20
1665.4102171429
 30
0.0
 11
983.6375774507
 21
1664.4102171429
 31
0.0
  0
LINE
  5
17F
330
1F
100
AcDbEntity
  8
0
  6
Continuous
 62
     7
370
    25
100
AcDbLine
 10
982.471941589
 20
1665.4102171429
 30
0.0
 11
983.4997272335
 21
1665.4102171429
 31
0.0
  0
LINE
  5
180
330
1F
100
AcDbEntity
  8
0
  6
Continuous
 62
     7
370
    25
100
AcDbLine
 10
1170.4439998635
 20
1658.4102171429
 30
0.0
 11
1170.5818500807
 21
1659.4102171429
 31
0.0
  0
LINE
  5
181
330
1F
100
AcDbEntity
  8
0
  6
Continuous
 62
     7
370
    25
100
AcDbLine
 10
1170.5818500807
 20
1659.4102171429
 30
0.0
 11
983.6375774507
 21
1659.4102171429
 31
0.0
  0
LINE
  5
182
330
1F
100
AcDbEntity
  8
0
  6
Continuous
 62
     7
370
    25
100
AcDbLine
 10
1170.4439998635
 20
1658.4102171429
 30
0.0
 11
983.4997272335
 21
1658.4102171429
 31
0.0
  0
LINE
  5
183
330
1F
100
AcDbEntity
  8
0
  6
Continuous
 62
     7
370
    25
100
AcDbLine
 10
1170.5818500807
 20
1664.4102171429
 30
0.0
 11
1170.4439998635
 21
1665.4102171429
 31
0.0
  0
LINE
  5
184
330
1F
100
AcDbEntity
  8
0
  6
Continuous
 62
     7
370
    25
100
AcDbLine
 10
1170.5818500807
 20
1664.4102171429
 30
0.0
 11
983.6375774507
 21
1664.4102171429
 31
0.0
  0
LINE
  5
185
330
1F
100
AcDbEntity
  8
0
  6
Continuous
 62
     7
370
    25
100
AcDbLine
 10
983.4997272335
 20
1665.4102171429
 30
0.0
 11
1170.4439998635
 21
1665.4102171429
 31
0.0
  0
LINE
  5
186
330
1F
100
AcDbEntity
  8
0
  6
Continuous
 62
     7
370
    25
100
AcDbLine
 10
1170.5818500807
 20
1659.4102171429
 30
0.0
 11
1170.5818500807
 21
1664.4102171429
 31
0.0
  0
LINE
  5
187
330
1F
100
AcDbEntity
  8
0
  6
Continuous
 62
     7
370
    25
100
AcDbLine
 10
1180.0654976911
 20
1664.4102171429
 30
0.0
 11
1170.5818500807
 21
1664.4102171429
 31
0.0
  0
LINE
  5
188
330
1F
100
AcDbEntity
  8
0
  6
Continuous
 62
     7
370
    25
100
AcDbLine
 10
1170.4439998635
 20
1665.4102171429
 30
0.0
 11
1179.0654976911
 21
1665.4102171429
 31
0.0
  0
LINE
  5
189
330
1F
100
AcDbEntity
  8
0
  6
Continuous
 62
     7
370
    25
100
AcDbLine
 10
1180.0654976911
 20
1659.4102171429
 30
0.0
 11
1170.5818500807
 21
1659.4102171429
 31
0.0
  0
LINE
  5
18A
330
1F
100
AcDbEntity
  8
0
  6
Continuous
 62
     7
370
    25
100
AcDbLine
 10
1179.0654976911
 20
1658.4102171429
 30
0.0
 11
1170.4439998635
 21
1658.4102171429
 31
0.0
  0
LINE
  5
18B
330
1F
100
AcDbEntity
  8
0
  6
Continuous
 62
     7
370
    25
100
AcDbLine
 10
1223.8068445458
 20
1627.4102171491
 30
0.0
 11
1223.8068445458
 21
1611.4102171491
 31
0.0
  0
LINE
  5
18C
330
1F
100
AcDbEntity
  8
0
  6
Continuous
 62
     7
370
    25
100
AcDbLine
 10
1223.3068445458
 20
1611.4102171491
 30
0.0
 11
1223.8068445458
 21
1611.4102171491
 31
0.0
  0
LINE
  5
18D
330
1F
100
AcDbEntity
  8
0
  6
Continuous
 62
     7
370
    25
100
AcDbLine
 10
1223.3068445458
 20
1627.4102171491
 30
0.0
 11
1223.3068445458
 21
1611.4102171491
 31
0.0
  0
LINE
  5
18E
330
1F
100
AcDbEntity
  8
0
  6
Continuous
 62
     7
370
    25
100
AcDbLine
 10
1223.8068445458
 20
1627.4102171491
 30
0.0
 11
1223.3068445458
 21
1627.4102171491
 31
0.0
  0
LINE
  5
18F
330
1F
100
AcDbEntity
  8
0
  6
Continuous
 62
     7
370
    25
100
AcDbLine
 10
1205.8068445463
 20
1611.4102171491
 30
0.0
 11
1223.3068445458
 21
1611.4102171491
 31
0.0
  0
LINE
  5
190
330
1F
100
AcDbEntity
  8
0
  6
Continuous
 62
     7
370
    25
100
AcDbLine
 10
1205.8068445464
 20
1627.4102171491
 30
0.0
 11
1205.8068445463
 21
1611.4102171491
 31
0.0
  0
LINE
  5
191
330
1F
100
AcDbEntity
  8
0
  6
Continuous
 62
     7
370
    25
100
AcDbLine
 10
1223.3068445458
 20
1627.4102171491
 30
0.0
 11
1205.8068445464
 21
1627.4102171491
 31
0.0
  0
LINE
  5
192
330
1F
100
AcDbEntity
  8
0
  6
Continuous
 62
     7
370
    25
100
AcDbLine
 10
1205.3068445461
 20
1611.4102171491
 30
0.0
 11
1205.8068445463
 21
1611.4102171491
 31
0.0
  0
LINE
  5
193
330
1F
100
AcDbEntity
  8
0
  6
Continuous
 62
     7
370
    25
100
AcDbLine
 10
1205.3068445464
 20
1627.4102171491
 30
0.0
 11
1205.3068445461
 21
1611.4102171491
 31
0.0
  0
LINE
  5
194
330
1F
100
AcDbEntity
  8
0
  6
Continuous
 62
     7
370
    25
100
AcDbLine
 10
1205.8068445464
 20
1627.4102171491
 30
0.0
 11
1205.3068445464
 21
1627.4102171491
 31
0.0
  0
LINE
  5
195
330
1F
100
AcDbEntity
  8
0
  6
Continuous
 62
     7
370
    25
100
AcDbLine
 10
1205.8068445464
 20
1627.9102171491
 30
0.0
 11
1205.8068445464
 21
1627.4102171491
 31
0.0
  0
LINE
  5
196
330
1F
100
AcDbEntity
  8
0
  6
Continuous
 62
     7
370
    25
100
AcDbLine
 10
1205.8068445464
 20
1627.9102171491
 30
0.0
 11
1223.3068445458
 21
1627.9102171491
 31
0.0
  0
LINE
  5
197
330
1F
100
AcDbEntity
  8
0
  6
Continuous
 62
     7
370
    25
100
AcDbLine
 10
1223.3068445458
 20
1627.9102171491
 30
0.0
 11
1223.3068445458
 21
1627.4102171491
 31
0.0
  0
ARC
  5
198
330
1F
100
AcDbEntity
  8
0
  6
Continuous
 62
     7
370
    25
100
AcDbCircle
 10
1223.3068445458
 20
1627.4102171491
 30
0.0
 40
0.5000000000002274
100
AcDbArc
 50
0.0000000002
 51
90.0
  0
ARC
  5
199
330
1F
100
AcDbEntity
  8
0
  6
Continuous
 62
     7
370
    25
100
AcDbCircle
 10
1205.8068445464
 20
1627.4102171491
 30
0.0
 40
0.5
100
AcDbArc
 50
90.0
 51
179.9999999989
  0
ARC
  5
19A
330
1F
100
AcDbEntity
  8
0
  6
Continuous
 62
     7
370
    25
100
AcDbCircle
 10
1223.3068445458
 20
1611.4102171491
 30
0.0
 40
0.5
100
AcDbArc
 50
270.0
 51
0.0
  0
LINE
  5
19B
330
1F
100
AcDbEntity
  8
0
  6
Continuous
 62
     7
370
    25
100
AcDbLine
 10
1223.3068445458
 20
1611.4102171491
 30
0.0
 11
1223.3068445458
 21
1610.9102171491
 31
0.0
  0
LINE
  5
19C
330
1F
100
AcDbEntity
  8
0
  6
Continuous
 62
     7
370
    25
100
AcDbLine
 10
1223.3068445458
 20
1610.9102171491
 30
0.0
 11
1205.8068445461
 21
1610.9102171491
 31
0.0
  0
LINE
  5
19D
330
1F
100
AcDbEntity
  8
0
  6
Continuous
 62
     7
370
    25
100
AcDbLine
 10
1205.8068445463
 20
1611.4102171491
 30
0.0
 11
1205.8068445461
 21
1610.9102171491
 31
0.0
  0
ARC
  5
19E
330
1F
100
AcDbEntity
  8
0
  6
Continuous
 62
     7
370
    25
100
AcDbCircle
 10
1205.8068445461
 20
1611.4102171491
 30
0.0
 40
0.5000000000002274
100
AcDbArc
 50
179.9999999989
 51
270.0
  0
LINE
  5
19F
330
1F
100
AcDbEntity
  8
0
  6
Continuous
 62
     7
370
    25
100
AcDbLine
 10
589.3068445452
 20
1627.4102171491
 30
0.0
 11
588.8068445452
 21
1627.4102171491
 31
0.0
  0
LINE
  5
1A0
330
1F
100
AcDbEntity
  8
0
  6
Continuous
 62
     7
370
    25
100
AcDbLine
 10
589.3068445455
 20
1611.4102171491
 30
0.0
 11
589.3068445452
 21
1627.4102171491
 31
0.0
  0
LINE
  5
1A1
330
1F
100
AcDbEntity
  8
0
  6
Continuous
 62
     7
370
    25
100
AcDbLine
 10
588.8068445455
 20
1611.4102171491
 30
0.0
 11
589.3068445455
 21
1611.4102171491
 31
0.0
  0
LINE
  5
1A2
330
1F
100
AcDbEntity
  8
0
  6
Continuous
 62
     7
370
    25
100
AcDbLine
 10
588.8068445455
 20
1611.4102171491
 30
0.0
 11
588.8068445452
 21
1627.4102171491
 31
0.0
  0
LINE
  5
1A3
330
1F
100
AcDbEntity
  8
0
  6
Continuous
 62
     7
370
    25
100
AcDbLine
 10
571.3068445458
 20
1611.4102171491
 30
0.0
 11
571.3068445458
 21
1627.4102171491
 31
0.0
  0
LINE
  5
1A4
330
1F
100
AcDbEntity
  8
0
  6
Continuous
 62
     7
370
    25
100
AcDbLine
 10
588.8068445452
 20
1627.4102171491
 30
0.0
 11
571.3068445458
 21
1627.4102171491
 31
0.0
  0
LINE
  5
1A5
330
1F
100
AcDbEntity
  8
0
  6
Continuous
 62
     7
370
    25
100
AcDbLine
 10
571.3068445458
 20
1611.4102171491
 30
0.0
 11
588.8068445455
 21
1611.4102171491
 31
0.0
  0
LINE
  5
1A6
330
1F
100
AcDbEntity
  8
0
  6
Continuous
 62
     7
370
    25
100
AcDbLine
 10
571.3068445458
 20
1611.4102171491
 30
0.0
 11
571.3068445458
 21
1610.9102171491
 31
0.0
  0
LINE
  5
1A7
330
1F
100
AcDbEntity
  8
0
  6
Continuous
 62
     7
370
    25
100
AcDbLine
 10
588.8068445455
 20
1610.9102171491
 30
0.0
 11
588.8068445455
 21
1611.4102171491
 31
0.0
  0
LINE
  5
1A8
330
1F
100
AcDbEntity
  8
0
  6
Continuous
 62
     7
370
    25
100
AcDbLine
 10
588.8068445455
 20
1610.9102171491
 30
0.0
 11
571.3068445458
 21
1610.9102171491
 31
0.0
  0
LINE
  5
1A9
330
1F
100
AcDbEntity
  8
0
  6
Continuous
 62
     7
370
    25
100
AcDbLine
 10
571.3068445458
 20
1627.4102171491
 30
0.0
 11
571.3068445459
 21
1627.9102171491
 31
0.0
  0
LINE
  5
1AA
330
1F
100
AcDbEntity
  8
0
  6
Continuous
 62
     7
370
    25
100
AcDbLine
 10
571.3068445459
 20
1627.9102171491
 30
0.0
 11
588.8068445452
 21
1627.9102171491
 31
0.0
  0
LINE
  5
1AB
330
1F
100
AcDbEntity
  8
0
  6
Continuous
 62
     7
370
    25
100
AcDbLine
 10
588.8068445452
 20
1627.4102171491
 30
0.0
 11
588.8068445452
 21
1627.9102171491
 31
0.0
  0
LINE
  5
1AC
330
1F
100
AcDbEntity
  8
0
  6
Continuous
 62
     7
370
    25
100
AcDbLine
 10
571.3068445458
 20
1627.4102171491
 30
0.0
 11
570.8068445458
 21
1627.4102171491
 31
0.0
  0
ARC
  5
1AD
330
1F
100
AcDbEntity
  8
0
  6
Continuous
 62
     7
370
    25
100
AcDbCircle
 10
571.3068445458
 20
1627.4102171491
 30
0.0
 40
0.5000000000002274
100
AcDbArc
 50
89.9999999939
 51
180.0
  0
ARC
  5
1AE
330
1F
100
AcDbEntity
  8
0
  6
Continuous
 62
     7
370
    25
100
AcDbCircle
 10
588.8068445452
 20
1627.4102171491
 30
0.0
 40
0.5
100
AcDbArc
 50
0.000000003
 51
90.0
  0
LINE
  5
1AF
330
1F
100
AcDbEntity
  8
0
  6
Continuous
 62
     7
370
    25
100
AcDbLine
 10
570.8068445458
 20
1611.4102171491
 30
0.0
 11
571.3068445458
 21
1611.4102171491
 31
0.0
  0
LINE
  5
1B0
330
1F
100
AcDbEntity
  8
0
  6
Continuous
 62
     7
370
    25
100
AcDbLine
 10
570.8068445458
 20
1611.4102171491
 30
0.0
 11
570.8068445458
 21
1627.4102171491
 31
0.0
  0
ARC
  5
1B1
330
1F
100
AcDbEntity
  8
0
  6
Continuous
 62
     7
370
    25
100
AcDbCircle
 10
571.3068445458
 20
1611.4102171491
 30
0.0
 40
0.5000000000001137
100
AcDbArc
 50
180.0
 51
270.0
  0
ARC
  5
1B2
330
1F
100
AcDbEntity
  8
0
  6
Continuous
 62
     7
370
    25
100
AcDbCircle
 10
588.8068445455
 20
1611.4102171491
 30
0.0
 40
0.5000000000004547
100
AcDbArc
 50
270.0
 51
0.0000000011
  0
LINE
  5
1B3
330
1F
100
AcDbEntity
  8
0
  6
Continuous
 62
     7
370
    25
100
AcDbLine
 10
588.8068445452
 20
1627.9102171471
 30
0.0
 11
1205.8068445464
 21
1627.9102171471
 31
0.0
  0
LINE
  5
1B4
330
1F
100
AcDbEntity
  8
0
  6
Continuous
 62
     7
370
    25
100
AcDbLine
 10
1205.8068445461
 20
1610.9102171491
 30
0.0
 11
588.8068445455
 21
1610.9102171491
 31
0.0
  0
LINE
  5
1B5
330
1F
100
AcDbEntity
  8
0
  6
Continuous
 62
     7
370
    25
100
AcDbLine
 10
748.8068445458
 20
1796.9102171429
 30
0.0
 11
748.8068445458
 21
1795.9102171429
 31
0.0
  0
LINE
  5
1B6
330
1F
100
AcDbEntity
  8
0
  6
Continuous
 62
     7
370
    25
100
AcDbLine
 10
748.8068445458
 20
1796.9102171429
 30
0.0
 11
794.8068445458
 21
1796.9102171429
 31
0.0
  0
LINE
  5
1B7
330
1F
100
AcDbEntity
  8
0
  6
Continuous
 62
     7
370
    25
100
AcDbLine
 10
794.8068445458
 20
1796.9102171429
 30
0.0
 11
794.8068445458
 21
1795.9102171429
 31
0.0
  0
LINE
  5
1B8
330
1F
100
AcDbEntity
  8
0
  6
Continuous
 62
     7
370
    25
100
AcDbLine
 10
752.0331246125
 20
1699.9102171429
 30
0.0
 11
752.0331246125
 21
1700.9102171429
 31
0.0
  0
LINE
  5
1B9
330
1F
100
AcDbEntity
  8
0
  6
Continuous
 62
     7
370
    25
100
AcDbLine
 10
748.8068445458
 20
1700.9102171429
 30
0.0
 11
748.8068445458
 21
1699.9102171429
 31
0.0
  0
LINE
  5
1BA
330
1F
100
AcDbEntity
  8
0
  6
Continuous
 62
     7
370
    25
100
AcDbLine
 10
752.0331246125
 20
1699.9102171429
 30
0.0
 11
748.8068445458
 21
1699.9102171429
 31
0.0
  0
LINE
  5
1BB
330
1F
100
AcDbEntity
  8
0
  6
Continuous
 62
     7
370
    25
100
AcDbLine
 10
791.5805644791
 20
1700.9102171429
 30
0.0
 11
791.5805644791
 21
1699.9102171429
 31
0.0
  0
LINE
  5
1BC
330
1F
100
AcDbEntity
  8
0
  6
Continuous
 62
     7
370
    25
100
AcDbLine
 10
794.8068445458
 20
1699.9102171429
 30
0.0
 11
791.5805644791
 21
1699.9102171429
 31
0.0
  0
LINE
  5
1BD
330
1F
100
AcDbEntity
  8
0
  6
Continuous
 62
     7
370
    25
100
AcDbLine
 10
794.8068445458
 20
1699.9102171429
 30
0.0
 11
794.8068445458
 21
1700.9102171429
 31
0.0
  0
LINE
  5
1BE
330
1F
100
AcDbEntity
  8
0
  6
Continuous
 62
     7
370
    25
100
AcDbLine
 10
791.5805644791
 20
1699.9102171429
 30
0.0
 11
786.8068445458
 21
1699.9102171429
 31
0.0
  0
LINE
  5
1BF
330
1F
100
AcDbEntity
  8
0
  6
Continuous
 62
     7
370
    25
100
AcDbLine
 10
756.8068445458
 20
1699.9102171429
 30
0.0
 11
752.0331246125
 21
1699.9102171429
 31
0.0
  0
LINE
  5
1C0
330
1F
100
AcDbEntity
  8
0
  6
Continuous
 62
     7
370
    25
100
AcDbLine
 10
499.8068445458
 20
1790.9102171429
 30
0.0
 11
499.8068445458
 21
1705.9102171429
 31
0.0
  0
LINE
  5
1C1
330
1F
100
AcDbEntity
  8
0
  6
Continuous
 62
     7
370
    25
100
AcDbLine
 10
501.8068445458
 20
1790.9102171429
 30
0.0
 11
499.8068445458
 21
1790.9102171429
 31
0.0
  0
LINE
  5
1C2
330
1F
100
AcDbEntity
  8
0
  6
Continuous
 62
     7
370
    25
100
AcDbLine
 10
501.8068445458
 20
1790.9102171429
 30
0.0
 11
501.8068445458
 21
1705.9102171429
 31
0.0
  0
LINE
  5
1C3
330
1F
100
AcDbEntity
  8
0
  6
Continuous
 62
     7
370
    25
100
AcDbLine
 10
501.8068445458
 20
1705.9102171429
 30
0.0
 11
499.8068445458
 21
1705.9102171429
 31
0.0
  0
LINE
  5
1C4
330
1F
100
AcDbEntity
  8
0
  6
Continuous
 62
     7
370
    25
100
AcDbLine
 10
501.8068445458
 20
1795.9102171429
 30
0.0
 11
499.8068445458
 21
1795.9102171429
 31
0.0
  0
LINE
  5
1C5
330
1F
100
AcDbEntity
  8
0
  6
Continuous
 62
     7
370
    25
100
AcDbLine
 10
501.8068445458
 20
1795.9102171429
 30
0.0
 11
501.8068445458
 21
1790.9102171429
 31
0.0
  0
LINE
  5
1C6
330
1F
100
AcDbEntity
  8
0
  6
Continuous
 62
     7
370
    25
100
AcDbLine
 10
499.8068445458
 20
1795.9102171429
 30
0.0
 11
499.8068445458
 21
1790.9102171429
 31
0.0
  0
LINE
  5
1C7
330
1F
100
AcDbEntity
  8
0
  6
Continuous
 62
     7
370
    25
100
AcDbLine
 10
501.8068445458
 20
1700.9102171429
 30
0.0
 11
499.8068445458
 21
1700.9102171429
 31
0.0
  0
LINE
  5
1C8
330
1F
100
AcDbEntity
  8
0
  6
Continuous
 62
     7
370
    25
100
AcDbLine
 10
501.8068445458
 20
1705.9102171429
 30
0.0
 11
501.8068445458
 21
1700.9102171429
 31
0.0
  0
LINE
  5
1C9
330
1F
100
AcDbEntity
  8
0
  6
Continuous
 62
     7
370
    25
100
AcDbLine
 10
499.8068445458
 20
1705.9102171429
 30
0.0
 11
499.8068445458
 21
1700.9102171429
 31
0.0
  0
LINE
  5
1CA
330
1F
100
AcDbEntity
  8
0
  6
Continuous
 62
     7
370
    25
100
AcDbLine
 10
495.3068445458
 20
1705.9102171429
 30
0.0
 11
495.3068445458
 21
1790.9102171476
 31
0.0
  0
LINE
  5
1CB
330
1F
100
AcDbEntity
  8
0
  6
Continuous
 62
     7
370
    25
100
AcDbLine
 10
492.3068445458
 20
1705.9102171429
 30
0.0
 11
495.3068445458
 21
1705.9102171429
 31
0.0
  0
LINE
  5
1CC
330
1F
100
AcDbEntity
  8
0
  6
Continuous
 62
     7
370
    25
100
AcDbLine
 10
492.3068445458
 20
1705.9102171429
 30
0.0
 11
492.3068445458
 21
1790.9102171429
 31
0.0
  0
LINE
  5
1CD
330
1F
100
AcDbEntity
  8
0
  6
Continuous
 62
     7
370
    25
100
AcDbLine
 10
495.3068445458
 20
1790.9102171429
 30
0.0
 11
492.3068445458
 21
1790.9102171429
 31
0.0
  0
LINE
  5
1CE
330
1F
100
AcDbEntity
  8
0
  6
Continuous
 62
     7
370
    25
100
AcDbLine
 10
499.8068445458
 20
1790.9102171429
 30
0.0
 11
495.3068445458
 21
1790.9102171429
 31
0.0
  0
LINE
  5
1CF
330
1F
100
AcDbEntity
  8
0
  6
Continuous
 62
     7
370
    25
100
AcDbLine
 10
495.3068445458
 20
1790.9102171523
 30
0.0
 11
495.3068445458
 21
1793.9102171429
 31
0.0
  0
LINE
  5
1D0
330
1F
100
AcDbEntity
  8
0
  6
Continuous
 62
     7
370
    25
100
AcDbLine
 10
495.3068445458
 20
1793.9102171429
 30
0.0
 11
499.8068445458
 21
1793.9102171429
 31
0.0
  0
LINE
  5
1D1
330
1F
100
AcDbEntity
  8
0
  6
Continuous
 62
     7
370
    25
100
AcDbLine
 10
495.3068445458
 20
1705.9102171429
 30
0.0
 11
499.8068445458
 21
1705.9102171429
 31
0.0
  0
LINE
  5
1D2
330
1F
100
AcDbEntity
  8
0
  6
Continuous
 62
     7
370
    25
100
AcDbLine
 10
499.8068445458
 20
1702.9102171429
 30
0.0
 11
495.3068445458
 21
1702.9102171429
 31
0.0
  0
LINE
  5
1D3
330
1F
100
AcDbEntity
  8
0
  6
Continuous
 62
     7
370
    25
100
AcDbLine
 10
495.3068445458
 20
1702.9102171429
 30
0.0
 11
495.3068445458
 21
1705.9102171429
 31
0.0
  0
ARC
  5
1D4
330
1F
100
AcDbEntity
  8
0
  6
Continuous
 62
     7
370
    25
100
AcDbCircle
 10
495.3068445458
 20
1705.9102171429
 30
0.0
 40
3.000000000000227
100
AcDbArc
 50
180.0
 51
270.0
  0
ARC
  5
1D5
330
1F
100
AcDbEntity
  8
0
  6
Continuous
 62
     7
370
    25
100
AcDbCircle
 10
495.3068445458
 20
1790.9102171429
 30
0.0
 40
3.0
100
AcDbArc
 50
90.0
 51
180.0
  0
LINE
  5
1D6
330
1F
100
AcDbEntity
  8
0
  6
Continuous
 62
     7
370
    25
100
AcDbLine
 10
1173.8068445458
 20
1705.9102171428
 30
0.0
 11
1173.8068445458
 21
1790.9102171428
 31
0.0
  0
LINE
  5
1D7
330
1F
100
AcDbEntity
  8
0
  6
Continuous
 62
     7
370
    25
100
AcDbLine
 10
1171.8068445458
 20
1705.9102171428
 30
0.0
 11
1173.8068445458
 21
1705.9102171428
 31
0.0
  0
LINE
  5
1D8
330
1F
100
AcDbEntity
  8
0
  6
Continuous
 62
     7
370
    25
100
AcDbLine
 10
1171.8068445458
 20
1705.9102171428
 30
0.0
 11
1171.8068445458
 21
1790.9102171428
 31
0.0
  0
LINE
  5
1D9
330
1F
100
AcDbEntity
  8
0
  6
Continuous
 62
     7
370
    25
100
AcDbLine
 10
1171.8068445458
 20
1790.9102171428
 30
0.0
 11
1173.8068445458
 21
1790.9102171428
 31
0.0
  0
LINE
  5
1DA
330
1F
100
AcDbEntity
  8
0
  6
Continuous
 62
     7
370
    25
100
AcDbLine
 10
1173.8068445458
 20
1790.9102171428
 30
0.0
 11
1173.8068445458
 21
1795.9102171428
 31
0.0
  0
LINE
  5
1DB
330
1F
100
AcDbEntity
  8
0
  6
Continuous
 62
     7
370
    25
100
AcDbLine
 10
1171.8068445458
 20
1790.9102171428
 30
0.0
 11
1171.8068445458
 21
1795.9102171428
 31
0.0
  0
LINE
  5
1DC
330
1F
100
AcDbEntity
  8
0
  6
Continuous
 62
     7
370
    25
100
AcDbLine
 10
1171.8068445458
 20
1795.9102171428
 30
0.0
 11
1173.8068445458
 21
1795.9102171428
 31
0.0
  0
LINE
  5
1DD
330
1F
100
AcDbEntity
  8
0
  6
Continuous
 62
     7
370
    25
100
AcDbLine
 10
1171.8068445458
 20
1700.9102171428
 30
0.0
 11
1173.8068445458
 21
1700.9102171428
 31
0.0
  0
LINE
  5
1DE
330
1F
100
AcDbEntity
  8
0
  6
Continuous
 62
     7
370
    25
100
AcDbLine
 10
1173.8068445458
 20
1700.9102171428
 30
0.0
 11
1173.8068445458
 21
1705.9102171428
 31
0.0
  0
LINE
  5
1DF
330
1F
100
AcDbEntity
  8
0
  6
Continuous
 62
     7
370
    25
100
AcDbLine
 10
1171.8068445458
 20
1700.9102171428
 30
0.0
 11
1171.8068445458
 21
1705.9102171428
 31
0.0
  0
LINE
  5
1E0
330
1F
100
AcDbEntity
  8
0
  6
Continuous
 62
     7
370
    25
100
AcDbLine
 10
1178.3068445458
 20
1790.9102171428
 30
0.0
 11
1178.3068445458
 21
1705.9102171381
 31
0.0
  0
LINE
  5
1E1
330
1F
100
AcDbEntity
  8
0
  6
Continuous
 62
     7
370
    25
100
AcDbLine
 10
1181.3068445458
 20
1790.9102171428
 30
0.0
 11
1178.3068445458
 21
1790.9102171428
 31
0.0
  0
LINE
  5
1E2
330
1F
100
AcDbEntity
  8
0
  6
Continuous
 62
     7
370
    25
100
AcDbLine
 10
1181.3068445458
 20
1790.9102171428
 30
0.0
 11
1181.3068445458
 21
1705.9102171428
 31
0.0
  0
LINE
  5
1E3
330
1F
100
AcDbEntity
  8
0
  6
Continuous
 62
     7
370
    25
100
AcDbLine
 10
1178.3068445458
 20
1705.9102171428
 30
0.0
 11
1181.3068445458
 21
1705.9102171428
 31
0.0
  0
LINE
  5
1E4
330
1F
100
AcDbEntity
  8
0
  6
Continuous
 62
     7
370
    25
100
AcDbLine
 10
1173.8068445458
 20
1705.9102171428
 30
0.0
 11
1178.3068445458
 21
1705.9102171428
 31
0.0
  0
LINE
  5
1E5
330
1F
100
AcDbEntity
  8
0
  6
Continuous
 62
     7
370
    25
100
AcDbLine
 10
1178.3068445458
 20
1705.9102171334
 30
0.0
 11
1178.3068445458
 21
1702.9102171428
 31
0.0
  0
LINE
  5
1E6
330
1F
100
AcDbEntity
  8
0
  6
Continuous
 62
     7
370
    25
100
AcDbLine
 10
1178.3068445458
 20
1702.9102171428
 30
0.0
 11
1173.8068445458
 21
1702.9102171428
 31
0.0
  0
LINE
  5
1E7
330
1F
100
AcDbEntity
  8
0
  6
Continuous
 62
     7
370
    25
100
AcDbLine
 10
1178.3068445458
 20
1790.9102171428
 30
0.0
 11
1173.8068445458
 21
1790.9102171428
 31
0.0
  0
LINE
  5
1E8
330
1F
100
AcDbEntity
  8
0
  6
Continuous
 62
     7
370
    25
100
AcDbLine
 10
1173.8068445458
 20
1793.9102171428
 30
0.0
 11
1178.3068445458
 21
1793.9102171428
 31
0.0
  0
LINE
  5
1E9
330
1F
100
AcDbEntity
  8
0
  6
Continuous
 62
     7
370
    25
100
AcDbLine
 10
1178.3068445458
 20
1793.9102171428
 30
0.0
 11
1178.3068445458
 21
1790.9102171428
 31
0.0
  0
ARC
  5
1EA
330
1F
100
AcDbEntity
  8
0
  6
Continuous
 62
     7
370
    25
100
AcDbCircle
 10
1178.3068445458
 20
1790.9102171428
 30
0.0
 40
3.000000000000227
100
AcDbArc
 50
0.0
 51
90.0
  0
ARC
  5
1EB
330
1F
100
AcDbEntity
  8
0
  6
Continuous
 62
     7
370
    25
100
AcDbCircle
 10
1178.3068445458
 20
1705.9102171428
 30
0.0
 40
3.0
100
AcDbArc
 50
270.0
 51
0.0
  0
LINE
  5
1EC
330
1F
100
AcDbEntity
  8
0
  6
Continuous
 62
     7
370
    25
100
AcDbLine
 10
501.8068445458
 20
1795.9102171429
 30
0.0
 11
1171.8068445458
 21
1795.9102171429
 31
0.0
  0
LINE
  5
1ED
330
1F
100
AcDbEntity
  8
0
  6
Continuous
 62
     7
370
    25
100
AcDbLine
 10
501.8068445458
 20
1790.9102171429
 30
0.0
 11
1171.8068445458
 21
1790.9102171429
 31
0.0
  0
LINE
  5
1EE
330
1F
100
AcDbEntity
  8
0
  6
Continuous
 62
     7
370
    25
100
AcDbLine
 10
501.8068445458
 20
1705.9102171429
 30
0.0
 11
1171.8068445458
 21
1705.9102171429
 31
0.0
  0
LINE
  5
1EF
330
1F
100
AcDbEntity
  8
0
  6
Continuous
 62
     7
370
    25
100
AcDbLine
 10
501.8068445458
 20
1700.9102171429
 30
0.0
 11
1171.8068445458
 21
1700.9102171429
 31
0.0
  0
LINE
  5
1F0
330
1F
100
AcDbEntity
  8
0
  6
Continuous
 62
     7
370
    25
100
AcDbLine
 10
501.5111224881
 20
1474.4102171429
 30
0.0
 11
501.5111224881
 21
1434.4102171429
 31
0.0
  0
LINE
  5
1F1
330
1F
100
AcDbEntity
  8
0
  6
Continuous
 62
     7
370
    25
100
AcDbLine
 10
505.5545716307
 20
1474.4102171429
 30
0.0
 11
505.5545716307
 21
1434.4102171429
 31
0.0
  0
LINE
  5
1F2
330
1F
100
AcDbEntity
  8
0
  6
Continuous
 62
     7
370
    25
100
AcDbLine
 10
505.5545716307
 20
1434.4102171429
 30
0.0
 11
501.7988444404
 21
1434.4102171429
 31
0.0
  0
LINE
  5
1F3
330
1F
100
AcDbEntity
  8
0
  6
Continuous
 62
     7
370
    25
100
AcDbLine
 10
505.5545716307
 20
1474.4102171429
 30
0.0
 11
501.7988444404
 21
1474.4102171429
 31
0.0
  0
LINE
  5
1F4
330
1F
100
AcDbEntity
  8
0
  6
Continuous
 62
     7
370
    25
100
AcDbLine
 10
523.8068445458
 20
1474.4102171429
 30
0.0
 11
523.8068445458
 21
1434.4102171429
 31
0.0
  0
LINE
  5
1F5
330
1F
100
AcDbEntity
  8
0
  6
Continuous
 62
     7
370
    25
100
AcDbLine
 10
523.8068445458
 20
1434.4102171429
 30
0.0
 11
505.5545716307
 21
1434.4102171429
 31
0.0
  0
LINE
  5
1F6
330
1F
100
AcDbEntity
  8
0
  6
Continuous
 62
     7
370
    25
100
AcDbLine
 10
523.8068445458
 20
1474.4102171429
 30
0.0
 11
505.5545716307
 21
1474.4102171429
 31
0.0
  0
LINE
  5
1F7
330
1F
100
AcDbEntity
  8
0
  6
Continuous
 62
     7
370
    25
100
AcDbLine
 10
1486.8068445458
 20
1334.4102171429
 30
0.0
 11
496.8068445458
 21
1334.4102171429
 31
0.0
  0
LINE
  5
1F8
330
1F
100
AcDbEntity
  8
0
  6
Continuous
 62
     7
370
    25
100
AcDbLine
 10
496.8068445458
 20
1334.4102171429
 30
0.0
 11
496.8068445458
 21
1404.4102171429
 31
0.0
  0
LINE
  5
1F9
330
1F
100
AcDbEntity
  8
0
  6
Continuous
 62
     7
370
    25
100
AcDbLine
 10
496.8068445458
 20
1504.4102171429
 30
0.0
 11
496.8068445458
 21
1654.4102171429
 31
0.0
  0
LINE
  5
1FA
330
1F
100
AcDbEntity
  8
0
  6
Continuous
 62
     7
370
    25
100
AcDbLine
 10
496.8068445458
 20
1654.4102171429
 30
0.0
 11
1162.0654976911
 21
1654.4102171429
 31
0.0
  0
LINE
  5
1FB
330
1F
100
AcDbEntity
  8
0
  6
Continuous
 62
     7
370
    25
100
AcDbLine
 10
1176.0654976911
 20
1654.4102171429
 30
0.0
 11
1486.8068445458
 21
1654.4102171429
 31
0.0
  0
LINE
  5
1FC
330
1F
100
AcDbEntity
  8
0
  6
Continuous
 62
     7
370
    25
100
AcDbLine
 10
1486.8068445458
 20
1654.4102171429
 30
0.0
 11
1486.8068445458
 21
1334.4102171429
 31
0.0
  0
LINE
  5
1FD
330
1F
100
AcDbEntity
  8
0
  6
Continuous
 62
     7
370
    25
100
AcDbLine
 10
481.8222888702
 20
1504.4102171429
 30
0.0
 11
481.8222888702
 21
1474.4102171429
 31
0.0
  0
LINE
  5
1FE
330
1F
100
AcDbEntity
  8
0
  6
Continuous
 62
     7
370
    25
100
AcDbLine
 10
503.8368445458
 20
1504.4102171429
 30
0.0
 11
481.8222888702
 21
1504.4102171429
 31
0.0
  0
LINE
  5
1FF
330
1F
100
AcDbEntity
  8
0
  6
Continuous
 62
     7
370
    25
100
AcDbLine
 10
501.7988444404
 20
1474.4102171429
 30
0.0
 11
481.8222888702
 21
1474.4102171429
 31
0.0
  0
LINE
  5
200
330
1F
100
AcDbEntity
  8
0
  6
Continuous
 62
     7
370
    25
100
AcDbLine
 10
481.8222888702
 20
1434.4102171429
 30
0.0
 11
481.8222888702
 21
1404.4102171429
 31
0.0
  0
LINE
  5
201
330
1F
100
AcDbEntity
  8
0
  6
Continuous
 62
     7
370
    25
100
AcDbLine
 10
503.8368445458
 20
1404.4102171429
 30
0.0
 11
481.8222888702
 21
1404.4102171429
 31
0.0
  0
LINE
  5
202
330
1F
100
AcDbEntity
  8
0
  6
Continuous
 62
     7
370
    25
100
AcDbLine
 10
501.7988444404
 20
1434.4102171429
 30
0.0
 11
481.8222888702
 21
1434.4102171429
 31
0.0
  0
LINE
  5
203
330
1F
100
AcDbEntity
  8
0
  6
Continuous
 62
     7
370
    25
100
AcDbLine
 10
478.0568445458
 20
1434.4102171429
 30
0.0
 11
478.0568445458
 21
1404.4102171429
 31
0.0
  0
LINE
  5
204
330
1F
100
AcDbEntity
  8
0
  6
Continuous
 62
     7
370
    25
100
AcDbLine
 10
481.8222888702
 20
1404.4102171429
 30
0.0
 11
478.0568445458
 21
1404.4102171429
 31
0.0
  0
LINE
  5
205
330
1F
100
AcDbEntity
  8
0
  6
Continuous
 62
     7
370
    25
100
AcDbLine
 10
481.8222888702
 20
1434.4102171429
 30
0.0
 11
478.0568445458
 21
1434.4102171429
 31
0.0
  0
LINE
  5
206
330
1F
100
AcDbEntity
  8
0
  6
Continuous
 62
     7
370
    25
100
AcDbLine
 10
478.0568445458
 20
1504.4102171429
 30
0.0
 11
478.0568445458
 21
1474.4102171429
 31
0.0
  0
LINE
  5
207
330
1F
100
AcDbEntity
  8
0
  6
Continuous
 62
     7
370
    25
100
AcDbLine
 10
481.8222888702
 20
1504.4102171429
 30
0.0
 11
478.0568445458
 21
1504.4102171429
 31
0.0
  0
LINE
  5
208
330
1F
100
AcDbEntity
  8
0
  6
Continuous
 62
     7
370
    25
100
AcDbLine
 10
481.8222888702
 20
1474.4102171429
 30
0.0
 11
478.0568445458
 21
1474.4102171429
 31
0.0
  0
LINE
  5
209
330
1F
100
AcDbEntity
  8
0
  6
Continuous
 62
     7
370
    25
100
AcDbLine
 10
459.8068445458
 20
1504.4102171429
 30
0.0
 11
459.8068445458
 21
1474.4102171429
 31
0.0
  0
LINE
  5
20A
330
1F
100
AcDbEntity
  8
0
  6
Continuous
 62
     7
370
    25
100
AcDbLine
 10
478.0568445458
 20
1504.4102171429
 30
0.0
 11
459.8068445458
 21
1504.4102171429
 31
0.0
  0
LINE
  5
20B
330
1F
100
AcDbEntity
  8
0
  6
Continuous
 62
     7
370
    25
100
AcDbLine
 10
478.0568445458
 20
1474.4102171429
 30
0.0
 11
459.8068445458
 21
1474.4102171429
 31
0.0
  0
LINE
  5
20C
330
1F
100
AcDbEntity
  8
0
  6
Continuous
 62
     7
370
    25
100
AcDbLine
 10
459.8068445458
 20
1434.4102171429
 30
0.0
 11
459.8068445458
 21
1404.4102171429
 31
0.0
  0
LINE
  5
20D
330
1F
100
AcDbEntity
  8
0
  6
Continuous
 62
     7
370
    25
100
AcDbLine
 10
478.0568445458
 20
1404.4102171429
 30
0.0
 11
459.8068445458
 21
1404.4102171429
 31
0.0
  0
LINE
  5
20E
330
1F
100
AcDbEntity
  8
0
  6
Continuous
 62
     7
370
    25
100
AcDbLine
 10
478.0568445458
 20
1434.4102171429
 30
0.0
 11
459.8068445458
 21
1434.4102171429
 31
0.0
  0
LINE
  5
20F
330
1F
100
AcDbEntity
  8
0
  6
Continuous
 62
     7
370
    25
100
AcDbLine
 10
391.8068445458
 20
1834.4102171429
 30
0.0
 11
391.8068445458
 21
1334.4102171429
 31
0.0
  0
LINE
  5
210
330
1F
100
AcDbEntity
  8
0
  6
Continuous
 62
     7
370
    25
100
AcDbLine
 10
1591.8068445458
 20
1334.4102171429
 30
0.0
 11
1591.8068445458
 21
1834.4102171429
 31
0.0
  0
LINE
  5
211
330
1F
100
AcDbEntity
  8
0
  6
Continuous
 62
     7
370
    25
100
AcDbLine
 10
1491.8068445458
 20
1659.4102171429
 30
0.0
 11
1180.0654976911
 21
1659.4102171429
 31
0.0
  0
LINE
  5
212
330
1F
100
AcDbEntity
  8
0
  6
Continuous
 62
     7
370
    25
100
AcDbLine
 10
756.8068445462
 20
1659.4102171429
 30
0.0
 11
491.8068445458
 21
1659.4102171429
 31
0.0
  0
LINE
  5
213
330
1F
100
AcDbEntity
  8
0
  6
Continuous
 62
     7
370
    25
100
AcDbLine
 10
1591.8068445458
 20
1834.4102171429
 30
0.0
 11
391.8068445458
 21
1834.4102171429
 31
0.0
  0
LINE
  5
214
330
1F
100
AcDbEntity
  8
0
  6
Continuous
 62
     7
370
    25
100
AcDbLine
 10
1491.8068445458
 20
1334.4102171429
 30
0.0
 11
1491.8068445458
 21
1659.4102171429
 31
0.0
  0
LINE
  5
215
330
1F
100
AcDbEntity
  8
0
  6
Continuous
 62
     7
370
    25
100
AcDbLine
 10
391.8068445458
 20
1334.4102171429
 30
0.0
 11
491.8068445458
 21
1334.4102171429
 31
0.0
  0
LINE
  5
216
330
1F
100
AcDbEntity
  8
0
  6
Continuous
 62
     7
370
    25
100
AcDbLine
 10
491.8068445458
 20
1659.4102171429
 30
0.0
 11
491.8068445458
 21
1504.4102171429
 31
0.0
  0
LINE
  5
217
330
1F
100
AcDbEntity
  8
0
  6
Continuous
 62
     7
370
    25
100
AcDbLine
 10
491.8068445458
 20
1404.4102171429
 30
0.0
 11
491.8068445458
 21
1334.4102171429
 31
0.0
  0
LINE
  5
218
330
1F
100
AcDbEntity
  8
0
  6
Continuous
 62
     7
370
    25
100
AcDbLine
 10
1491.8068445458
 20
1334.4102171429
 30
0.0
 11
1591.8068445458
 21
1334.4102171429
 31
0.0
  0
LINE
  5
219
330
1F
100
AcDbEntity
  8
0
  6
Continuous
 62
     7
370
    25
100
AcDbLine
 10
491.8068445458
 20
1334.4102171429
 30
0.0
 11
496.8068445458
 21
1334.4102171429
 31
0.0
  0
LINE
  5
21A
330
1F
100
AcDbEntity
  8
0
  6
Continuous
 62
     7
370
    25
100
AcDbLine
 10
1486.8068445458
 20
1334.4102171429
 30
0.0
 11
1491.8068445458
 21
1334.4102171429
 31
0.0
  0
LINE
  5
21B
330
1F
100
AcDbEntity
  8
0
  6
Continuous
 62
     7
370
    25
100
AcDbLine
 10
773.5599695461
 20
1668.410217143
 30
0.0
 11
786.806844546
 21
1668.410217143
 31
0.0
  0
LINE
  5
21C
330
1F
100
AcDbEntity
  8
0
  6
Continuous
 62
     7
370
    25
100
AcDbLine
 10
769.503538155
 20
1681.1542011739
 30
0.0
 11
769.4486634402
 21
1680.253782678
 31
0.0
  0
LINE
  5
21D
330
1F
100
AcDbEntity
  8
0
  6
Continuous
 62
     7
370
    25
100
AcDbLine
 10
768.9110208792
 20
1680.2537826779
 30
0.0
 11
768.9658955922
 21
1681.1542011739
 31
0.0
  0
LINE
  5
21E
330
1F
100
AcDbEntity
  8
0
  6
Continuous
 62
     7
370
    25
100
AcDbLine
 10
767.2710537317
 20
1681.1542011739
 30
0.0
 11
767.1754080579
 21
1680.2537826779
 31
0.0
  0
LINE
  5
21F
330
1F
100
AcDbEntity
  8
0
  6
Continuous
 62
     7
370
    25
100
AcDbLine
 10
772.5526776405
 20
1680.253782678
 30
0.0
 11
772.5346365328
 21
1681.1542011739
 31
0.0
  0
LINE
  5
220
330
1F
100
AcDbEntity
  8
0
  6
Continuous
 62
     7
370
    25
100
AcDbLine
 10
776.2751160156
 20
1680.2537826779
 30
0.0
 11
776.1766862101
 21
1681.1542011739
 31
0.0
  0
LINE
  5
221
330
1F
100
AcDbEntity
  8
0
  6
Continuous
 62
     7
370
    25
100
AcDbLine
 10
772.8349417996
 20
1681.1542011739
 30
0.0
 11
772.8529829073
 21
1680.2537826779
 31
0.0
  0
LINE
  5
222
330
1F
100
AcDbEntity
  8
0
  6
Continuous
 62
     7
370
    25
100
AcDbLine
 10
776.6643499144
 20
1681.1542011739
 30
0.0
 11
776.7627797163
 21
1680.253782678
 31
0.0
  0
LINE
  5
223
330
1F
100
AcDbEntity
  8
0
  6
Continuous
 62
     7
370
    25
100
AcDbLine
 10
777.7303856236
 20
1680.253782678
 30
0.0
 11
777.6092259707
 21
1681.1542011739
 31
0.0
  0
LINE
  5
224
330
1F
100
AcDbEntity
  8
0
  6
Continuous
 62
     7
370
    25
100
AcDbLine
 10
766.938070746
 20
1680.253782678
 30
0.0
 11
767.0337164197
 21
1681.1542011739
 31
0.0
  0
LINE
  5
225
330
1F
100
AcDbEntity
  8
0
  6
Continuous
 62
     7
370
    25
100
AcDbLine
 10
763.6919720412
 20
1681.1542011739
 30
0.0
 11
763.5159376733
 21
1680.253782678
 31
0.0
  0
LINE
  5
226
330
1F
100
AcDbEntity
  8
0
  6
Continuous
 62
     7
370
    25
100
AcDbLine
 10
777.7965844398
 20
1681.1542011739
 30
0.0
 11
777.9177440928
 21
1680.2537826779
 31
0.0
  0
LINE
  5
227
330
1F
100
AcDbEntity
  8
0
  6
Continuous
 62
     7
370
    25
100
AcDbLine
 10
781.0217583255
 20
1680.2537826779
 30
0.0
 11
780.8276828466
 21
1681.1542011739
 31
0.0
  0
LINE
  5
228
330
1F
100
AcDbEntity
  8
0
  6
Continuous
 62
     7
370
    25
100
AcDbLine
 10
762.4399127082
 20
1680.253782678
 30
0.0
 11
763.2280914571
 21
1680.253782678
 31
0.0
  0
LINE
  5
229
330
1F
100
AcDbEntity
  8
0
  6
Continuous
 62
     7
370
    25
100
AcDbLine
 10
762.6339881837
 20
1681.1542011739
 30
0.0
 11
762.4399127082
 21
1680.253782678
 31
0.0
  0
LWPOLYLINE
  5
22A
330
1F
100
AcDbEntity
  8
0
  6
Continuous
 62
     7
370
    25
100
AcDbPolyline
 90
        3
 70
   128
 43
0.0
 10
762.37940998
 20
1680.200475474
 10
762.3828642081
 20
1680.2088980222
 10
762.4399127082
 20
1680.253782678
  0
LINE
  5
22B
330
1F
100
AcDbEntity
  8
0
  6
Continuous
 62
     7
370
    25
100
AcDbLine
 10
1205.3068445464
 20
1627.4102171471
 30
0.0
 11
589.3068445452
 21
1627.4102171471
 31
0.0
  0
LINE
  5
22C
330
1F
100
AcDbEntity
  8
0
  6
Continuous
 62
     7
370
    25
100
AcDbLine
 10
1205.3068445461
 20
1611.4102171491
 30
0.0
 11
589.3068445455
 21
1611.4102171491
 31
0.0
  0
DIMENSION
  5
22D
330
1F
100
AcDbEntity
  8
FORMAT
100
AcDbDimension
  2
_D
 10
1223.8068445458
 20
1491.3213473439
 30
0.0
 11
897.3068445458
 21
1491.3213473439
 31
0.0
 70
   160
  1
<>
 71
     2
 42
-1.0
  3
SLDDIMSTYLE0
100
AcDbAlignedDimension
 13
570.8068445458
 23
1611.4102171491
 33
0.0
 14
1223.8068445458
 24
1611.4102171491
 34
0.0
 50
0.0
100
AcDbRotatedDimension
  0
DIMENSION
  5
238
330
1F
100
AcDbEntity
  8
FORMAT
100
AcDbDimension
  2
_D_1
 10
468.4607436903
 20
1795.9102171429
 30
0.0
 11
468.4607436903
 21
1748.4102171429
 31
0.0
 70
   160
  1
<>
 71
     2
 42
-1.0
  3
SLDDIMSTYLE0
100
AcDbAlignedDimension
 13
501.8068445458
 23
1700.9102171429
 33
0.0
 14
501.8068445458
 24
1795.9102171429
 34
0.0
 50
90.0
100
AcDbRotatedDimension
  0
DIMENSION
  5
242
330
1F
100
AcDbEntity
  8
FORMAT
100
AcDbDimension
  2
_D_2
 10
1181.3068445458
 20
1859.5575068495
 30
0.0
 11
836.8068445458
 21
1859.5575068495
 31
0.0
 70
   160
  1
<>
 71
     2
 42
-1.0
  3
SLDDIMSTYLE0
100
AcDbAlignedDimension
 13
492.3068445458
 23
1790.9102171429
 33
0.0
 14
1181.3068445458
 24
1790.9102171428
 34
0.0
 50
0.0
100
AcDbRotatedDimension
  0
DIMENSION
  5
24C
330
1F
100
AcDbEntity
  8
FORMAT
100
AcDbDimension
  2
_D_3
 10
1267.163134394
 20
1627.9102171491
 30
0.0
 11
1267.163134394
 21
1568.0180735739
 31
0.0
 70
   160
  1
<>
 71
     2
 42
-1.0
  3
SLDDIMSTYLE1
100
AcDbAlignedDimension
 13
1223.3068445458
 23
1610.9102171491
 33
0.0
 14
1223.3068445458
 24
1627.9102171491
 34
0.0
 50
90.0
100
AcDbRotatedDimension
  0
DIMENSION
  5
259
330
1F
100
AcDbEntity
  8
FORMAT
100
AcDbDimension
  2
_D_4
 10
771.8068445458
 20
1444.7808979445
 30
0.0
 11
631.8068445458
 21
1444.7808979445
 31
0.0
 70
   160
  1
<>
 71
     2
 42
-1.0
  3
SLDDIMSTYLE0
100
AcDbAlignedDimension
 13
491.8068445458
 23
1404.593090463
 33
0.0
 14
771.8068445458
 24
1645.6753469202
 34
0.0
100
AcDbRotatedDimension
  0
LINE
  5
262
330
1F
100
AcDbEntity
  8
0
  6
CENTER
 62
     7
370
    18
100
AcDbLine
 10
608.3291418911
 20
1894.4102171429
 30
0.0
 11
608.3291418911
 21
1274.4102171429
 31
0.0
  0
LINE
  5
263
330
1F
100
AcDbEntity
  8
0
  6
Continuous
 62
     7
370
    18
100
AcDbLine
 10
519.4291418911
 20
1880.4102171428
 30
0.0
 11
608.3291418911
 21
1880.4102171428
 31
0.0
  0
SOLID
  5
264
330
1F
100
AcDbEntity
  8
0
  6
Continuous
 62
     7
370
    18
100
AcDbTrace
 10
608.3291418911
 20
1880.4102171428
 30
0.0
 11
563.8791418911
 21
1887.5222171428
 31
0.0
 12
563.8791418911
 22
1873.2982171428
 32
0.0
 13
563.8791418911
 23
1873.2982171428
 33
0.0
  0
LINE
  5
265
330
1F
100
AcDbEntity
  8
0
  6
Continuous
 62
     7
370
    18
100
AcDbLine
 10
519.4291418911
 20
1288.4102171428
 30
0.0
 11
608.3291418911
 21
1288.4102171428
 31
0.0
  0
SOLID
  5
266
330
1F
100
AcDbEntity
  8
0
  6
Continuous
 62
     7
370
    18
100
AcDbTrace
 10
608.3291418911
 20
1288.4102171428
 30
0.0
 11
563.8791418911
 21
1295.5222171428
 31
0.0
 12
563.8791418911
 22
1281.2982171428
 32
0.0
 13
563.8791418911
 23
1281.2982171428
 33
0.0
  0
MTEXT
  5
267
330
1F
100
AcDbEntity
  8
0
  6
Continuous
 62
     7
100
AcDbMText
 10
519.4291418911
 20
1934.0977496431
 30
0.0
 40
35.0
 41
0.0
 71
     1
 72
     1
  1
A
  7
SLDTEXTSTYLE0
 73
     1
 44
1.0
  0
MTEXT
  5
268
330
1F
100
AcDbEntity
  8
0
  6
Continuous
 62
     7
100
AcDbMText
 10
519.4291418911
 20
1270.5322688203
 30
0.0
 40
35.0
 41
0.0
 71
     1
 72
     1
  1
A
  7
SLDTEXTSTYLE0
 73
     1
 44
1.0
  0
LINE
  5
269
330
1F
100
AcDbEntity
  8
FORMAT
  6
CENTERX2
370
    18
100
AcDbLine
 10
771.8068445458
 20
1645.6753469202
 30
0.0
 11
771.8068445458
 21
1721.1542011739
 31
0.0
  0
LINE
  5
26A
330
1F
100
AcDbEntity
  8
FORMAT
  6
CENTERX2
370
    18
100
AcDbLine
 10
491.8068445458
 20
1506.3856572009
 30
0.0
 11
491.8068445458
 21
1404.593090463
 31
0.0
  0
LINE
  5
26B
330
1F
100
AcDbEntity
  8
0
  6
Continuous
 62
     7
370
    25
100
AcDbLine
 10
479.8068445458
 20
586.6457783439
 30
0.0
 11
479.8068445458
 21
546.6457783439
 31
0.0
  0
LINE
  5
26C
330
1F
100
AcDbEntity
  8
0
  6
Continuous
 62
     7
370
    25
100
AcDbLine
 10
503.8368445458
 20
516.6457783439
 30
0.0
 11
503.8368445458
 21
546.6457783439
 31
0.0
  0
LINE
  5
26D
330
1F
100
AcDbEntity
  8
0
  6
Continuous
 62
     7
370
    25
100
AcDbLine
 10
503.8368445458
 20
586.6457783439
 30
0.0
 11
503.8368445458
 21
616.6457783439
 31
0.0
  0
ARC
  5
26E
330
1F
100
AcDbEntity
  8
0
  6
Continuous
 62
     7
370
    25
100
AcDbCircle
 10
1161.3068445458
 20
898.6457783435
 30
0.0
 40
1.999999999999923
100
AcDbArc
 50
14.4775121862
 51
165.5224878124
  0
ARC
  5
26F
330
1F
100
AcDbEntity
  8
0
  6
Continuous
 62
     7
370
    25
100
AcDbCircle
 10
1141.8068445458
 20
898.6457783435
 30
0.0
 40
3.2500000000004
100
AcDbArc
 50
8.8498831004
 51
171.1501169005
  0
ARC
  5
270
330
1F
100
AcDbEntity
  8
0
  6
Continuous
 62
     7
370
    25
100
AcDbCircle
 10
915.8068445458
 20
898.6457783435
 30
0.0
 40
3.249999999996354
100
AcDbArc
 50
8.8498830993
 51
171.1501169007
  0
ARC
  5
271
330
1F
100
AcDbEntity
  8
0
  6
Continuous
 62
     7
370
    25
100
AcDbCircle
 10
848.8068445458
 20
898.6457783435
 30
0.0
 40
3.000000000000545
100
AcDbArc
 50
9.5940682278
 51
170.4059317722
  0
ARC
  5
272
330
1F
100
AcDbEntity
  8
0
  6
Continuous
 62
     7
370
    25
100
AcDbCircle
 10
724.8068445458
 20
898.6457783435
 30
0.0
 40
3.000000000000251
100
AcDbArc
 50
9.594068228
 51
170.4059317719
  0
ARC
  5
273
330
1F
100
AcDbEntity
  8
0
  6
Continuous
 62
     7
370
    25
100
AcDbCircle
 10
708.8068445458
 20
898.6457783435
 30
0.0
 40
3.249999999996184
100
AcDbArc
 50
8.8498830994
 51
171.1501169005
  0
ARC
  5
274
330
1F
100
AcDbEntity
  8
0
  6
Continuous
 62
     7
370
    25
100
AcDbCircle
 10
541.8068445458
 20
898.6457783435
 30
0.0
 40
2.000000000000544
100
AcDbArc
 50
14.4775121877
 51
165.5224878124
  0
ARC
  5
275
330
1F
100
AcDbEntity
  8
0
  6
Continuous
 62
     7
370
    25
100
AcDbCircle
 10
512.3068445458
 20
898.6457783435
 30
0.0
 40
2.000000000000458
100
AcDbArc
 50
14.4775121876
 51
165.5224878126
  0
LINE
  5
276
330
1F
100
AcDbEntity
  8
0
  6
Continuous
 62
     7
370
    25
100
AcDbLine
 10
1171.8068445458
 20
905.1457783435
 30
0.0
 11
1171.8068445458
 21
899.1457783435
 31
0.0
  0
LINE
  5
277
330
1F
100
AcDbEntity
  8
0
  6
Continuous
 62
     7
370
    25
100
AcDbLine
 10
501.8068445458
 20
899.1457783435
 30
0.0
 11
501.8068445458
 21
905.1457783435
 31
0.0
  0
ARC
  5
278
330
1F
100
AcDbEntity
  8
0
  6
Continuous
 62
     7
370
    25
100
AcDbCircle
 10
512.3068445458
 20
898.6457783435
 30
0.0
 40
2.000000000000458
100
AcDbArc
 50
165.5224878126
 51
180.0000000001
  0
LINE
  5
279
330
1F
100
AcDbEntity
  8
0
  6
Continuous
 62
     7
370
    25
100
AcDbLine
 10
501.8068445458
 20
899.1457783435
 30
0.0
 11
501.8068445458
 21
898.6457783435
 31
0.0
  0
ARC
  5
27A
330
1F
100
AcDbEntity
  8
0
  6
Continuous
 62
     7
370
    25
100
AcDbCircle
 10
512.3068445458
 20
898.6457783435
 30
0.0
 40
2.000000000000021
100
AcDbArc
 50
180.0000000001
 51
194.4775121861
  0
LINE
  5
27B
330
1F
100
AcDbEntity
  8
0
  6
Continuous
 62
     7
370
    25
100
AcDbLine
 10
501.8068445458
 20
898.6457783435
 30
0.0
 11
501.8068445458
 21
898.1457783435
 31
0.0
  0
ARC
  5
27C
330
1F
100
AcDbEntity
  8
0
  6
Continuous
 62
     7
370
    25
100
AcDbCircle
 10
512.3068445458
 20
898.6457783435
 30
0.0
 40
2.000000000000021
100
AcDbArc
 50
194.4775121861
 51
345.5224878139
  0
ARC
  5
27D
330
1F
100
AcDbEntity
  8
0
  6
Continuous
 62
     7
370
    25
100
AcDbCircle
 10
541.8068445458
 20
898.6457783435
 30
0.0
 40
2.000000000000091
100
AcDbArc
 50
194.4775121861
 51
345.5224878141
  0
ARC
  5
27E
330
1F
100
AcDbEntity
  8
0
  6
Continuous
 62
     7
370
    25
100
AcDbCircle
 10
708.8068445458
 20
898.6457783435
 30
0.0
 40
3.249999999995996
100
AcDbArc
 50
188.8498830984
 51
351.1501169016
  0
ARC
  5
27F
330
1F
100
AcDbEntity
  8
0
  6
Continuous
 62
     7
370
    25
100
AcDbCircle
 10
724.8068445458
 20
898.6457783435
 30
0.0
 40
3.000000000000069
100
AcDbArc
 50
189.5940682267
 51
350.4059317733
  0
ARC
  5
280
330
1F
100
AcDbEntity
  8
0
  6
Continuous
 62
     7
370
    25
100
AcDbCircle
 10
848.8068445458
 20
898.6457783435
 30
0.0
 40
3.000000000000111
100
AcDbArc
 50
189.5940682269
 51
350.4059317731
  0
ARC
  5
281
330
1F
100
AcDbEntity
  8
0
  6
Continuous
 62
     7
370
    25
100
AcDbCircle
 10
915.8068445458
 20
898.6457783435
 30
0.0
 40
3.249999999996013
100
AcDbArc
 50
188.8498830984
 51
351.1501169016
  0
ARC
  5
282
330
1F
100
AcDbEntity
  8
0
  6
Continuous
 62
     7
370
    25
100
AcDbCircle
 10
1141.8068445458
 20
898.6457783435
 30
0.0
 40
3.250000000000168
100
AcDbArc
 50
188.8498830983
 51
351.1501169018
  0
ARC
  5
283
330
1F
100
AcDbEntity
  8
0
  6
Continuous
 62
     7
370
    25
100
AcDbCircle
 10
1161.3068445458
 20
898.6457783435
 30
0.0
 40
2.000000000000204
100
AcDbArc
 50
194.4775121856
 51
345.5224878144
  0
LINE
  5
284
330
1F
100
AcDbEntity
  8
0
  6
Continuous
 62
     7
370
    25
100
AcDbLine
 10
1171.8068445458
 20
898.1457783435
 30
0.0
 11
1171.8068445458
 21
886.6457783435
 31
0.0
  0
LINE
  5
285
330
1F
100
AcDbEntity
  8
0
  6
Continuous
 62
     7
370
    25
100
AcDbLine
 10
501.8068445458
 20
886.6457783435
 30
0.0
 11
501.8068445458
 21
898.1457783435
 31
0.0
  0
ARC
  5
286
330
1F
100
AcDbEntity
  8
0
  6
Continuous
 62
     7
370
    25
100
AcDbCircle
 10
708.8068445458
 20
822.6457783435
 30
0.0
 40
3.249999999996315
100
AcDbArc
 50
8.8498830984
 51
171.1501169016
  0
ARC
  5
287
330
1F
100
AcDbEntity
  8
0
  6
Continuous
 62
     7
370
    25
100
AcDbCircle
 10
541.8068445458
 20
822.6457783435
 30
0.0
 40
2.000000000000018
100
AcDbArc
 50
14.4775121861
 51
165.5224878138
  0
ARC
  5
288
330
1F
100
AcDbEntity
  8
0
  6
Continuous
 62
     7
370
    25
100
AcDbCircle
 10
512.3068445458
 20
822.6457783435
 30
0.0
 40
2.000000000000002
100
AcDbArc
 50
14.4775121862
 51
165.5224878138
  0
LINE
  5
289
330
1F
100
AcDbEntity
  8
0
  6
Continuous
 62
     7
370
    25
100
AcDbLine
 10
501.8068445458
 20
823.1457783435
 30
0.0
 11
501.8068445458
 21
832.8457783435
 31
0.0
  0
ARC
  5
28A
330
1F
100
AcDbEntity
  8
0
  6
Continuous
 62
     7
370
    25
100
AcDbCircle
 10
1161.3068445458
 20
822.6457783435
 30
0.0
 40
2.000000000000774
100
AcDbArc
 50
14.4775121862
 51
165.5224878136
  0
ARC
  5
28B
330
1F
100
AcDbEntity
  8
0
  6
Continuous
 62
     7
370
    25
100
AcDbCircle
 10
1141.8068445458
 20
822.6457783435
 30
0.0
 40
3.250000000000196
100
AcDbArc
 50
8.8498830987
 51
171.1501169013
  0
ARC
  5
28C
330
1F
100
AcDbEntity
  8
0
  6
Continuous
 62
     7
370
    25
100
AcDbCircle
 10
915.8068445458
 20
822.6457783435
 30
0.0
 40
3.249999999995944
100
AcDbArc
 50
8.8498830985
 51
171.1501169015
  0
ARC
  5
28D
330
1F
100
AcDbEntity
  8
0
  6
Continuous
 62
     7
370
    25
100
AcDbCircle
 10
848.8068445458
 20
822.6457783435
 30
0.0
 40
2.999999999999943
100
AcDbArc
 50
9.5940682269
 51
170.4059317731
  0
ARC
  5
28E
330
1F
100
AcDbEntity
  8
0
  6
Continuous
 62
     7
370
    25
100
AcDbCircle
 10
724.8068445458
 20
822.6457783435
 30
0.0
 40
3.000000000000639
100
AcDbArc
 50
9.5940682272
 51
170.4059317729
  0
LINE
  5
28F
330
1F
100
AcDbEntity
  8
0
  6
Continuous
 62
     7
370
    25
100
AcDbLine
 10
1171.8068445458
 20
832.8457783435
 30
0.0
 11
1171.8068445458
 21
823.1457783435
 31
0.0
  0
ARC
  5
290
330
1F
100
AcDbEntity
  8
0
  6
Continuous
 62
     7
370
    25
100
AcDbCircle
 10
1161.3068445458
 20
822.6457783435
 30
0.0
 40
2.00000000000086
100
AcDbArc
 50
0.0000000001
 51
14.4775121862
  0
LINE
  5
291
330
1F
100
AcDbEntity
  8
0
  6
Continuous
 62
     7
370
    25
100
AcDbLine
 10
1171.8068445458
 20
822.6457783435
 30
0.0
 11
1171.8068445458
 21
823.1457783435
 31
0.0
  0
ARC
  5
292
330
1F
100
AcDbEntity
  8
0
  6
Continuous
 62
     7
370
    25
100
AcDbCircle
 10
1161.3068445458
 20
898.6457783435
 30
0.0
 40
2.000000000000119
100
AcDbArc
 50
345.5224878144
 51
0.0000000003
  0
LINE
  5
293
330
1F
100
AcDbEntity
  8
0
  6
Continuous
 62
     7
370
    25
100
AcDbLine
 10
1171.8068445458
 20
898.1457783435
 30
0.0
 11
1171.8068445458
 21
898.6457783435
 31
0.0
  0
ARC
  5
294
330
1F
100
AcDbEntity
  8
0
  6
Continuous
 62
     7
370
    25
100
AcDbCircle
 10
1161.3068445458
 20
898.6457783435
 30
0.0
 40
2.000000000000008
100
AcDbArc
 50
0.0000000003
 51
14.4775121862
  0
LINE
  5
295
330
1F
100
AcDbEntity
  8
0
  6
Continuous
 62
     7
370
    25
100
AcDbLine
 10
1171.8068445458
 20
898.6457783435
 30
0.0
 11
1171.8068445458
 21
899.1457783435
 31
0.0
  0
LINE
  5
296
330
1F
100
AcDbEntity
  8
0
  6
Continuous
 62
     7
370
    25
100
AcDbLine
 10
1171.8068445458
 20
886.6457783435
 30
0.0
 11
1171.8068445458
 21
886.1457783435
 31
0.0
  0
LINE
  5
297
330
1F
100
AcDbEntity
  8
0
  6
Continuous
 62
     7
370
    25
100
AcDbLine
 10
501.8068445458
 20
886.1457783435
 30
0.0
 11
501.8068445458
 21
886.6457783435
 31
0.0
  0
ARC
  5
298
330
1F
100
AcDbEntity
  8
0
  6
Continuous
 62
     7
370
    25
100
AcDbCircle
 10
512.3068445458
 20
822.6457783435
 30
0.0
 40
2.000000000000114
100
AcDbArc
 50
179.9999999998
 51
194.4775121859
  0
LINE
  5
299
330
1F
100
AcDbEntity
  8
0
  6
Continuous
 62
     7
370
    25
100
AcDbLine
 10
501.8068445458
 20
822.6457783435
 30
0.0
 11
501.8068445458
 21
822.1457783435
 31
0.0
  0
ARC
  5
29A
330
1F
100
AcDbEntity
  8
0
  6
Continuous
 62
     7
370
    25
100
AcDbCircle
 10
915.8068445458
 20
822.6457783435
 30
0.0
 40
3.249999999995978
100
AcDbArc
 50
188.8498830984
 51
351.1501169016
  0
ARC
  5
29B
330
1F
100
AcDbEntity
  8
0
  6
Continuous
 62
     7
370
    25
100
AcDbCircle
 10
1141.8068445458
 20
822.6457783435
 30
0.0
 40
3.250000000000168
100
AcDbArc
 50
188.8498830983
 51
351.1501169018
  0
ARC
  5
29C
330
1F
100
AcDbEntity
  8
0
  6
Continuous
 62
     7
370
    25
100
AcDbCircle
 10
1161.3068445458
 20
822.6457783435
 30
0.0
 40
2.000000000000147
100
AcDbArc
 50
194.4775121873
 51
345.5224878127
  0
ARC
  5
29D
330
1F
100
AcDbEntity
  8
0
  6
Continuous
 62
     7
370
    25
100
AcDbCircle
 10
512.3068445458
 20
822.6457783435
 30
0.0
 40
2.000000000000173
100
AcDbArc
 50
194.4775121859
 51
345.5224878142
  0
ARC
  5
29E
330
1F
100
AcDbEntity
  8
0
  6
Continuous
 62
     7
370
    25
100
AcDbCircle
 10
541.8068445458
 20
822.6457783435
 30
0.0
 40
2.000000000000094
100
AcDbArc
 50
194.4775121858
 51
345.5224878144
  0
ARC
  5
29F
330
1F
100
AcDbEntity
  8
0
  6
Continuous
 62
     7
370
    25
100
AcDbCircle
 10
708.8068445458
 20
822.6457783435
 30
0.0
 40
3.249999999995849
100
AcDbArc
 50
188.8498830984
 51
351.1501169015
  0
ARC
  5
2A0
330
1F
100
AcDbEntity
  8
0
  6
Continuous
 62
     7
370
    25
100
AcDbCircle
 10
724.8068445458
 20
822.6457783435
 30
0.0
 40
3.000000000000155
100
AcDbArc
 50
189.5940682268
 51
350.4059317733
  0
ARC
  5
2A1
330
1F
100
AcDbEntity
  8
0
  6
Continuous
 62
     7
370
    25
100
AcDbCircle
 10
848.8068445458
 20
822.6457783435
 30
0.0
 40
3.0
100
AcDbArc
 50
189.5940682269
 51
350.4059317731
  0
LINE
  5
2A2
330
1F
100
AcDbEntity
  8
0
  6
Continuous
 62
     7
370
    25
100
AcDbLine
 10
501.8068445458
 20
816.1457783435
 30
0.0
 11
501.8068445458
 21
822.1457783435
 31
0.0
  0
LINE
  5
2A3
330
1F
100
AcDbEntity
  8
0
  6
Continuous
 62
     7
370
    25
100
AcDbLine
 10
1171.8068445458
 20
822.1457783435
 30
0.0
 11
1171.8068445458
 21
816.1457783435
 31
0.0
  0
ARC
  5
2A4
330
1F
100
AcDbEntity
  8
0
  6
Continuous
 62
     7
370
    25
100
AcDbCircle
 10
1161.3068445458
 20
822.6457783435
 30
0.0
 40
2.000000000000227
100
AcDbArc
 50
345.5224878127
 51
0.0000000001
  0
LINE
  5
2A5
330
1F
100
AcDbEntity
  8
0
  6
Continuous
 62
     7
370
    25
100
AcDbLine
 10
1171.8068445458
 20
822.1457783435
 30
0.0
 11
1171.8068445458
 21
822.6457783435
 31
0.0
  0
ARC
  5
2A6
330
1F
100
AcDbEntity
  8
0
  6
Continuous
 62
     7
370
    25
100
AcDbCircle
 10
512.3068445458
 20
822.6457783435
 30
0.0
 40
2.000000000000114
100
AcDbArc
 50
165.5224878138
 51
179.9999999998
  0
LINE
  5
2A7
330
1F
100
AcDbEntity
  8
0
  6
Continuous
 62
     7
370
    25
100
AcDbLine
 10
501.8068445458
 20
823.1457783435
 30
0.0
 11
501.8068445458
 21
822.6457783435
 31
0.0
  0
LINE
  5
2A8
330
1F
100
AcDbEntity
  8
0
  6
Continuous
 62
     7
370
    25
100
AcDbLine
 10
1171.8068445458
 20
906.1457783435
 30
0.0
 11
501.8068445458
 21
906.1457783435
 31
0.0
  0
LINE
  5
2A9
330
1F
100
AcDbEntity
  8
0
  6
Continuous
 62
     7
370
    25
100
AcDbLine
 10
1171.8068445458
 20
905.1457783435
 30
0.0
 11
1171.8068445458
 21
906.1457783435
 31
0.0
  0
LINE
  5
2AA
330
1F
100
AcDbEntity
  8
0
  6
Continuous
 62
     7
370
    25
100
AcDbLine
 10
501.8068445458
 20
906.1457783435
 30
0.0
 11
501.8068445458
 21
905.1457783435
 31
0.0
  0
LINE
  5
2AB
330
1F
100
AcDbEntity
  8
0
  6
Continuous
 62
     7
370
    25
100
AcDbLine
 10
501.8068445458
 20
815.1457783435
 30
0.0
 11
1171.8068445458
 21
815.1457783435
 31
0.0
  0
LINE
  5
2AC
330
1F
100
AcDbEntity
  8
0
  6
Continuous
 62
     7
370
    25
100
AcDbLine
 10
501.8068445458
 20
816.1457783435
 30
0.0
 11
501.8068445458
 21
815.1457783435
 31
0.0
  0
LINE
  5
2AD
330
1F
100
AcDbEntity
  8
0
  6
Continuous
 62
     7
370
    25
100
AcDbLine
 10
1171.8068445458
 20
815.1457783435
 30
0.0
 11
1171.8068445458
 21
816.1457783435
 31
0.0
  0
ARC
  5
2AE
330
1F
100
AcDbEntity
  8
0
  6
Continuous
 62
     7
370
    25
100
AcDbCircle
 10
1161.3068445458
 20
898.6457783435
 30
0.0
 40
2.000000000000007
100
AcDbArc
 50
165.5224878124
 51
179.9999999991
  0
ARC
  5
2AF
330
1F
100
AcDbEntity
  8
0
  6
Continuous
 62
     7
370
    25
100
AcDbCircle
 10
1141.8068445458
 20
898.6457783435
 30
0.0
 40
3.25
100
AcDbArc
 50
0.0000000005
 51
8.8498831004
  0
ARC
  5
2B0
330
1F
100
AcDbEntity
  8
0
  6
Continuous
 62
     7
370
    25
100
AcDbCircle
 10
541.8068445458
 20
898.6457783435
 30
0.0
 40
2.000000000000657
100
AcDbArc
 50
0.0
 51
14.4775121877
  0
ARC
  5
2B1
330
1F
100
AcDbEntity
  8
0
  6
Continuous
 62
     7
370
    25
100
AcDbCircle
 10
708.8068445458
 20
898.6457783435
 30
0.0
 40
3.249999999996044
100
AcDbArc
 50
171.1501169005
 51
180.0
  0
ARC
  5
2B2
330
1F
100
AcDbEntity
  8
0
  6
Continuous
 62
     7
370
    25
100
AcDbCircle
 10
724.8068445458
 20
898.6457783435
 30
0.0
 40
3.000000000000308
100
AcDbArc
 50
0.0000000001
 51
9.594068228
  0
ARC
  5
2B3
330
1F
100
AcDbEntity
  8
0
  6
Continuous
 62
     7
370
    25
100
AcDbCircle
 10
848.8068445458
 20
898.6457783435
 30
0.0
 40
3.000000000000284
100
AcDbArc
 50
170.4059317722
 51
180.0000000001
  0
ARC
  5
2B4
330
1F
100
AcDbEntity
  8
0
  6
Continuous
 62
     7
370
    25
100
AcDbCircle
 10
1141.8068445458
 20
898.6457783435
 30
0.0
 40
3.250000000000348
100
AcDbArc
 50
171.1501169005
 51
179.9999999999
  0
ARC
  5
2B5
330
1F
100
AcDbEntity
  8
0
  6
Continuous
 62
     7
370
    25
100
AcDbCircle
 10
915.8068445458
 20
898.6457783435
 30
0.0
 40
3.249999999996145
100
AcDbArc
 50
359.9999999999
 51
8.8498830993
  0
ARC
  5
2B6
330
1F
100
AcDbEntity
  8
0
  6
Continuous
 62
     7
370
    25
100
AcDbCircle
 10
724.8068445458
 20
898.6457783435
 30
0.0
 40
3.000000000000097
100
AcDbArc
 50
170.4059317719
 51
179.9999999999
  0
ARC
  5
2B7
330
1F
100
AcDbEntity
  8
0
  6
Continuous
 62
     7
370
    25
100
AcDbCircle
 10
708.8068445458
 20
898.6457783435
 30
0.0
 40
3.249999999995907
100
AcDbArc
 50
359.9999999999
 51
8.8498830994
  0
ARC
  5
2B8
330
1F
100
AcDbEntity
  8
0
  6
Continuous
 62
     7
370
    25
100
AcDbCircle
 10
848.8068445458
 20
898.6457783435
 30
0.0
 40
3.00000000000062
100
AcDbArc
 50
360.0
 51
9.5940682278
  0
ARC
  5
2B9
330
1F
100
AcDbEntity
  8
0
  6
Continuous
 62
     7
370
    25
100
AcDbCircle
 10
915.8068445458
 20
898.6457783435
 30
0.0
 40
3.249999999996021
100
AcDbArc
 50
171.1501169007
 51
180.0000000001
  0
ARC
  5
2BA
330
1F
100
AcDbEntity
  8
0
  6
Continuous
 62
     7
370
    25
100
AcDbCircle
 10
512.3068445458
 20
898.6457783435
 30
0.0
 40
2.0
100
AcDbArc
 50
359.9999999999
 51
14.4775121876
  0
ARC
  5
2BB
330
1F
100
AcDbEntity
  8
0
  6
Continuous
 62
     7
370
    25
100
AcDbCircle
 10
541.8068445458
 20
898.6457783435
 30
0.0
 40
2.00000000000012
100
AcDbArc
 50
165.5224878124
 51
180.0000000001
  0
ARC
  5
2BC
330
1F
100
AcDbEntity
  8
0
  6
Continuous
 62
     7
370
    25
100
AcDbCircle
 10
1141.8068445458
 20
822.6457783435
 30
0.0
 40
3.25000000000022
100
AcDbArc
 50
351.1501169017
 51
0.0000000002
  0
ARC
  5
2BD
330
1F
100
AcDbEntity
  8
0
  6
Continuous
 62
     7
370
    25
100
AcDbCircle
 10
1161.3068445458
 20
822.6457783435
 30
0.0
 40
2.0
100
AcDbArc
 50
179.9999999997
 51
194.4775121873
  0
ARC
  5
2BE
330
1F
100
AcDbEntity
  8
0
  6
Continuous
 62
     7
370
    25
100
AcDbCircle
 10
848.8068445458
 20
822.6457783435
 30
0.0
 40
3.000000000000114
100
AcDbArc
 50
0.0
 51
9.5940682269
  0
ARC
  5
2BF
330
1F
100
AcDbEntity
  8
0
  6
Continuous
 62
     7
370
    25
100
AcDbCircle
 10
915.8068445458
 20
822.6457783435
 30
0.0
 40
3.249999999996021
100
AcDbArc
 50
171.1501169015
 51
180.0
  0
ARC
  5
2C0
330
1F
100
AcDbEntity
  8
0
  6
Continuous
 62
     7
370
    25
100
AcDbCircle
 10
541.8068445458
 20
822.6457783435
 30
0.0
 40
2.000000000000103
100
AcDbArc
 50
0.0000000001
 51
14.4775121861
  0
ARC
  5
2C1
330
1F
100
AcDbEntity
  8
0
  6
Continuous
 62
     7
370
    25
100
AcDbCircle
 10
708.8068445458
 20
822.6457783435
 30
0.0
 40
3.24999999999621
100
AcDbArc
 50
171.1501169016
 51
180.0000000001
  0
ARC
  5
2C2
330
1F
100
AcDbEntity
  8
0
  6
Continuous
 62
     7
370
    25
100
AcDbCircle
 10
1141.8068445458
 20
822.6457783435
 30
0.0
 40
3.25
100
AcDbArc
 50
171.1501169013
 51
179.9999999998
  0
ARC
  5
2C3
330
1F
100
AcDbEntity
  8
0
  6
Continuous
 62
     7
370
    25
100
AcDbCircle
 10
915.8068445458
 20
822.6457783435
 30
0.0
 40
3.249999999996021
100
AcDbArc
 50
360.0
 51
8.8498830985
  0
ARC
  5
2C4
330
1F
100
AcDbEntity
  8
0
  6
Continuous
 62
     7
370
    25
100
AcDbCircle
 10
708.8068445458
 20
822.6457783435
 30
0.0
 40
3.24999999999621
100
AcDbArc
 50
359.9999999999
 51
8.8498830984
  0
ARC
  5
2C5
330
1F
100
AcDbEntity
  8
0
  6
Continuous
 62
     7
370
    25
100
AcDbCircle
 10
724.8068445458
 20
822.6457783435
 30
0.0
 40
3.000000000000677
100
AcDbArc
 50
170.4059317729
 51
180.0
  0
ARC
  5
2C6
330
1F
100
AcDbEntity
  8
0
  6
Continuous
 62
     7
370
    25
100
AcDbCircle
 10
848.8068445458
 20
822.6457783435
 30
0.0
 40
3.0
100
AcDbArc
 50
170.4059317731
 51
180.0
  0
ARC
  5
2C7
330
1F
100
AcDbEntity
  8
0
  6
Continuous
 62
     7
370
    25
100
AcDbCircle
 10
724.8068445458
 20
822.6457783435
 30
0.0
 40
2.999999999999886
100
AcDbArc
 50
0.0000000001
 51
9.5940682272
  0
ARC
  5
2C8
330
1F
100
AcDbEntity
  8
0
  6
Continuous
 62
     7
370
    25
100
AcDbCircle
 10
1141.8068445458
 20
822.6457783435
 30
0.0
 40
3.250000000000144
100
AcDbArc
 50
0.0000000002
 51
8.8498830987
  0
ARC
  5
2C9
330
1F
100
AcDbEntity
  8
0
  6
Continuous
 62
     7
370
    25
100
AcDbCircle
 10
1161.3068445458
 20
822.6457783435
 30
0.0
 40
2.0
100
AcDbArc
 50
165.5224878136
 51
179.9999999997
  0
ARC
  5
2CA
330
1F
100
AcDbEntity
  8
0
  6
Continuous
 62
     7
370
    25
100
AcDbCircle
 10
848.8068445458
 20
898.6457783435
 30
0.0
 40
3.000000000000114
100
AcDbArc
 50
350.4059317731
 51
360.0
  0
ARC
  5
2CB
330
1F
100
AcDbEntity
  8
0
  6
Continuous
 62
     7
370
    25
100
AcDbCircle
 10
915.8068445458
 20
898.6457783435
 30
0.0
 40
3.249999999996223
100
AcDbArc
 50
180.0000000001
 51
188.8498830985
  0
ARC
  5
2CC
330
1F
100
AcDbEntity
  8
0
  6
Continuous
 62
     7
370
    25
100
AcDbCircle
 10
724.8068445458
 20
898.6457783435
 30
0.0
 40
3.000000000000012
100
AcDbArc
 50
179.9999999999
 51
189.5940682267
  0
ARC
  5
2CD
330
1F
100
AcDbEntity
  8
0
  6
Continuous
 62
     7
370
    25
100
AcDbCircle
 10
708.8068445458
 20
898.6457783435
 30
0.0
 40
3.249999999996136
100
AcDbArc
 50
351.1501169015
 51
359.9999999999
  0
LINE
  5
2CE
330
1F
100
AcDbEntity
  8
0
  6
Continuous
 62
     7
370
    25
100
AcDbLine
 10
501.8068445458
 20
833.1457783435
 30
0.0
 11
501.8068445458
 21
832.8457783435
 31
0.0
  0
LINE
  5
2CF
330
1F
100
AcDbEntity
  8
0
  6
Continuous
 62
     7
370
    25
100
AcDbLine
 10
1171.8068445458
 20
832.8457783435
 30
0.0
 11
1171.8068445458
 21
833.1457783435
 31
0.0
  0
ARC
  5
2D0
330
1F
100
AcDbEntity
  8
0
  6
Continuous
 62
     7
370
    25
100
AcDbCircle
 10
724.8068445458
 20
898.6457783435
 30
0.0
 40
3.000000000000012
100
AcDbArc
 50
350.4059317733
 51
0.0000000001
  0
ARC
  5
2D1
330
1F
100
AcDbEntity
  8
0
  6
Continuous
 62
     7
370
    25
100
AcDbCircle
 10
848.8068445458
 20
898.6457783435
 30
0.0
 40
2.999999999999924
100
AcDbArc
 50
180.0000000001
 51
189.5940682269
  0
ARC
  5
2D2
330
1F
100
AcDbEntity
  8
0
  6
Continuous
 62
     7
370
    25
100
AcDbCircle
 10
541.8068445458
 20
898.6457783435
 30
0.0
 40
2.0
100
AcDbArc
 50
345.5224878141
 51
0.0
  0
ARC
  5
2D3
330
1F
100
AcDbEntity
  8
0
  6
Continuous
 62
     7
370
    25
100
AcDbCircle
 10
708.8068445458
 20
898.6457783435
 30
0.0
 40
3.249999999996136
100
AcDbArc
 50
180.0
 51
188.8498830985
  0
ARC
  5
2D4
330
1F
100
AcDbEntity
  8
0
  6
Continuous
 62
     7
370
    25
100
AcDbCircle
 10
1141.8068445458
 20
898.6457783435
 30
0.0
 40
3.25000000000022
100
AcDbArc
 50
179.9999999999
 51
188.8498830983
  0
ARC
  5
2D5
330
1F
100
AcDbEntity
  8
0
  6
Continuous
 62
     7
370
    25
100
AcDbCircle
 10
915.8068445458
 20
898.6457783435
 30
0.0
 40
3.249999999996223
100
AcDbArc
 50
351.1501169015
 51
359.9999999999
  0
ARC
  5
2D6
330
1F
100
AcDbEntity
  8
0
  6
Continuous
 62
     7
370
    25
100
AcDbCircle
 10
1161.3068445458
 20
898.6457783435
 30
0.0
 40
2.000000000000119
100
AcDbArc
 50
179.9999999991
 51
194.4775121856
  0
ARC
  5
2D7
330
1F
100
AcDbEntity
  8
0
  6
Continuous
 62
     7
370
    25
100
AcDbCircle
 10
1141.8068445458
 20
898.6457783435
 30
0.0
 40
3.25
100
AcDbArc
 50
351.1501169017
 51
0.0000000005
  0
ARC
  5
2D8
330
1F
100
AcDbEntity
  8
0
  6
Continuous
 62
     7
370
    25
100
AcDbCircle
 10
512.3068445458
 20
898.6457783435
 30
0.0
 40
2.0
100
AcDbArc
 50
345.5224878139
 51
359.9999999999
  0
ARC
  5
2D9
330
1F
100
AcDbEntity
  8
0
  6
Continuous
 62
     7
370
    25
100
AcDbCircle
 10
541.8068445458
 20
898.6457783435
 30
0.0
 40
2.0
100
AcDbArc
 50
180.0000000001
 51
194.4775121861
  0
ARC
  5
2DA
330
1F
100
AcDbEntity
  8
0
  6
Continuous
 62
     7
370
    25
100
AcDbCircle
 10
541.8068445458
 20
822.6457783435
 30
0.0
 40
2.000000000000008
100
AcDbArc
 50
345.5224878144
 51
0.0000000001
  0
ARC
  5
2DB
330
1F
100
AcDbEntity
  8
0
  6
Continuous
 62
     7
370
    25
100
AcDbCircle
 10
708.8068445458
 20
822.6457783435
 30
0.0
 40
3.249999999995953
100
AcDbArc
 50
180.0000000001
 51
188.8498830985
  0
ARC
  5
2DC
330
1F
100
AcDbEntity
  8
0
  6
Continuous
 62
     7
370
    25
100
AcDbCircle
 10
541.8068445458
 20
822.6457783435
 30
0.0
 40
2.0
100
AcDbArc
 50
179.9999999998
 51
194.4775121858
  0
ARC
  5
2DD
330
1F
100
AcDbEntity
  8
0
  6
Continuous
 62
     7
370
    25
100
AcDbCircle
 10
512.3068445458
 20
822.6457783435
 30
0.0
 40
1.999999999999886
100
AcDbArc
 50
345.5224878142
 51
0.0000000002
  0
ARC
  5
2DE
330
1F
100
AcDbEntity
  8
0
  6
Continuous
 62
     7
370
    25
100
AcDbCircle
 10
1141.8068445458
 20
822.6457783435
 30
0.0
 40
3.25
100
AcDbArc
 50
179.9999999998
 51
188.8498830983
  0
ARC
  5
2DF
330
1F
100
AcDbEntity
  8
0
  6
Continuous
 62
     7
370
    25
100
AcDbCircle
 10
915.8068445458
 20
822.6457783435
 30
0.0
 40
3.249999999996083
100
AcDbArc
 50
351.1501169015
 51
360.0
  0
ARC
  5
2E0
330
1F
100
AcDbEntity
  8
0
  6
Continuous
 62
     7
370
    25
100
AcDbCircle
 10
848.8068445458
 20
822.6457783435
 30
0.0
 40
3.0
100
AcDbArc
 50
180.0
 51
189.5940682269
  0
ARC
  5
2E1
330
1F
100
AcDbEntity
  8
0
  6
Continuous
 62
     7
370
    25
100
AcDbCircle
 10
724.8068445458
 20
822.6457783435
 30
0.0
 40
2.999999999999886
100
AcDbArc
 50
350.4059317733
 51
0.0000000001
  0
ARC
  5
2E2
330
1F
100
AcDbEntity
  8
0
  6
Continuous
 62
     7
370
    25
100
AcDbCircle
 10
541.8068445458
 20
822.6457783435
 30
0.0
 40
2.000000000000032
100
AcDbArc
 50
165.5224878138
 51
179.9999999998
  0
ARC
  5
2E3
330
1F
100
AcDbEntity
  8
0
  6
Continuous
 62
     7
370
    25
100
AcDbCircle
 10
512.3068445458
 20
822.6457783435
 30
0.0
 40
2.000000000000032
100
AcDbArc
 50
0.0000000002
 51
14.4775121862
  0
ARC
  5
2E4
330
1F
100
AcDbEntity
  8
0
  6
Continuous
 62
     7
370
    25
100
AcDbCircle
 10
848.8068445458
 20
822.6457783435
 30
0.0
 40
3.000000000000114
100
AcDbArc
 50
350.4059317731
 51
0.0
  0
ARC
  5
2E5
330
1F
100
AcDbEntity
  8
0
  6
Continuous
 62
     7
370
    25
100
AcDbCircle
 10
915.8068445458
 20
822.6457783435
 30
0.0
 40
3.249999999996083
100
AcDbArc
 50
180.0
 51
188.8498830985
  0
ARC
  5
2E6
330
1F
100
AcDbEntity
  8
0
  6
Continuous
 62
     7
370
    25
100
AcDbCircle
 10
708.8068445458
 20
822.6457783435
 30
0.0
 40
3.249999999995954
100
AcDbArc
 50
351.1501169015
 51
359.9999999999
  0
ARC
  5
2E7
330
1F
100
AcDbEntity
  8
0
  6
Continuous
 62
     7
370
    25
100
AcDbCircle
 10
724.8068445458
 20
822.6457783435
 30
0.0
 40
3.000000000000118
100
AcDbArc
 50
180.0
 51
189.5940682268
  0
ARC
  5
2E8
330
1F
100
AcDbEntity
  8
0
  6
Continuous
 62
     7
370
    25
100
AcDbCircle
 10
524.8068445458
 20
879.1457783435
 30
0.0
 40
5.000000000004889
100
AcDbArc
 50
0.0000000002
 51
90.0
  0
LINE
  5
2E9
330
1F
100
AcDbEntity
  8
0
  6
Continuous
 62
     7
370
    25
100
AcDbLine
 10
501.8068445458
 20
884.1457783435
 30
0.0
 11
524.8068445458
 21
884.1457783435
 31
0.0
  0
LINE
  5
2EA
330
1F
100
AcDbEntity
  8
0
  6
Continuous
 62
     7
370
    25
100
AcDbLine
 10
1148.8068445458
 20
884.1457783435
 30
0.0
 11
1171.8068445458
 21
884.1457783435
 31
0.0
  0
ARC
  5
2EB
330
1F
100
AcDbEntity
  8
0
  6
Continuous
 62
     7
370
    25
100
AcDbCircle
 10
1148.8068445458
 20
879.1457783435
 30
0.0
 40
4.999999999999773
100
AcDbArc
 50
90.0
 51
180.0000000001
  0
LINE
  5
2EC
330
1F
100
AcDbEntity
  8
0
  6
Continuous
 62
     7
370
    25
100
AcDbLine
 10
1143.8068445458
 20
879.1457783435
 30
0.0
 11
1143.8068445458
 21
873.3419307662
 31
0.0
  0
LINE
  5
2ED
330
1F
100
AcDbEntity
  8
0
  6
Continuous
 62
     7
370
    25
100
AcDbLine
 10
529.8068445458
 20
873.3419307662
 30
0.0
 11
529.8068445458
 21
879.1457783435
 31
0.0
  0
LINE
  5
2EE
330
1F
100
AcDbEntity
  8
0
  6
Continuous
 62
     7
370
    25
100
AcDbLine
 10
1171.8068445458
 20
884.1457783435
 30
0.0
 11
1171.8068445458
 21
886.1457783435
 31
0.0
  0
LINE
  5
2EF
330
1F
100
AcDbEntity
  8
0
  6
Continuous
 62
     7
370
    25
100
AcDbLine
 10
501.8068445458
 20
886.1457783435
 30
0.0
 11
501.8068445458
 21
884.1457783435
 31
0.0
  0
LINE
  5
2F0
330
1F
100
AcDbEntity
  8
0
  6
Continuous
 62
     7
370
    25
100
AcDbLine
 10
529.8068445458
 20
869.0118037473
 30
0.0
 11
529.8068445458
 21
873.3419307662
 31
0.0
  0
LINE
  5
2F1
330
1F
100
AcDbEntity
  8
0
  6
Continuous
 62
     7
370
    25
100
AcDbLine
 10
1143.8068445458
 20
873.3419307662
 30
0.0
 11
1143.8068445458
 21
869.0118037473
 31
0.0
  0
LINE
  5
2F2
330
1F
100
AcDbEntity
  8
0
  6
Continuous
 62
     7
370
    25
100
AcDbLine
 10
529.8068445458
 20
866.5580651032
 30
0.0
 11
529.8068445458
 21
869.0118037473
 31
0.0
  0
LINE
  5
2F3
330
1F
100
AcDbEntity
  8
0
  6
Continuous
 62
     7
370
    25
100
AcDbLine
 10
1143.8068445458
 20
869.0118037473
 30
0.0
 11
1143.8068445458
 21
866.5580651032
 31
0.0
  0
LINE
  5
2F4
330
1F
100
AcDbEntity
  8
0
  6
Continuous
 62
     7
370
    25
100
AcDbLine
 10
529.8068445458
 20
865.2590269976
 30
0.0
 11
529.8068445458
 21
866.5580651032
 31
0.0
  0
LINE
  5
2F5
330
1F
100
AcDbEntity
  8
0
  6
Continuous
 62
     7
370
    25
100
AcDbLine
 10
1143.8068445458
 20
866.5580651032
 30
0.0
 11
1143.8068445458
 21
865.2590269976
 31
0.0
  0
LINE
  5
2F6
330
1F
100
AcDbEntity
  8
0
  6
Continuous
 62
     7
370
    25
100
AcDbLine
 10
501.8068445458
 20
837.1457783435
 30
0.0
 11
524.8068445458
 21
837.1457783435
 31
0.0
  0
ARC
  5
2F7
330
1F
100
AcDbEntity
  8
0
  6
Continuous
 62
     7
370
    25
100
AcDbCircle
 10
524.8068445458
 20
842.1457783435
 30
0.0
 40
5.0
100
AcDbArc
 50
270.0
 51
359.9999999999
  0
ARC
  5
2F8
330
1F
100
AcDbEntity
  8
0
  6
Continuous
 62
     7
370
    25
100
AcDbCircle
 10
1148.8068445458
 20
842.1457783435
 30
0.0
 40
5.000000000010914
100
AcDbArc
 50
180.0000000003
 51
270.0
  0
LINE
  5
2F9
330
1F
100
AcDbEntity
  8
0
  6
Continuous
 62
     7
370
    25
100
AcDbLine
 10
1148.8068445458
 20
837.1457783435
 30
0.0
 11
1171.8068445458
 21
837.1457783435
 31
0.0
  0
LINE
  5
2FA
330
1F
100
AcDbEntity
  8
0
  6
Continuous
 62
     7
370
    25
100
AcDbLine
 10
529.8068445458
 20
842.1457783435
 30
0.0
 11
529.8068445458
 21
865.2590269976
 31
0.0
  0
LINE
  5
2FB
330
1F
100
AcDbEntity
  8
0
  6
Continuous
 62
     7
370
    25
100
AcDbLine
 10
1143.8068445458
 20
865.2590269976
 30
0.0
 11
1143.8068445458
 21
842.1457783435
 31
0.0
  0
LINE
  5
2FC
330
1F
100
AcDbEntity
  8
0
  6
Continuous
 62
     7
370
    25
100
AcDbLine
 10
501.8068445458
 20
833.1457783435
 30
0.0
 11
501.8068445458
 21
837.1457783435
 31
0.0
  0
LINE
  5
2FD
330
1F
100
AcDbEntity
  8
0
  6
Continuous
 62
     7
370
    25
100
AcDbLine
 10
1171.8068445458
 20
837.1457783435
 30
0.0
 11
1171.8068445458
 21
833.1457783435
 31
0.0
  0
LINE
  5
2FE
330
1F
100
AcDbEntity
  8
0
  6
Continuous
 62
     7
370
    25
100
AcDbLine
 10
501.5111224881
 20
586.6457783439
 30
0.0
 11
501.5111224881
 21
546.6457783439
 31
0.0
  0
LINE
  5
2FF
330
1F
100
AcDbEntity
  8
0
  6
Continuous
 62
     7
370
    25
100
AcDbLine
 10
505.5545716307
 20
586.6457783439
 30
0.0
 11
505.5545716307
 21
546.6457783439
 31
0.0
  0
LINE
  5
300
330
1F
100
AcDbEntity
  8
0
  6
Continuous
 62
     7
370
    25
100
AcDbLine
 10
505.5545716307
 20
546.6457783439
 30
0.0
 11
501.7988444404
 21
546.6457783439
 31
0.0
  0
LINE
  5
301
330
1F
100
AcDbEntity
  8
0
  6
Continuous
 62
     7
370
    25
100
AcDbLine
 10
505.5545716307
 20
586.6457783439
 30
0.0
 11
501.7988444404
 21
586.6457783439
 31
0.0
  0
LINE
  5
302
330
1F
100
AcDbEntity
  8
0
  6
Continuous
 62
     7
370
    25
100
AcDbLine
 10
523.8068445458
 20
586.6457783439
 30
0.0
 11
523.8068445458
 21
546.6457783439
 31
0.0
  0
LINE
  5
303
330
1F
100
AcDbEntity
  8
0
  6
Continuous
 62
     7
370
    25
100
AcDbLine
 10
523.8068445458
 20
546.6457783439
 30
0.0
 11
505.5545716307
 21
546.6457783439
 31
0.0
  0
LINE
  5
304
330
1F
100
AcDbEntity
  8
0
  6
Continuous
 62
     7
370
    25
100
AcDbLine
 10
523.8068445458
 20
586.6457783439
 30
0.0
 11
505.5545716307
 21
586.6457783439
 31
0.0
  0
LINE
  5
305
330
1F
100
AcDbEntity
  8
0
  6
Continuous
 62
     7
370
    25
100
AcDbLine
 10
1486.8068445458
 20
446.6457783439
 30
0.0
 11
496.8068445458
 21
446.6457783439
 31
0.0
  0
LINE
  5
306
330
1F
100
AcDbEntity
  8
0
  6
Continuous
 62
     7
370
    25
100
AcDbLine
 10
496.8068445458
 20
446.6457783439
 30
0.0
 11
496.8068445458
 21
516.6457783439
 31
0.0
  0
LINE
  5
307
330
1F
100
AcDbEntity
  8
0
  6
Continuous
 62
     7
370
    25
100
AcDbLine
 10
496.8068445458
 20
616.6457783439
 30
0.0
 11
496.8068445458
 21
766.6457783439
 31
0.0
  0
LINE
  5
308
330
1F
100
AcDbEntity
  8
0
  6
Continuous
 62
     7
370
    25
100
AcDbLine
 10
496.8068445458
 20
766.6457783439
 30
0.0
 11
1486.8068445458
 21
766.6457783439
 31
0.0
  0
LINE
  5
309
330
1F
100
AcDbEntity
  8
0
  6
Continuous
 62
     7
370
    25
100
AcDbLine
 10
1486.8068445458
 20
766.6457783439
 30
0.0
 11
1486.8068445458
 21
446.6457783439
 31
0.0
  0
CIRCLE
  5
30A
330
1F
100
AcDbEntity
  8
0
  6
Continuous
 62
     7
370
    25
100
AcDbCircle
 10
1213.8068445458
 20
731.3957783439
 30
0.0
 40
3.249999999999773
  0
CIRCLE
  5
30B
330
1F
100
AcDbEntity
  8
0
  6
Continuous
 62
     7
370
    25
100
AcDbCircle
 10
580.8068445458
 20
731.3957783439
 30
0.0
 40
3.249999999999886
  0
LINE
  5
30C
330
1F
100
AcDbEntity
  8
0
  6
Continuous
 62
     7
370
    25
100
AcDbLine
 10
481.8222888702
 20
546.6457783439
 30
0.0
 11
481.8222888702
 21
516.6457783439
 31
0.0
  0
LINE
  5
30D
330
1F
100
AcDbEntity
  8
0
  6
Continuous
 62
     7
370
    25
100
AcDbLine
 10
501.7988444404
 20
546.6457783439
 30
0.0
 11
481.8222888702
 21
546.6457783439
 31
0.0
  0
LINE
  5
30E
330
1F
100
AcDbEntity
  8
0
  6
Continuous
 62
     7
370
    25
100
AcDbLine
 10
503.8368445458
 20
516.6457783439
 30
0.0
 11
481.8222888702
 21
516.6457783439
 31
0.0
  0
LINE
  5
30F
330
1F
100
AcDbEntity
  8
0
  6
Continuous
 62
     7
370
    25
100
AcDbLine
 10
481.8222888702
 20
616.6457783439
 30
0.0
 11
481.8222888702
 21
586.6457783439
 31
0.0
  0
LINE
  5
310
330
1F
100
AcDbEntity
  8
0
  6
Continuous
 62
     7
370
    25
100
AcDbLine
 10
501.7988444404
 20
586.6457783439
 30
0.0
 11
481.8222888702
 21
586.6457783439
 31
0.0
  0
LINE
  5
311
330
1F
100
AcDbEntity
  8
0
  6
Continuous
 62
     7
370
    25
100
AcDbLine
 10
503.8368445458
 20
616.6457783439
 30
0.0
 11
481.8222888702
 21
616.6457783439
 31
0.0
  0
LINE
  5
312
330
1F
100
AcDbEntity
  8
0
  6
Continuous
 62
     7
370
    25
100
AcDbLine
 10
478.0568445458
 20
546.6457783439
 30
0.0
 11
478.0568445458
 21
516.6457783439
 31
0.0
  0
LINE
  5
313
330
1F
100
AcDbEntity
  8
0
  6
Continuous
 62
     7
370
    25
100
AcDbLine
 10
481.8222888702
 20
516.6457783439
 30
0.0
 11
478.0568445458
 21
516.6457783439
 31
0.0
  0
LINE
  5
314
330
1F
100
AcDbEntity
  8
0
  6
Continuous
 62
     7
370
    25
100
AcDbLine
 10
481.8222888702
 20
546.6457783439
 30
0.0
 11
478.0568445458
 21
546.6457783439
 31
0.0
  0
LINE
  5
315
330
1F
100
AcDbEntity
  8
0
  6
Continuous
 62
     7
370
    25
100
AcDbLine
 10
478.0568445458
 20
616.6457783439
 30
0.0
 11
478.0568445458
 21
586.6457783439
 31
0.0
  0
LINE
  5
316
330
1F
100
AcDbEntity
  8
0
  6
Continuous
 62
     7
370
    25
100
AcDbLine
 10
481.8222888702
 20
586.6457783439
 30
0.0
 11
478.0568445458
 21
586.6457783439
 31
0.0
  0
LINE
  5
317
330
1F
100
AcDbEntity
  8
0
  6
Continuous
 62
     7
370
    25
100
AcDbLine
 10
481.8222888702
 20
616.6457783439
 30
0.0
 11
478.0568445458
 21
616.6457783439
 31
0.0
  0
LINE
  5
318
330
1F
100
AcDbEntity
  8
0
  6
Continuous
 62
     7
370
    25
100
AcDbLine
 10
459.8068445458
 20
546.6457783439
 30
0.0
 11
459.8068445458
 21
516.6457783439
 31
0.0
  0
LINE
  5
319
330
1F
100
AcDbEntity
  8
0
  6
Continuous
 62
     7
370
    25
100
AcDbLine
 10
478.0568445458
 20
516.6457783439
 30
0.0
 11
459.8068445458
 21
516.6457783439
 31
0.0
  0
LINE
  5
31A
330
1F
100
AcDbEntity
  8
0
  6
Continuous
 62
     7
370
    25
100
AcDbLine
 10
478.0568445458
 20
546.6457783439
 30
0.0
 11
459.8068445458
 21
546.6457783439
 31
0.0
  0
LINE
  5
31B
330
1F
100
AcDbEntity
  8
0
  6
Continuous
 62
     7
370
    25
100
AcDbLine
 10
459.8068445458
 20
616.6457783439
 30
0.0
 11
459.8068445458
 21
586.6457783439
 31
0.0
  0
LINE
  5
31C
330
1F
100
AcDbEntity
  8
0
  6
Continuous
 62
     7
370
    25
100
AcDbLine
 10
478.0568445458
 20
586.6457783439
 30
0.0
 11
459.8068445458
 21
586.6457783439
 31
0.0
  0
LINE
  5
31D
330
1F
100
AcDbEntity
  8
0
  6
Continuous
 62
     7
370
    25
100
AcDbLine
 10
478.0568445458
 20
616.6457783439
 30
0.0
 11
459.8068445458
 21
616.6457783439
 31
0.0
  0
LINE
  5
31E
330
1F
100
AcDbEntity
  8
0
  6
Continuous
 62
     7
370
    25
100
AcDbLine
 10
491.8068445458
 20
771.6457783439
 30
0.0
 11
491.8068445458
 21
616.6457783439
 31
0.0
  0
LINE
  5
31F
330
1F
100
AcDbEntity
  8
0
  6
Continuous
 62
     7
370
    25
100
AcDbLine
 10
491.8068445458
 20
516.6457783439
 30
0.0
 11
491.8068445458
 21
446.6457783439
 31
0.0
  0
LINE
  5
320
330
1F
100
AcDbEntity
  8
0
  6
Continuous
 62
     7
370
    25
100
AcDbLine
 10
1491.8068445458
 20
446.6457783439
 30
0.0
 11
1591.8068445458
 21
446.6457783439
 31
0.0
  0
CIRCLE
  5
321
330
1F
100
AcDbEntity
  8
0
  6
Continuous
 62
     7
370
    25
100
AcDbCircle
 10
515.8068445458
 20
872.6457783439
 30
0.0
 40
10.0
  0
LINE
  5
322
330
1F
100
AcDbEntity
  8
0
  6
Continuous
 62
     7
370
    25
100
AcDbLine
 10
1491.8068445458
 20
446.6457783439
 30
0.0
 11
1491.8068445458
 21
771.6457783439
 31
0.0
  0
LINE
  5
323
330
1F
100
AcDbEntity
  8
0
  6
Continuous
 62
     7
370
    25
100
AcDbLine
 10
1491.8068445458
 20
771.6457783439
 30
0.0
 11
491.8068445458
 21
771.6457783439
 31
0.0
  0
LINE
  5
324
330
1F
100
AcDbEntity
  8
0
  6
Continuous
 62
     7
370
    25
100
AcDbLine
 10
1591.8068445458
 20
946.6457783439
 30
0.0
 11
391.8068445458
 21
946.6457783439
 31
0.0
  0
LINE
  5
325
330
1F
100
AcDbEntity
  8
0
  6
Continuous
 62
     7
370
    25
100
AcDbLine
 10
1591.8068445458
 20
446.6457783439
 30
0.0
 11
1591.8068445458
 21
946.6457783439
 31
0.0
  0
CIRCLE
  5
326
330
1F
100
AcDbEntity
  8
0
  6
Continuous
 62
     7
370
    25
100
AcDbCircle
 10
1157.8068445458
 20
849.6457783439
 30
0.0
 40
10.0
  0
LINE
  5
327
330
1F
100
AcDbEntity
  8
0
  6
Continuous
 62
     7
370
    25
100
AcDbLine
 10
391.8068445458
 20
946.6457783439
 30
0.0
 11
391.8068445458
 21
446.6457783439
 31
0.0
  0
LINE
  5
328
330
1F
100
AcDbEntity
  8
0
  6
Continuous
 62
     7
370
    25
100
AcDbLine
 10
391.8068445458
 20
446.6457783439
 30
0.0
 11
491.8068445458
 21
446.6457783439
 31
0.0
  0
CIRCLE
  5
329
330
1F
100
AcDbEntity
  8
0
  6
Continuous
 62
     7
370
    25
100
AcDbCircle
 10
515.8068445458
 20
849.6457783439
 30
0.0
 40
10.0
  0
CIRCLE
  5
32A
330
1F
100
AcDbEntity
  8
0
  6
Continuous
 62
     7
370
    25
100
AcDbCircle
 10
1157.8068445458
 20
872.6457783439
 30
0.0
 40
10.0
  0
LINE
  5
32B
330
1F
100
AcDbEntity
  8
0
  6
Continuous
 62
     7
370
    25
100
AcDbLine
 10
1486.8068445458
 20
446.6457783439
 30
0.0
 11
1491.8068445458
 21
446.6457783439
 31
0.0
  0
LINE
  5
32C
330
1F
100
AcDbEntity
  8
0
  6
Continuous
 62
     7
370
    25
100
AcDbLine
 10
491.8068445458
 20
446.6457783439
 30
0.0
 11
496.8068445458
 21
446.6457783439
 31
0.0
  0
DIMENSION
  5
32D
330
1F
100
AcDbEntity
  8
FORMAT
100
AcDbDimension
  2
_D_5
 10
1212.5821448685
 20
815.1457783435
 30
0.0
 11
1212.5821448685
 21
860.6457783435
 31
0.0
 70
   160
  1
<>
 71
     2
 42
-1.0
  3
SLDDIMSTYLE0
100
AcDbAlignedDimension
 13
1171.8068445458
 23
906.1457783435
 33
0.0
 14
1171.8068445458
 24
815.1457783435
 34
0.0
 50
90.0
100
AcDbRotatedDimension
  0
DIMENSION
  5
337
330
1F
100
AcDbEntity
  8
FORMAT
100
AcDbDimension
  2
_D_6
 10
1261.1651545496
 20
766.6457783439
 30
0.0
 11
1261.1651545496
 21
681.170141703
 31
0.0
 70
   160
  1
<>
 71
     2
 42
-1.0
  3
SLDDIMSTYLE2
100
AcDbAlignedDimension
 13
1219.5568445458
 23
731.3957783439
 33
0.0
 14
1486.8068445458
 24
766.6457783439
 34
0.0
 50
90.0
100
AcDbRotatedDimension
  0
DIMENSION
  5
343
330
1F
100
AcDbEntity
  8
FORMAT
100
AcDbDimension
  2
_D_7
 10
580.8068445458
 20
599.6856771869
 30
0.0
 11
536.3068445458
 21
599.6856771869
 31
0.0
 70
   160
  1
<>
 71
     2
 42
-1.0
  3
SLDDIMSTYLE0
100
AcDbAlignedDimension
 13
491.8068445458
 23
625.9729803131
 33
0.0
 14
580.8068445458
 24
725.6457783439
 34
0.0
100
AcDbRotatedDimension
  0
DIMENSION
  5
34C
330
1F
100
AcDbEntity
  8
FORMAT
100
AcDbDimension
  2
_D_8
 10
1213.8068445458
 20
599.6856771869
 30
0.0
 11
897.3068445458
 21
599.6856771869
 31
0.0
 70
   160
  1
<>
 71
     2
 42
-1.0
  3
SLDDIMSTYLE0
100
AcDbAlignedDimension
 13
580.8068445458
 23
725.6457783439
 33
0.0
 14
1213.8068445458
 24
725.6457783439
 34
0.0
100
AcDbRotatedDimension
  0
DIMENSION
  5
356
330
1F
100
AcDbEntity
  8
FORMAT
100
AcDbDimension
  2
_D_9
 10
650.6937556873
 20
822.6457783435
 30
0.0
 11
650.6937556873
 21
722.1338408848
 31
0.0
 70
   160
  1
<>
 71
     2
 42
-1.0
  3
SLDDIMSTYLE1
100
AcDbAlignedDimension
 13
496.8068445458
 23
766.6457783439
 33
0.0
 14
703.0568445458
 24
822.6457783435
 34
0.0
 50
90.0
100
AcDbRotatedDimension
  0
DIMENSION
  5
361
330
1F
100
AcDbEntity
  8
FORMAT
100
AcDbDimension
  2
_D_10
 10
356.9774816063
 20
815.1457783435
 30
0.0
 11
356.9774816063
 21
702.8896828181
 31
0.0
 70
   160
  1
<>
 71
     2
 42
-1.0
  3
SLDDIMSTYLE2
100
AcDbAlignedDimension
 13
496.8068445458
 23
766.6457783439
 33
0.0
 14
501.8068445458
 24
815.1457783435
 34
0.0
 50
90.0
100
AcDbRotatedDimension
  0
DIMENSION
  5
36D
330
1F
100
AcDbEntity
  8
FORMAT
100
AcDbDimension
  2
_D_11
 10
313.8117579247
 20
849.6457783439
 30
0.0
 11
313.8117579247
 21
702.8896828181
 31
0.0
 70
   160
  1
<>
 71
     2
 42
-1.0
  3
SLDDIMSTYLE2
100
AcDbAlignedDimension
 13
501.8068445458
 23
815.1457783435
 33
0.0
 14
503.3068445458
 24
849.6457783439
 34
0.0
 50
90.0
100
AcDbRotatedDimension
  0
DIMENSION
  5
37A
330
1F
100
AcDbEntity
  8
FORMAT
100
AcDbDimension
  2
_D_12
 10
269.0109689521
 20
872.6457783439
 30
0.0
 11
269.0109689521
 21
702.8896828181
 31
0.0
 70
   160
  1
<>
 71
     2
 42
-1.0
  3
SLDDIMSTYLE1
100
AcDbAlignedDimension
 13
503.3068445458
 23
849.6457783439
 33
0.0
 14
503.3068445458
 24
872.6457783439
 34
0.0
 50
90.0
100
AcDbRotatedDimension
  0
DIMENSION
  5
388
330
1F
100
AcDbEntity
  8
FORMAT
100
AcDbDimension
  2
_D_13
 10
501.8068445458
 20
966.5676142425
 30
0.0
 11
439.4626652868
 21
966.5676142425
 31
0.0
 70
   160
  1
<>
 71
     2
 42
-1.0
  3
SLDDIMSTYLE1
100
AcDbAlignedDimension
 13
491.8068445458
 23
625.9729803131
 33
0.0
 14
501.8068445458
 24
833.1457783435
 34
0.0
100
AcDbRotatedDimension
  0
DIMENSION
  5
394
330
1F
100
AcDbEntity
  8
FORMAT
100
AcDbDimension
  2
_D_14
 10
515.8068445458
 20
1008.8375601916
 30
0.0
 11
439.4626652868
 21
1008.8375601916
 31
0.0
 70
   160
  1
<>
 71
     2
 42
-1.0
  3
SLDDIMSTYLE1
100
AcDbAlignedDimension
 13
491.8068445458
 23
625.9729803131
 33
0.0
 14
515.8068445458
 24
862.1457783439
 34
0.0
100
AcDbRotatedDimension
  0
DIMENSION
  5
3A0
330
1F
100
AcDbEntity
  8
FORMAT
100
AcDbDimension
  2
_D_15
 10
708.8068445458
 20
1038.6551486193
 30
0.0
 11
600.3068445458
 21
1038.6551486193
 31
0.0
 70
   160
  1
<>
 71
     2
 42
-1.0
  3
SLDDIMSTYLE0
100
AcDbAlignedDimension
 13
491.8068445458
 23
625.9729803131
 33
0.0
 14
708.8068445458
 24
904.3957783435
 34
0.0
100
AcDbRotatedDimension
  0
DIMENSION
  5
3AA
330
1F
100
AcDbEntity
  8
FORMAT
100
AcDbDimension
  2
_D_16
 10
915.8068445458
 20
1038.6551486193
 30
0.0
 11
812.3068445458
 21
1038.6551486193
 31
0.0
 70
   160
  1
<>
 71
     2
 42
-1.0
  3
SLDDIMSTYLE0
100
AcDbAlignedDimension
 13
708.8068445458
 23
904.3957783435
 33
0.0
 14
915.8068445458
 24
904.3957783435
 34
0.0
100
AcDbRotatedDimension
  0
DIMENSION
  5
3B4
330
1F
100
AcDbEntity
  8
FORMAT
100
AcDbDimension
  2
_D_17
 10
1141.8068445458
 20
1038.6551486193
 30
0.0
 11
1028.8068445458
 21
1038.6551486193
 31
0.0
 70
   160
  1
<>
 71
     2
 42
-1.0
  3
SLDDIMSTYLE0
100
AcDbAlignedDimension
 13
915.8068445458
 23
904.3957783435
 33
0.0
 14
1141.8068445458
 24
904.3957783435
 34
0.0
100
AcDbRotatedDimension
  0
DIMENSION
  5
3BE
330
1F
100
AcDbEntity
  8
FORMAT
100
AcDbDimension
  2
_D_18
 10
1157.8068445458
 20
1086.7573582678
 30
0.0
 11
824.8068445458
 21
1086.7573582678
 31
0.0
 70
   160
  1
<>
 71
     2
 42
-1.0
  3
SLDDIMSTYLE0
100
AcDbAlignedDimension
 13
491.8068445458
 23
625.9729803131
 33
0.0
 14
1157.8068445458
 24
862.1457783439
 34
0.0
100
AcDbRotatedDimension
  0
DIMENSION
  5
3C8
330
1F
100
AcDbEntity
  8
FORMAT
100
AcDbDimension
  2
_D_19
 10
1171.8068445458
 20
1131.9582630258
 30
0.0
 11
831.8068445458
 21
1131.9582630258
 31
0.0
 70
   160
  1
<>
 71
     2
 42
-1.0
  3
SLDDIMSTYLE0
100
AcDbAlignedDimension
 13
491.8068445458
 23
625.9729803131
 33
0.0
 14
1171.8068445458
 24
898.6457783435
 34
0.0
100
AcDbRotatedDimension
  0
MTEXT
  5
3D2
330
1F
100
AcDbEntity
  8
FORMAT
100
AcDbMText
 10
1341.8512615651
 20
855.1980805229
 30
0.0
 40
18.5208333333
 41
0.0
 71
     1
 72
     1
  1
Oberkante Türflügel
  7
SLDTEXTSTYLE0
 73
     1
 44
1.0
  0
LEADER
  5
3D4
330
1F
100
AcDbEntity
  8
FORMAT
100
AcDbLeader
  3
SLDDIMSTYLE3
 76
     3
 10
1293.8380409044
 20
766.6457783439
 30
0.0
 10
1293.6677703269
 20
845.7669229515
 30
0.0
 10
1338.1177703269
 20
845.7669229515
 30
0.0
  0
MTEXT
  5
3D5
330
1F
100
AcDbEntity
  8
FORMAT
100
AcDbMText
 10
1319.0580958081
 20
1011.2373904908
 30
0.0
 40
18.5208333333
 41
0.0
 71
     1
 72
     1
  1
ø20 (optional)
  7
SLDTEXTSTYLE0
 73
     1
 44
1.0
  0
LEADER
  5
3D6
330
1F
100
AcDbEntity
  8
FORMAT
100
AcDbLeader
  3
SLDDIMSTYLE3
 76
     3
 10
1166.1371138007
 20
878.1781028229
 30
0.0
 10
1270.7842833194
 20
1001.8440394645
 30
0.0
 10
1315.2342833194
 20
1001.8440394645
 30
0.0
  0
INSERT
  5
3DC
102
{ACAD_REACTORS
330
3DD
102
}
330
1F
100
AcDbEntity
  8
FORMAT
100
AcDbBlockReference
  2
SW_NOTE_0_5
 10
386.1983023769
 20
960.195277564
 30
0.0
  0
LEADER
  5
3DD
330
1F
100
AcDbEntity
  8
FORMAT
100
AcDbLeader
  3
SLDDIMSTYLE3
 73
     2
 76
     3
 10
506.7693185694
 20
876.9263302038
 30
0.0
 10
430.6483023769
 20
960.195277564
 30
0.0
 10
386.1983023769
 20
960.195277564
 30
0.0
340
3DC
  0
INSERT
  5
3E9
330
1F
100
AcDbEntity
  8
FORMAT
100
AcDbBlockReference
  2
SW_CENTERMARKSYMBOL_0
 10
708.8068445458
 20
898.6457783435
 30
0.0
  0
INSERT
  5
3F5
330
1F
100
AcDbEntity
  8
FORMAT
100
AcDbBlockReference
  2
SW_CENTERMARKSYMBOL_1
 10
915.8068445458
 20
898.6457783435
 30
0.0
  0
INSERT
  5
401
330
1F
100
AcDbEntity
  8
FORMAT
100
AcDbBlockReference
  2
SW_CENTERMARKSYMBOL_2
 10
1141.8068445458
 20
898.6457783435
 30
0.0
  0
INSERT
  5
40D
330
1F
100
AcDbEntity
  8
FORMAT
100
AcDbBlockReference
  2
SW_CENTERMARKSYMBOL_3
 10
580.8068445458
 20
731.3957783439
 30
0.0
  0
INSERT
  5
419
330
1F
100
AcDbEntity
  8
FORMAT
100
AcDbBlockReference
  2
SW_CENTERMARKSYMBOL_4
 10
1213.8068445458
 20
731.3957783439
 30
0.0
  0
INSERT
  5
425
330
1F
100
AcDbEntity
  8
FORMAT
100
AcDbBlockReference
  2
SW_CENTERMARKSYMBOL_5
 10
1157.8068445458
 20
849.6457783439
 30
0.0
  0
INSERT
  5
431
330
1F
100
AcDbEntity
  8
FORMAT
100
AcDbBlockReference
  2
SW_CENTERMARKSYMBOL_6
 10
1157.8068445458
 20
872.6457783439
 30
0.0
  0
INSERT
  5
43D
330
1F
100
AcDbEntity
  8
FORMAT
100
AcDbBlockReference
  2
SW_CENTERMARKSYMBOL_7
 10
515.8068445458
 20
849.6457783439
 30
0.0
  0
INSERT
  5
449
330
1F
100
AcDbEntity
  8
FORMAT
100
AcDbBlockReference
  2
SW_CENTERMARKSYMBOL_8
 10
515.8068445458
 20
872.6457783439
 30
0.0
  0
INSERT
  5
455
330
1F
100
AcDbEntity
  8
FORMAT
100
AcDbBlockReference
  2
SW_CENTERMARKSYMBOL_9
 10
708.8068445458
 20
822.6457783435
 30
0.0
  0
INSERT
  5
461
330
1F
100
AcDbEntity
  8
FORMAT
100
AcDbBlockReference
  2
SW_CENTERMARKSYMBOL_10
 10
915.8068445458
 20
822.6457783435
 30
0.0
  0
INSERT
  5
46D
330
1F
100
AcDbEntity
  8
FORMAT
100
AcDbBlockReference
  2
SW_CENTERMARKSYMBOL_11
 10
1141.8068445458
 20
822.6457783435
 30
0.0
  0
CIRCLE
  5
46E
330
1F
100
AcDbEntity
  8
0
  6
Continuous
 62
     7
370
    18
100
AcDbCircle
 10
715.7300546613
 20
860.6836101394
 30
0.0
 40
52.65833403209854
  0
MTEXT
  5
46F
330
1F
100
AcDbEntity
  8
0
  6
Continuous
 62
     7
370
    18
100
AcDbMText
 10
770.4686727197
 20
947.488507311
 30
0.0
 40
35.0
 41
0.0
 71
     1
 72
     1
  1
C
  7
SLDTEXTSTYLE0
 73
     1
 44
1.0
  0
LINE
  5
470
330
1F
100
AcDbEntity
  8
FORMAT
  6
CENTERX2
370
    18
100
AcDbLine
 10
491.8068445458
 20
625.9729803131
 30
0.0
 11
491.8068445458
 21
513.707945382
 31
0.0
  0
LINE
  5
471
330
1F
100
AcDbEntity
  8
0
  6
Continuous
 62
     7
370
    25
100
AcDbLine
 10
2379.9986328529
 20
1681.1542011739
 30
0.0
 11
2379.9986328529
 21
1700.9102171429
 31
0.0
  0
LINE
  5
472
330
1F
100
AcDbEntity
  8
0
  6
Continuous
 62
     7
370
    25
100
AcDbLine
 10
2349.9986328529
 20
1699.9102171429
 30
0.0
 11
2349.9986328529
 21
1681.1542011739
 31
0.0
  0
LINE
  5
473
330
1F
100
AcDbEntity
  8
0
  6
Continuous
 62
     7
370
    25
100
AcDbLine
 10
2311.2486328521
 20
1657.9102171429
 30
0.0
 11
2311.2486328521
 21
1627.9102171491
 31
0.0
  0
LINE
  5
474
330
1F
100
AcDbEntity
  8
0
  6
Continuous
 62
     7
370
    25
100
AcDbLine
 10
2325.2486328521
 20
1627.9102171491
 30
0.0
 11
2325.2486328521
 21
1657.9102171429
 31
0.0
  0
LINE
  5
475
330
1F
100
AcDbEntity
  8
0
  6
Continuous
 62
     7
370
    25
100
AcDbLine
 10
2323.2486328521
 20
1657.9102171429
 30
0.0
 11
2323.2486328521
 21
1658.4102171429
 31
0.0
  0
LINE
  5
476
330
1F
100
AcDbEntity
  8
0
  6
Continuous
 62
     7
370
    25
100
AcDbLine
 10
2313.2486328521
 20
1658.4102171429
 30
0.0
 11
2313.2486328521
 21
1657.9102171429
 31
0.0
  0
LINE
  5
477
330
1F
100
AcDbEntity
  8
0
  6
Continuous
 62
     7
370
    25
100
AcDbLine
 10
2349.998632853
 20
1679.210217143
 30
0.0
 11
2349.998632853
 21
1668.410217143
 31
0.0
  0
LINE
  5
478
330
1F
100
AcDbEntity
  8
0
  6
Continuous
 62
     7
370
    25
100
AcDbLine
 10
2379.9986328529
 20
1659.410217143
 30
0.0
 11
2379.9986328529
 21
1679.210217143
 31
0.0
  0
LINE
  5
479
330
1F
100
AcDbEntity
  8
0
  6
Continuous
 62
     7
370
    25
100
AcDbLine
 10
2378.9986328529
 20
1658.410217143
 30
0.0
 11
2379.9986328529
 21
1659.410217143
 31
0.0
  0
LINE
  5
47A
330
1F
100
AcDbEntity
  8
0
  6
Continuous
 62
     7
370
    25
100
AcDbLine
 10
2379.9986328529
 20
1679.210217143
 30
0.0
 11
2379.7986328529
 21
1679.410217143
 31
0.0
  0
LINE
  5
47B
330
1F
100
AcDbEntity
  8
0
  6
Continuous
 62
     7
370
    25
100
AcDbLine
 10
2350.198632853
 20
1679.410217143
 30
0.0
 11
2349.998632853
 21
1679.210217143
 31
0.0
  0
LWPOLYLINE
  5
47C
330
1F
100
AcDbEntity
  8
0
  6
Continuous
 62
     7
370
    25
100
AcDbPolyline
 90
       12
 70
   128
 43
0.0
 10
2356.4129233092
 20
1680.218198202
 10
2356.3029476736
 20
1679.9191515437
 10
2356.1183253253
 20
1679.6829389836
 10
2356.0073609275
 20
1679.5925857073
 10
2355.8935176818
 20
1679.5231910478
 10
2355.7871978634
 20
1679.4743424993
 10
2355.6986058982
 20
1679.4429059533
 10
2355.6374649238
 20
1679.4246194676
 10
2355.6130421624
 20
1679.4152814878
 10
2355.6338724672
 20
1679.4113802017
 10
2355.7067558291
 20
1679.4102911507
 10
2355.7923331548
 20
1679.4102416686
  0
LINE
  5
47D
330
1F
100
AcDbEntity
  8
0
  6
Continuous
 62
     7
370
    25
100
AcDbLine
 10
2356.5959141318
 20
1681.1542011739
 30
0.0
 11
2356.3997903657
 21
1680.1510250973
 31
0.0
  0
LWPOLYLINE
  5
47E
330
1F
100
AcDbEntity
  8
0
  6
Continuous
 62
     7
370
    25
100
AcDbPolyline
 90
        4
 70
   128
 43
0.0
 10
2375.2289267537
 20
1679.4102398787
 10
2375.2685353287
 20
1679.4102625637
 10
2375.2941648255
 20
1679.4113138876
 10
2375.2934362798
 20
1679.4114727522
  0
ARC
  5
47F
330
1F
100
AcDbEntity
  8
0
  6
Continuous
 62
     7
370
    25
100
AcDbCircle
 10
2375.4199479912
 20
1680.4213966018
 30
0.0
 40
1.016334646529521
100
AcDbArc
 50
192.6141786487
 51
261.8326251793
  0
LWPOLYLINE
  5
480
330
1F
100
AcDbEntity
  8
0
  6
Continuous
 62
     7
370
    25
100
AcDbPolyline
 90
        3
 70
   128
 43
0.0
 10
2349.8464481208
 20
1667.3526935585
 10
2349.7822618233
 20
1667.0090861655
 10
2349.6963739107
 20
1666.6207436876
  0
LINE
  5
481
330
1F
100
AcDbEntity
  8
0
  6
Continuous
 62
     7
370
    25
100
AcDbLine
 10
2374.4281455954
 20
1680.1994427179
 30
0.0
 11
2374.2223577287
 21
1681.1542011739
 31
0.0
  0
ARC
  5
482
330
1F
100
AcDbEntity
  8
0
  6
Continuous
 62
     7
370
    25
100
AcDbCircle
 10
2346.998632853
 20
1668.410217143
 30
0.0
 40
3.000000000000455
100
AcDbArc
 50
347.449168654
 51
0.0000000003
  0
LINE
  5
483
330
1F
100
AcDbEntity
  8
0
  6
Continuous
 62
     7
370
    25
100
AcDbLine
 10
2355.7749079772
 20
1681.1542011739
 30
0.0
 11
2355.5691200215
 21
1680.1994423052
 31
0.0
  0
ARC
  5
484
330
1F
100
AcDbEntity
  8
0
  6
Continuous
 62
     7
370
    25
100
AcDbCircle
 10
2354.5392477146
 20
1680.4431543684
 30
0.0
 40
1.058316156625259
100
AcDbArc
 50
282.572982315
 51
346.686404055
  0
LINE
  5
485
330
1F
100
AcDbEntity
  8
0
  6
Continuous
 62
     7
370
    25
100
AcDbLine
 10
2307.2486328522
 20
1659.4102171429
 30
0.0
 11
2308.2486328522
 21
1658.4102171429
 31
0.0
  0
LINE
  5
486
330
1F
100
AcDbEntity
  8
0
  6
Continuous
 62
     7
370
    25
100
AcDbLine
 10
2308.2486328522
 20
1665.4102171429
 30
0.0
 11
2307.2486328522
 21
1664.4102171429
 31
0.0
  0
LINE
  5
487
330
1F
100
AcDbEntity
  8
0
  6
Continuous
 62
     7
370
    25
100
AcDbLine
 10
2307.2486328522
 20
1664.4102171429
 30
0.0
 11
2307.2486328522
 21
1659.4102171429
 31
0.0
  0
LINE
  5
488
330
1F
100
AcDbEntity
  8
0
  6
Continuous
 62
     7
370
    25
100
AcDbLine
 10
2387.9986328529
 20
1795.9102171429
 30
0.0
 11
2387.9986328529
 21
1796.9102171429
 31
0.0
  0
LINE
  5
489
330
1F
100
AcDbEntity
  8
0
  6
Continuous
 62
     7
370
    25
100
AcDbLine
 10
2304.9986328533
 20
1334.4102171429
 30
0.0
 11
2304.9986328533
 21
1611.4102171491
 31
0.0
  0
LINE
  5
48A
330
1F
100
AcDbEntity
  8
0
  6
Continuous
 62
     7
370
    25
100
AcDbLine
 10
2304.9986328533
 20
1627.4102171471
 30
0.0
 11
2304.9986328533
 21
1654.4102171429
 31
0.0
  0
LINE
  5
48B
330
1F
100
AcDbEntity
  8
0
  6
Continuous
 62
     7
370
    25
100
AcDbLine
 10
2304.9986328533
 20
1334.4102171429
 30
0.0
 11
2234.9986328533
 21
1334.4102171429
 31
0.0
  0
LINE
  5
48C
330
1F
100
AcDbEntity
  8
0
  6
Continuous
 62
     7
370
    25
100
AcDbLine
 10
2264.9986328533
 20
1629.4102171429
 30
0.0
 11
2264.9986328533
 21
1654.4102171429
 31
0.0
  0
LINE
  5
48D
330
1F
100
AcDbEntity
  8
0
  6
Continuous
 62
     7
370
    25
100
AcDbLine
 10
2264.9986328533
 20
1654.4102171429
 30
0.0
 11
2304.9986328533
 21
1654.4102171429
 31
0.0
  0
LINE
  5
48E
330
1F
100
AcDbEntity
  8
0
  6
Continuous
 62
     7
370
    25
100
AcDbLine
 10
2234.9986328533
 20
1334.4102171429
 30
0.0
 11
2234.9986328533
 21
1629.4102171429
 31
0.0
  0
LINE
  5
48F
330
1F
100
AcDbEntity
  8
0
  6
Continuous
 62
     7
370
    25
100
AcDbLine
 10
2234.9986328533
 20
1629.4102171429
 30
0.0
 11
2264.9986328533
 21
1629.4102171429
 31
0.0
  0
LINE
  5
490
330
1F
100
AcDbEntity
  8
0
  6
Continuous
 62
     7
370
    25
100
AcDbLine
 10
2304.9986328533
 20
1834.4102171429
 30
0.0
 11
2304.9986328533
 21
1795.9102171429
 31
0.0
  0
LINE
  5
491
330
1F
100
AcDbEntity
  8
0
  6
Continuous
 62
     7
370
    25
100
AcDbLine
 10
2304.9986328533
 20
1700.9102171429
 30
0.0
 11
2304.9986328533
 21
1659.4102171429
 31
0.0
  0
LINE
  5
492
330
1F
100
AcDbEntity
  8
0
  6
Continuous
 62
     7
370
    25
100
AcDbLine
 10
2304.9986328533
 20
1659.4102171429
 30
0.0
 11
2264.9986328533
 21
1659.4102171429
 31
0.0
  0
LINE
  5
493
330
1F
100
AcDbEntity
  8
0
  6
Continuous
 62
     7
370
    25
100
AcDbLine
 10
2264.9986328533
 20
1659.4102171429
 30
0.0
 11
2264.9986328533
 21
1634.4102171429
 31
0.0
  0
LINE
  5
494
330
1F
100
AcDbEntity
  8
0
  6
Continuous
 62
     7
370
    25
100
AcDbLine
 10
2234.9986328533
 20
1834.4102171429
 30
0.0
 11
2304.9986328533
 21
1834.4102171429
 31
0.0
  0
LINE
  5
495
330
1F
100
AcDbEntity
  8
0
  6
Continuous
 62
     7
370
    25
100
AcDbLine
 10
2234.9986328533
 20
1834.4102171429
 30
0.0
 11
2234.9986328533
 21
1634.4102171429
 31
0.0
  0
LINE
  5
496
330
1F
100
AcDbEntity
  8
0
  6
Continuous
 62
     7
370
    25
100
AcDbLine
 10
2264.9986328533
 20
1634.4102171429
 30
0.0
 11
2234.9986328533
 21
1634.4102171429
 31
0.0
  0
LINE
  5
497
330
1F
100
AcDbEntity
  8
0
  6
Continuous
 62
     7
370
    25
100
AcDbLine
 10
2234.9986328533
 20
1629.4102171429
 30
0.0
 11
2234.9986328533
 21
1634.4102171429
 31
0.0
  0
LINE
  5
498
330
1F
100
AcDbEntity
  8
0
  6
Continuous
 62
     7
370
    25
100
AcDbLine
 10
2304.9986328533
 20
1654.4102171429
 30
0.0
 11
2304.9986328533
 21
1659.4102171429
 31
0.0
  0
LINE
  5
499
330
1F
100
AcDbEntity
  8
0
  6
Continuous
 62
     7
370
    25
100
AcDbLine
 10
2379.4990536473
 20
1681.1542011739
 30
0.0
 11
2379.9986328529
 21
1681.1542011739
 31
0.0
  0
LINE
  5
49A
330
1F
100
AcDbEntity
  8
0
  6
Continuous
 62
     7
370
    25
100
AcDbLine
 10
2349.9986328529
 20
1681.1542011739
 30
0.0
 11
2379.4990536473
 21
1681.1542011739
 31
0.0
  0
LINE
  5
49B
330
1F
100
AcDbEntity
  8
0
  6
Continuous
 62
     7
370
    25
100
AcDbLine
 10
2325.2486328521
 20
1657.9102171429
 30
0.0
 11
2311.2486328521
 21
1657.9102171429
 31
0.0
  0
LINE
  5
49C
330
1F
100
AcDbEntity
  8
0
  6
Continuous
 62
     7
370
    25
100
AcDbLine
 10
2379.9986328529
 20
1659.410217143
 30
0.0
 11
2350.10143336
 21
1659.410217143
 31
0.0
  0
LINE
  5
49D
330
1F
100
AcDbEntity
  8
0
  6
Continuous
 62
     7
370
    25
100
AcDbLine
 10
2350.10143336
 20
1659.410217143
 30
0.0
 11
2350.10143336
 21
1668.410217143
 31
0.0
  0
LINE
  5
49E
330
1F
100
AcDbEntity
  8
0
  6
Continuous
 62
     7
370
    25
100
AcDbLine
 10
2379.9986328529
 20
1679.210217143
 30
0.0
 11
2349.998632853
 21
1679.210217143
 31
0.0
  0
LINE
  5
49F
330
1F
100
AcDbEntity
  8
0
  6
Continuous
 62
     7
370
    25
100
AcDbLine
 10
2378.9986328529
 20
1658.410217143
 30
0.0
 11
2351.0945799928
 21
1658.410217143
 31
0.0
  0
LINE
  5
4A0
330
1F
100
AcDbEntity
  8
0
  6
Continuous
 62
     7
370
    25
100
AcDbLine
 10
2351.0945799928
 20
1658.410217143
 30
0.0
 11
2350.10143336
 21
1659.410217143
 31
0.0
  0
LINE
  5
4A1
330
1F
100
AcDbEntity
  8
0
  6
Continuous
 62
     7
370
    25
100
AcDbLine
 10
2379.7986328529
 20
1679.410217143
 30
0.0
 11
2350.198632853
 21
1679.410217143
 31
0.0
  0
LWPOLYLINE
  5
4A2
330
1F
100
AcDbEntity
  8
0
  6
Continuous
 62
     7
370
    25
100
AcDbPolyline
 90
        9
 70
   128
 43
0.0
 10
2363.1224823575
 20
1679.410217143
 10
2363.0366868847
 20
1679.4257905749
 10
2362.9535636719
 20
1679.4720258071
 10
2362.8757017463
 20
1679.547482757
 10
2362.8055262628
 20
1679.6498111774
 10
2362.7452229676
 20
1679.7758238588
 10
2362.6966701193
 20
1679.9215959015
 10
2362.6613799868
 20
1680.0825869634
 10
2362.640451747
 20
1680.253782678
  0
ARC
  5
4A3
330
1F
100
AcDbEntity
  8
0
  6
Continuous
 62
     7
370
    25
100
AcDbCircle
 10
2361.1866423214
 20
1680.327774009
 30
0.0
 40
0.9191498472617633
100
AcDbArc
 50
273.3737472447
 51
355.3827081636
  0
ARC
  5
4A4
330
1F
100
AcDbEntity
  8
0
  6
Continuous
 62
     7
370
    25
100
AcDbCircle
 10
2362.3716304601
 20
1680.7872399894
 30
0.0
 40
0.5973621911679378
100
AcDbArc
 50
243.2554258352
 51
296.744575499
  0
LWPOLYLINE
  5
4A5
330
1F
100
AcDbEntity
  8
0
  6
Continuous
 62
     7
370
    25
100
AcDbPolyline
 90
        3
 70
   128
 43
0.0
 10
2365.8024154122
 20
1679.6498111774
 10
2365.8968902957
 20
1679.4720258071
 10
2366.0122464558
 20
1679.410217143
  0
LINE
  5
4A6
330
1F
100
AcDbEntity
  8
0
  6
Continuous
 62
     7
370
    25
100
AcDbLine
 10
2362.640451747
 20
1680.253782678
 30
0.0
 11
2365.7444659474
 21
1680.253782678
 31
0.0
  0
LWPOLYLINE
  5
4A7
330
1F
100
AcDbEntity
  8
0
  6
Continuous
 62
     7
370
    25
100
AcDbPolyline
 90
        3
 70
   128
 43
0.0
 10
2365.7444659474
 20
1680.253782678
 10
2365.7471217942
 20
1679.9215959015
 10
2365.8024154122
 20
1679.6498111774
  0
LWPOLYLINE
  5
4A8
330
1F
100
AcDbEntity
  8
0
  6
Continuous
 62
     7
370
    25
100
AcDbPolyline
 90
        3
 70
   128
 43
0.0
 10
2366.0708459022
 20
1679.6498111753
 10
2366.0724813639
 20
1679.9215959001
 10
2366.0447712142
 20
1680.2537826779
  0
LINE
  5
4A9
330
1F
100
AcDbEntity
  8
0
  6
Continuous
 62
     7
370
    25
100
AcDbLine
 10
2366.0447712142
 20
1680.2537826779
 30
0.0
 11
2369.4669043234
 21
1680.2537826779
 31
0.0
  0
LWPOLYLINE
  5
4AA
330
1F
100
AcDbEntity
  8
0
  6
Continuous
 62
     7
370
    25
100
AcDbPolyline
 90
        9
 70
   128
 43
0.0
 10
2369.4669043234
 20
1680.2537826779
 10
2369.4552368084
 20
1680.0825869634
 10
2369.4355625235
 20
1679.9215959015
 10
2369.4084942611
 20
1679.7758238588
 10
2369.3748751125
 20
1679.6498111774
 10
2369.3357522089
 20
1679.547482757
 10
2369.292344106
 20
1679.4720258071
 10
2369.2460028301
 20
1679.4257905749
 10
2369.1981717666
 20
1679.410217143
  0
LWPOLYLINE
  5
4AB
330
1F
100
AcDbEntity
  8
0
  6
Continuous
 62
     7
370
    25
100
AcDbPolyline
 90
        3
 70
   128
 43
0.0
 10
2366.0122464558
 20
1679.410217143
 10
2366.0473668454
 20
1679.4720258065
 10
2366.0708459022
 20
1679.6498111753
  0
LWPOLYLINE
  5
4AC
330
1F
100
AcDbEntity
  8
0
  6
Continuous
 62
     7
370
    25
100
AcDbPolyline
 90
        3
 70
   128
 43
0.0
 10
2360.1318719739
 20
1679.6498111753
 10
2360.2966035359
 20
1679.9215959001
 10
2360.3671963648
 20
1680.2537826779
  0
LINE
  5
4AD
330
1F
100
AcDbEntity
  8
0
  6
Continuous
 62
     7
370
    25
100
AcDbLine
 10
2360.3671963648
 20
1680.2537826779
 30
0.0
 11
2362.1028091865
 21
1680.2537826779
 31
0.0
  0
LWPOLYLINE
  5
4AE
330
1F
100
AcDbEntity
  8
0
  6
Continuous
 62
     7
370
    25
100
AcDbPolyline
 90
        3
 70
   128
 43
0.0
 10
2359.6249186977
 20
1679.410217143
 10
2359.8970676394
 20
1679.4720258065
 10
2360.1318719739
 20
1679.6498111753
  0
ARC
  5
4AF
330
1F
100
AcDbEntity
  8
0
  6
Continuous
 62
     7
370
    25
100
AcDbCircle
 10
2370.9202438773
 20
1680.384593208
 30
0.0
 40
0.9744953823059062
100
AcDbArc
 50
187.7143350976
 51
269.1033892401
  0
LWPOLYLINE
  5
4B0
330
1F
100
AcDbEntity
  8
0
  6
Continuous
 62
     7
370
    25
100
AcDbPolyline
 90
        8
 70
   128
 43
0.0
 10
2369.4669043231
 20
1680.2537826717
 10
2369.6207006165
 20
1680.2089120037
 10
2369.7007762343
 20
1680.1960532202
 10
2369.7751958116
 20
1680.191731046
 10
2369.8401602467
 20
1680.1961277624
 10
2369.8896145541
 20
1680.2078890311
 10
2369.9285676808
 20
1680.2270965368
 10
2369.9545680231
 20
1680.253782678
  0
LWPOLYLINE
  5
4B1
330
1F
100
AcDbEntity
  8
0
  6
Continuous
 62
     7
370
    25
100
AcDbPolyline
 90
        3
 70
   128
 43
0.0
 10
2371.2142599595
 20
1679.6498111774
 10
2371.4894505771
 20
1679.4720258071
 10
2371.8058131123
 20
1679.410217143
  0
LINE
  5
4B2
330
1F
100
AcDbEntity
  8
0
  6
Continuous
 62
     7
370
    25
100
AcDbLine
 10
2369.9545680231
 20
1680.253782678
 30
0.0
 11
2370.9221739305
 21
1680.253782678
 31
0.0
  0
LWPOLYLINE
  5
4B3
330
1F
100
AcDbEntity
  8
0
  6
Continuous
 62
     7
370
    25
100
AcDbPolyline
 90
        3
 70
   128
 43
0.0
 10
2370.9221739305
 20
1680.253782678
 10
2371.0163236145
 20
1679.9215959015
 10
2371.2142599595
 20
1679.6498111774
  0
ARC
  5
4B4
330
1F
100
AcDbEntity
  8
0
  6
Continuous
 62
     7
370
    25
100
AcDbCircle
 10
2364.5039177302
 20
1680.7017181296
 30
0.0
 40
1.671108753518062
100
AcDbArc
 50
320.9892283137
 51
327.6243106472
  0
ARC
  5
4B5
330
1F
100
AcDbEntity
  8
0
  6
Continuous
 62
     7
370
    25
100
AcDbCircle
 10
2366.773662118
 20
1680.501524404
 30
0.0
 40
1.104249091969445
100
AcDbArc
 50
218.9803668019
 51
230.4712529788
  0
LINE
  5
4B6
330
1F
100
AcDbEntity
  8
0
  6
Continuous
 62
     7
370
    25
100
AcDbLine
 10
2365.8913835823
 20
1680.241248137
 30
0.0
 11
2365.7444659474
 21
1680.253782678
 31
0.0
  0
ARC
  5
4B7
330
1F
100
AcDbEntity
  8
0
  6
Continuous
 62
     7
370
    25
100
AcDbCircle
 10
2372.2484132616
 20
1680.3728764186
 30
0.0
 40
6.358392236910272
100
AcDbArc
 50
181.1861930227
 51
185.106871815
  0
LINE
  5
4B8
330
1F
100
AcDbEntity
  8
0
  6
Continuous
 62
     7
370
    25
100
AcDbLine
 10
2366.0447712142
 20
1680.2537826779
 30
0.0
 11
2365.8913835823
 21
1680.241248137
 31
0.0
  0
LWPOLYLINE
  5
4B9
330
1F
100
AcDbEntity
  8
0
  6
Continuous
 62
     7
370
    25
100
AcDbPolyline
 90
        3
 70
   128
 43
0.0
 10
2359.9197259428
 20
1679.6498111774
 10
2359.7781429868
 20
1679.4720258071
 10
2359.6249186977
 20
1679.410217143
  0
LWPOLYLINE
  5
4BA
330
1F
100
AcDbEntity
  8
0
  6
Continuous
 62
     7
370
    25
100
AcDbPolyline
 90
        9
 70
   128
 43
0.0
 10
2356.4389934234
 20
1679.410217143
 10
2356.4868244869
 20
1679.4257905749
 10
2356.5331657629
 20
1679.4720258071
 10
2356.5765738658
 20
1679.547482757
 10
2356.6156967694
 20
1679.6498111774
 10
2356.6493159179
 20
1679.7758238588
 10
2356.6763841803
 20
1679.9215959015
 10
2356.6960584652
 20
1680.0825869634
 10
2356.7077259802
 20
1680.253782678
  0
LINE
  5
4BB
330
1F
100
AcDbEntity
  8
0
  6
Continuous
 62
     7
370
    25
100
AcDbLine
 10
2356.7077259802
 20
1680.253782678
 30
0.0
 11
2360.1298590528
 21
1680.253782678
 31
0.0
  0
LWPOLYLINE
  5
4BC
330
1F
100
AcDbEntity
  8
0
  6
Continuous
 62
     7
370
    25
100
AcDbPolyline
 90
        3
 70
   128
 43
0.0
 10
2360.1298590528
 20
1680.253782678
 10
2360.0394653034
 20
1679.9215959015
 10
2359.9197259428
 20
1679.6498111774
  0
ARC
  5
4BD
330
1F
100
AcDbEntity
  8
0
  6
Continuous
 62
     7
370
    25
100
AcDbCircle
 10
2359.4416495139
 20
1680.5491559188
 30
0.0
 40
1.018517567739371
100
AcDbArc
 50
297.9943549491
 51
313.216718007
  0
ARC
  5
4BE
330
1F
100
AcDbEntity
  8
0
  6
Continuous
 62
     7
370
    25
100
AcDbCircle
 10
2359.6732813202
 20
1679.749588308
 30
0.0
 40
0.4693195753542758
100
AcDbArc
 50
347.7252635696
 51
7.0132914381
  0
ARC
  5
4BF
330
1F
100
AcDbEntity
  8
0
  6
Continuous
 62
     7
370
    25
100
AcDbCircle
 10
2358.92156569
 20
1680.3979639853
 30
0.0
 40
1.353414193793781
100
AcDbArc
 50
334.1047902994
 51
353.3506380244
  0
LINE
  5
4C0
330
1F
100
AcDbEntity
  8
0
  6
Continuous
 62
     7
370
    25
100
AcDbLine
 10
2360.3671963648
 20
1680.2537826779
 30
0.0
 11
2360.2658761808
 21
1680.241248137
 31
0.0
  0
LINE
  5
4C1
330
1F
100
AcDbEntity
  8
0
  6
Continuous
 62
     7
370
    25
100
AcDbLine
 10
2360.2658761808
 20
1680.241248137
 30
0.0
 11
2360.1298590528
 21
1680.253782678
 31
0.0
  0
LINE
  5
4C2
330
1F
100
AcDbEntity
  8
0
  6
Continuous
 62
     7
370
    25
100
AcDbLine
 10
2355.625302006
 20
1679.4209614842
 30
0.0
 11
2355.4846214955
 21
1679.410217143
 31
0.0
  0
LWPOLYLINE
  5
4C3
330
1F
100
AcDbEntity
  8
0
  6
Continuous
 62
     7
370
    25
100
AcDbPolyline
 90
        8
 70
   128
 43
0.0
 10
2356.4350482782
 20
1680.2537826717
 10
2356.4131159884
 20
1680.2089120037
 10
2356.426799324
 20
1680.1960532202
 10
2356.457991553
 20
1680.191731046
 10
2356.5050771062
 20
1680.1961277624
 10
2356.5608585518
 20
1680.2078890311
 10
2356.628821917
 20
1680.2270965368
 10
2356.7077259802
 20
1680.253782678
  0
LWPOLYLINE
  5
4C4
330
1F
100
AcDbEntity
  8
0
  6
Continuous
 62
     7
370
    25
100
AcDbPolyline
 90
        3
 70
   128
 43
0.0
 10
2371.381731968
 20
1679.6498111753
 10
2371.219313298
 20
1679.9215959001
 10
2371.1095323997
 20
1680.2537826779
  0
LINE
  5
4C5
330
1F
100
AcDbEntity
  8
0
  6
Continuous
 62
     7
370
    25
100
AcDbLine
 10
2371.1095323997
 20
1680.2537826779
 30
0.0
 11
2374.2135466332
 21
1680.2537826779
 31
0.0
  0
LWPOLYLINE
  5
4C6
330
1F
100
AcDbEntity
  8
0
  6
Continuous
 62
     7
370
    25
100
AcDbPolyline
 90
        9
 70
   128
 43
0.0
 10
2374.2135466332
 20
1680.2537826779
 10
2374.234474873
 20
1680.0825869634
 10
2374.2697650055
 20
1679.9215959015
 10
2374.3183178538
 20
1679.7758238588
 10
2374.378621149
 20
1679.6498111774
 10
2374.4487966325
 20
1679.547482757
 10
2374.5266585581
 20
1679.4720258071
 10
2374.6097817709
 20
1679.4257905749
 10
2374.6955772437
 20
1679.410217143
  0
LWPOLYLINE
  5
4C7
330
1F
100
AcDbEntity
  8
0
  6
Continuous
 62
     7
370
    25
100
AcDbPolyline
 90
        3
 70
   128
 43
0.0
 10
2371.8058131123
 20
1679.410217143
 10
2371.583331902
 20
1679.4720258065
 10
2371.381731968
 20
1679.6498111753
  0
ARC
  5
4C8
330
1F
100
AcDbEntity
  8
0
  6
Continuous
 62
     7
370
    25
100
AcDbCircle
 10
2371.5071817804
 20
1679.8511928338
 30
0.0
 40
0.3554683736908929
100
AcDbArc
 50
187.1591901884
 51
214.5082446727
  0
ARC
  5
4C9
330
1F
100
AcDbEntity
  8
0
  6
Continuous
 62
     7
370
    25
100
AcDbCircle
 10
2371.7961987018
 20
1680.4923343646
 30
0.0
 40
0.9389504768264819
100
AcDbArc
 50
226.8871512528
 51
243.8058075801
  0
LINE
  5
4CA
330
1F
100
AcDbEntity
  8
0
  6
Continuous
 62
     7
370
    25
100
AcDbLine
 10
2370.9939297143
 20
1680.241248137
 30
0.0
 11
2370.9221739305
 21
1680.253782678
 31
0.0
  0
ARC
  5
4CB
330
1F
100
AcDbEntity
  8
0
  6
Continuous
 62
     7
370
    25
100
AcDbCircle
 10
2372.1273255283
 20
1680.4133431436
 30
0.0
 40
1.14638656228873
100
AcDbArc
 50
188.6338504038
 51
211.938656767
  0
LINE
  5
4CC
330
1F
100
AcDbEntity
  8
0
  6
Continuous
 62
     7
370
    25
100
AcDbLine
 10
2371.1095323997
 20
1680.2537826779
 30
0.0
 11
2370.9939297143
 21
1680.241248137
 31
0.0
  0
LWPOLYLINE
  5
4CD
330
1F
100
AcDbEntity
  8
0
  6
Continuous
 62
     7
370
    25
100
AcDbPolyline
 90
        9
 70
   128
 43
0.0
 10
2374.2135466337
 20
1680.2537826717
 10
2374.2857777792
 20
1680.2266548065
 10
2374.344109835
 20
1680.207277563
 10
2374.387376329
 20
1680.1955823095
 10
2374.4150877718
 20
1680.1916436728
 10
2374.4275492432
 20
1680.1955759878
 10
2374.4241138775
 20
1680.2072698183
 10
2374.4036462288
 20
1680.2266494874
 10
2374.3655646908
 20
1680.253782678
  0
ARC
  5
4CE
330
1F
100
AcDbEntity
  8
0
  6
Continuous
 62
     7
370
    25
100
AcDbCircle
 10
2356.526407024
 20
1666.3340312707
 30
0.0
 40
6.752098515273452
100
AcDbArc
 50
162.0921195466
 51
171.7423680327
  0
LWPOLYLINE
  5
4CF
330
1F
100
AcDbEntity
  8
0
  6
Continuous
 62
     7
370
    25
100
AcDbPolyline
 90
       11
 70
   128
 43
0.0
 10
2350.10143336
 20
1668.410217143
 10
2350.10141009
 20
1668.4101210812
 10
2350.1012305084
 20
1668.4093286105
 10
2350.1007349323
 20
1668.4070953174
 10
2350.0988656064
 20
1668.3985944494
 10
2350.0916142602
 20
1668.365455586
 10
2349.8794041224
 20
1667.4052585665
 10
2349.672419906
 20
1666.5233624564
 10
2349.4741947602
 20
1665.7719708702
 10
2349.1373213286
 20
1664.8135690712
 10
2348.7791436791
 20
1664.410217143
  0
LINE
  5
4D0
330
1F
100
AcDbEntity
  8
0
  6
Continuous
 62
     7
370
    25
100
AcDbLine
 10
2350.10143336
 20
1659.410217143
 30
0.0
 11
2325.5026020392
 21
1659.4102171429
 31
0.0
  0
LINE
  5
4D1
330
1F
100
AcDbEntity
  8
0
  6
Continuous
 62
     7
370
    25
100
AcDbLine
 10
2325.5026020392
 20
1664.4102171429
 30
0.0
 11
2325.5026020392
 21
1659.4102171429
 31
0.0
  0
LINE
  5
4D2
330
1F
100
AcDbEntity
  8
0
  6
Continuous
 62
     7
370
    25
100
AcDbLine
 10
2348.7791436791
 20
1664.410217143
 30
0.0
 11
2325.5026020392
 21
1664.4102171429
 31
0.0
  0
LINE
  5
4D3
330
1F
100
AcDbEntity
  8
0
  6
Continuous
 62
     7
370
    25
100
AcDbLine
 10
2326.4957486721
 20
1658.4102171429
 30
0.0
 11
2325.5026020392
 21
1659.4102171429
 31
0.0
  0
LINE
  5
4D4
330
1F
100
AcDbEntity
  8
0
  6
Continuous
 62
     7
370
    25
100
AcDbLine
 10
2351.0945799928
 20
1658.410217143
 30
0.0
 11
2326.4957486721
 21
1658.4102171429
 31
0.0
  0
ARC
  5
4D5
330
1F
100
AcDbEntity
  8
0
  6
Continuous
 62
     7
370
    25
100
AcDbCircle
 10
2354.71553415
 20
1680.327774009
 30
0.0
 40
0.9191498472652482
100
AcDbArc
 50
273.3737472448
 51
355.3827081649
  0
LINE
  5
4D6
330
1F
100
AcDbEntity
  8
0
  6
Continuous
 62
     7
370
    25
100
AcDbLine
 10
2326.4957486721
 20
1665.4102171429
 30
0.0
 11
2325.5026020392
 21
1664.4102171429
 31
0.0
  0
LINE
  5
4D7
330
1F
100
AcDbEntity
  8
0
  6
Continuous
 62
     7
370
    25
100
AcDbLine
 10
2326.4957486721
 20
1665.4102171429
 30
0.0
 11
2349.3470401372
 21
1665.410217143
 31
0.0
  0
LINE
  5
4D8
330
1F
100
AcDbEntity
  8
0
  6
Continuous
 62
     7
370
    25
100
AcDbLine
 10
2325.3901322474
 20
1659.4102171429
 30
0.0
 11
2325.5026020392
 21
1659.4102171429
 31
0.0
  0
LINE
  5
4D9
330
1F
100
AcDbEntity
  8
0
  6
Continuous
 62
     7
370
    25
100
AcDbLine
 10
2325.3901322474
 20
1659.4102171429
 30
0.0
 11
2325.3901322474
 21
1664.4102171429
 31
0.0
  0
LINE
  5
4DA
330
1F
100
AcDbEntity
  8
0
  6
Continuous
 62
     7
370
    25
100
AcDbLine
 10
2325.5026020392
 20
1664.4102171429
 30
0.0
 11
2325.3901322474
 21
1664.4102171429
 31
0.0
  0
LINE
  5
4DB
330
1F
100
AcDbEntity
  8
0
  6
Continuous
 62
     7
370
    25
100
AcDbLine
 10
2326.3855282761
 20
1658.4102171429
 30
0.0
 11
2325.3901322474
 21
1659.4102171429
 31
0.0
  0
LINE
  5
4DC
330
1F
100
AcDbEntity
  8
0
  6
Continuous
 62
     7
370
    25
100
AcDbLine
 10
2326.4957486721
 20
1658.4102171429
 30
0.0
 11
2326.3855282761
 21
1658.4102171429
 31
0.0
  0
LINE
  5
4DD
330
1F
100
AcDbEntity
  8
0
  6
Continuous
 62
     7
370
    25
100
AcDbLine
 10
2325.3901322474
 20
1664.4102171429
 30
0.0
 11
2326.3855282761
 21
1665.4102171429
 31
0.0
  0
LINE
  5
4DE
330
1F
100
AcDbEntity
  8
0
  6
Continuous
 62
     7
370
    25
100
AcDbLine
 10
2326.3855282761
 20
1665.4102171429
 30
0.0
 11
2326.4957486721
 21
1665.4102171429
 31
0.0
  0
LINE
  5
4DF
330
1F
100
AcDbEntity
  8
0
  6
Continuous
 62
     7
370
    25
100
AcDbLine
 10
2308.2946725651
 20
1658.4102171429
 30
0.0
 11
2307.2992765364
 21
1659.4102171429
 31
0.0
  0
LINE
  5
4E0
330
1F
100
AcDbEntity
  8
0
  6
Continuous
 62
     7
370
    25
100
AcDbLine
 10
2325.3901322474
 20
1659.4102171429
 30
0.0
 11
2307.2992765364
 21
1659.4102171429
 31
0.0
  0
LINE
  5
4E1
330
1F
100
AcDbEntity
  8
0
  6
Continuous
 62
     7
370
    25
100
AcDbLine
 10
2326.3855282761
 20
1658.4102171429
 30
0.0
 11
2308.2946725651
 21
1658.4102171429
 31
0.0
  0
LINE
  5
4E2
330
1F
100
AcDbEntity
  8
0
  6
Continuous
 62
     7
370
    25
100
AcDbLine
 10
2307.2992765364
 20
1664.4102171429
 30
0.0
 11
2308.2946725651
 21
1665.4102171429
 31
0.0
  0
LINE
  5
4E3
330
1F
100
AcDbEntity
  8
0
  6
Continuous
 62
     7
370
    25
100
AcDbLine
 10
2325.3901322474
 20
1664.4102171429
 30
0.0
 11
2307.2992765364
 21
1664.4102171429
 31
0.0
  0
LINE
  5
4E4
330
1F
100
AcDbEntity
  8
0
  6
Continuous
 62
     7
370
    25
100
AcDbLine
 10
2308.2946725651
 20
1665.4102171429
 30
0.0
 11
2326.3855282761
 21
1665.4102171429
 31
0.0
  0
LINE
  5
4E5
330
1F
100
AcDbEntity
  8
0
  6
Continuous
 62
     7
370
    25
100
AcDbLine
 10
2307.2992765364
 20
1659.4102171429
 30
0.0
 11
2307.2992765364
 21
1664.4102171429
 31
0.0
  0
LINE
  5
4E6
330
1F
100
AcDbEntity
  8
0
  6
Continuous
 62
     7
370
    25
100
AcDbLine
 10
2307.2992765364
 20
1659.4102171429
 30
0.0
 11
2307.2486328522
 21
1659.4102171429
 31
0.0
  0
LINE
  5
4E7
330
1F
100
AcDbEntity
  8
0
  6
Continuous
 62
     7
370
    25
100
AcDbLine
 10
2308.2946725651
 20
1658.4102171429
 30
0.0
 11
2308.2486328522
 21
1658.4102171429
 31
0.0
  0
LINE
  5
4E8
330
1F
100
AcDbEntity
  8
0
  6
Continuous
 62
     7
370
    25
100
AcDbLine
 10
2307.2992765364
 20
1664.4102171429
 30
0.0
 11
2307.2486328522
 21
1664.4102171429
 31
0.0
  0
LINE
  5
4E9
330
1F
100
AcDbEntity
  8
0
  6
Continuous
 62
     7
370
    25
100
AcDbLine
 10
2308.2486328522
 20
1665.4102171429
 30
0.0
 11
2308.2946725651
 21
1665.4102171429
 31
0.0
  0
LINE
  5
4EA
330
1F
100
AcDbEntity
  8
0
  6
Continuous
 62
     7
370
    25
100
AcDbLine
 10
2304.9986328509
 20
1611.4102171491
 30
0.0
 11
2305.4986328509
 21
1611.4102171491
 31
0.0
  0
LINE
  5
4EB
330
1F
100
AcDbEntity
  8
0
  6
Continuous
 62
     7
370
    25
100
AcDbLine
 10
2305.4986328509
 20
1611.4102171491
 30
0.0
 11
2305.4986328509
 21
1610.9102171491
 31
0.0
  0
ARC
  5
4EC
330
1F
100
AcDbEntity
  8
0
  6
Continuous
 62
     7
370
    25
100
AcDbCircle
 10
2305.4986328509
 20
1611.4102171491
 30
0.0
 40
0.5
100
AcDbArc
 50
180.0
 51
270.0000000001
  0
LINE
  5
4ED
330
1F
100
AcDbEntity
  8
0
  6
Continuous
 62
     7
370
    25
100
AcDbLine
 10
2305.4986328509
 20
1611.4102171491
 30
0.0
 11
2332.4986328509
 21
1611.4102171491
 31
0.0
  0
LINE
  5
4EE
330
1F
100
AcDbEntity
  8
0
  6
Continuous
 62
     7
370
    25
100
AcDbLine
 10
2305.4986328509
 20
1627.4102171491
 30
0.0
 11
2305.4986328509
 21
1611.4102171491
 31
0.0
  0
LINE
  5
4EF
330
1F
100
AcDbEntity
  8
0
  6
Continuous
 62
     7
370
    25
100
AcDbLine
 10
2332.4986328509
 20
1627.4102171491
 30
0.0
 11
2305.4986328509
 21
1627.4102171491
 31
0.0
  0
LINE
  5
4F0
330
1F
100
AcDbEntity
  8
0
  6
Continuous
 62
     7
370
    25
100
AcDbLine
 10
2332.4986328509
 20
1611.4102171491
 30
0.0
 11
2332.4986328509
 21
1627.4102171491
 31
0.0
  0
LINE
  5
4F1
330
1F
100
AcDbEntity
  8
0
  6
Continuous
 62
     7
370
    25
100
AcDbLine
 10
2305.4986328509
 20
1627.4102171491
 30
0.0
 11
2304.9986328509
 21
1627.4102171491
 31
0.0
  0
LINE
  5
4F2
330
1F
100
AcDbEntity
  8
0
  6
Continuous
 62
     7
370
    25
100
AcDbLine
 10
2304.9986328509
 20
1627.4102171491
 30
0.0
 11
2304.9986328509
 21
1611.4102171491
 31
0.0
  0
LINE
  5
4F3
330
1F
100
AcDbEntity
  8
0
  6
Continuous
 62
     7
370
    25
100
AcDbLine
 10
2332.4986328509
 20
1610.9102171491
 30
0.0
 11
2332.4986328509
 21
1611.4102171491
 31
0.0
  0
LINE
  5
4F4
330
1F
100
AcDbEntity
  8
0
  6
Continuous
 62
     7
370
    25
100
AcDbLine
 10
2305.4986328509
 20
1610.9102171491
 30
0.0
 11
2332.4986328509
 21
1610.9102171491
 31
0.0
  0
LINE
  5
4F5
330
1F
100
AcDbEntity
  8
0
  6
Continuous
 62
     7
370
    25
100
AcDbLine
 10
2332.4986328509
 20
1627.4102171491
 30
0.0
 11
2332.4986328509
 21
1627.9102171491
 31
0.0
  0
LINE
  5
4F6
330
1F
100
AcDbEntity
  8
0
  6
Continuous
 62
     7
370
    25
100
AcDbLine
 10
2305.4986328509
 20
1627.9102171491
 30
0.0
 11
2305.4986328509
 21
1627.4102171491
 31
0.0
  0
LINE
  5
4F7
330
1F
100
AcDbEntity
  8
0
  6
Continuous
 62
     7
370
    25
100
AcDbLine
 10
2332.4986328509
 20
1627.9102171491
 30
0.0
 11
2305.4986328509
 21
1627.9102171491
 31
0.0
  0
ARC
  5
4F8
330
1F
100
AcDbEntity
  8
0
  6
Continuous
 62
     7
370
    25
100
AcDbCircle
 10
2305.4986328509
 20
1627.4102171491
 30
0.0
 40
0.5
100
AcDbArc
 50
89.9999999999
 51
180.0
  0
LINE
  5
4F9
330
1F
100
AcDbEntity
  8
0
  6
Continuous
 62
     7
370
    25
100
AcDbLine
 10
2332.9986328509
 20
1627.4102171491
 30
0.0
 11
2332.4986328509
 21
1627.4102171491
 31
0.0
  0
LINE
  5
4FA
330
1F
100
AcDbEntity
  8
0
  6
Continuous
 62
     7
370
    25
100
AcDbLine
 10
2332.9986328509
 20
1611.4102171491
 30
0.0
 11
2332.9986328509
 21
1627.4102171491
 31
0.0
  0
LINE
  5
4FB
330
1F
100
AcDbEntity
  8
0
  6
Continuous
 62
     7
370
    25
100
AcDbLine
 10
2332.4986328509
 20
1611.4102171491
 30
0.0
 11
2332.9986328509
 21
1611.4102171491
 31
0.0
  0
ARC
  5
4FC
330
1F
100
AcDbEntity
  8
0
  6
Continuous
 62
     7
370
    25
100
AcDbCircle
 10
2332.4986328509
 20
1611.4102171491
 30
0.0
 40
0.5000000000009095
100
AcDbArc
 50
270.0
 51
0.0
  0
ARC
  5
4FD
330
1F
100
AcDbEntity
  8
0
  6
Continuous
 62
     7
370
    25
100
AcDbCircle
 10
2332.4986328509
 20
1627.4102171491
 30
0.0
 40
0.5
100
AcDbArc
 50
0.0
 51
90.0
  0
LINE
  5
4FE
330
1F
100
AcDbEntity
  8
0
  6
Continuous
 62
     7
370
    25
100
AcDbLine
 10
2305.9986328529
 20
1796.9102171429
 30
0.0
 11
2364.9986328529
 21
1796.9102171429
 31
0.0
  0
LINE
  5
4FF
330
1F
100
AcDbEntity
  8
0
  6
Continuous
 62
     7
370
    25
100
AcDbLine
 10
2364.9986328529
 20
1796.9102171429
 30
0.0
 11
2364.9986328529
 21
1795.9102171429
 31
0.0
  0
LINE
  5
500
330
1F
100
AcDbEntity
  8
0
  6
Continuous
 62
     7
370
    25
100
AcDbLine
 10
2305.9986328529
 20
1795.9102171429
 30
0.0
 11
2305.9986328529
 21
1796.9102171429
 31
0.0
  0
LINE
  5
501
330
1F
100
AcDbEntity
  8
0
  6
Continuous
 62
     7
370
    25
100
AcDbLine
 10
2364.9986328529
 20
1796.9102171429
 30
0.0
 11
2387.9986328529
 21
1796.9102171429
 31
0.0
  0
LINE
  5
502
330
1F
100
AcDbEntity
  8
0
  6
Continuous
 62
     7
370
    25
100
AcDbLine
 10
2361.9986328529
 20
1700.9102171429
 30
0.0
 11
2361.9986328529
 21
1699.9102171429
 31
0.0
  0
LINE
  5
503
330
1F
100
AcDbEntity
  8
0
  6
Continuous
 62
     7
370
    25
100
AcDbLine
 10
2361.9986328529
 20
1699.9102171429
 30
0.0
 11
2305.9986328529
 21
1699.9102171429
 31
0.0
  0
LINE
  5
504
330
1F
100
AcDbEntity
  8
0
  6
Continuous
 62
     7
370
    25
100
AcDbLine
 10
2305.9986328529
 20
1699.9102171429
 30
0.0
 11
2305.9986328529
 21
1700.9102171429
 31
0.0
  0
LINE
  5
505
330
1F
100
AcDbEntity
  8
0
  6
Continuous
 62
     7
370
    25
100
AcDbLine
 10
2419.9986328529
 20
1705.9102171429
 30
0.0
 11
2419.9986328529
 21
1790.9102171429
 31
0.0
  0
LINE
  5
506
330
1F
100
AcDbEntity
  8
0
  6
Continuous
 62
     7
370
    25
100
AcDbLine
 10
2304.9986328529
 20
1705.9102171429
 30
0.0
 11
2419.9986328529
 21
1705.9102171429
 31
0.0
  0
LINE
  5
507
330
1F
100
AcDbEntity
  8
0
  6
Continuous
 62
     7
370
    25
100
AcDbLine
 10
2304.9986328529
 20
1790.9102171429
 30
0.0
 11
2304.9986328529
 21
1705.9102171429
 31
0.0
  0
LINE
  5
508
330
1F
100
AcDbEntity
  8
0
  6
Continuous
 62
     7
370
    25
100
AcDbLine
 10
2419.9986328529
 20
1790.9102171429
 30
0.0
 11
2304.9986328529
 21
1790.9102171429
 31
0.0
  0
LINE
  5
509
330
1F
100
AcDbEntity
  8
0
  6
Continuous
 62
     7
370
    25
100
AcDbLine
 10
2316.9986328529
 20
1777.9102171429
 30
0.0
 11
2316.9986328529
 21
1718.9102171429
 31
0.0
  0
ARC
  5
50A
330
1F
100
AcDbEntity
  8
0
  6
Continuous
 62
     7
370
    25
100
AcDbCircle
 10
2319.9986328529
 20
1718.9102171429
 30
0.0
 40
3.000000000000455
100
AcDbArc
 50
180.0
 51
270.0
  0
LINE
  5
50B
330
1F
100
AcDbEntity
  8
0
  6
Continuous
 62
     7
370
    25
100
AcDbLine
 10
2319.9986328529
 20
1715.9102171429
 30
0.0
 11
2405.9986328529
 21
1715.9102171429
 31
0.0
  0
ARC
  5
50C
330
1F
100
AcDbEntity
  8
0
  6
Continuous
 62
     7
370
    25
100
AcDbCircle
 10
2405.9986328529
 20
1718.9102171429
 30
0.0
 40
3.000000000000227
100
AcDbArc
 50
270.0
 51
0.0
  0
LINE
  5
50D
330
1F
100
AcDbEntity
  8
0
  6
Continuous
 62
     7
370
    25
100
AcDbLine
 10
2408.9986328529
 20
1718.9102171429
 30
0.0
 11
2408.9986328529
 21
1777.9102171429
 31
0.0
  0
ARC
  5
50E
330
1F
100
AcDbEntity
  8
0
  6
Continuous
 62
     7
370
    25
100
AcDbCircle
 10
2405.9986328529
 20
1777.9102171429
 30
0.0
 40
3.0
100
AcDbArc
 50
0.0
 51
90.0
  0
LINE
  5
50F
330
1F
100
AcDbEntity
  8
0
  6
Continuous
 62
     7
370
    25
100
AcDbLine
 10
2405.9986328529
 20
1780.9102171429
 30
0.0
 11
2319.9986328529
 21
1780.9102171429
 31
0.0
  0
ARC
  5
510
330
1F
100
AcDbEntity
  8
0
  6
Continuous
 62
     7
370
    25
100
AcDbCircle
 10
2319.9986328529
 20
1777.9102171429
 30
0.0
 40
3.0
100
AcDbArc
 50
90.0
 51
180.0
  0
LINE
  5
511
330
1F
100
AcDbEntity
  8
0
  6
Continuous
 62
     7
370
    25
100
AcDbLine
 10
2419.9986328529
 20
1793.9102171429
 30
0.0
 11
2313.4986328529
 21
1793.9102171429
 31
0.0
  0
LINE
  5
512
330
1F
100
AcDbEntity
  8
0
  6
Continuous
 62
     7
370
    25
100
AcDbLine
 10
2419.9986328529
 20
1790.9102171429
 30
0.0
 11
2419.9986328529
 21
1793.9102171429
 31
0.0
  0
LINE
  5
513
330
1F
100
AcDbEntity
  8
0
  6
Continuous
 62
     7
370
    25
100
AcDbLine
 10
2304.9986328529
 20
1790.9102171429
 30
0.0
 11
2304.9986328529
 21
1793.9102171429
 31
0.0
  0
LINE
  5
514
330
1F
100
AcDbEntity
  8
0
  6
Continuous
 62
     7
370
    25
100
AcDbLine
 10
2308.4986328529
 20
1793.9102171429
 30
0.0
 11
2304.9986328529
 21
1793.9102171429
 31
0.0
  0
ARC
  5
515
330
1F
100
AcDbEntity
  8
0
  6
Continuous
 62
     7
370
    25
100
AcDbCircle
 10
2310.9986328529
 20
1795.2435504762
 30
0.0
 40
2.833333333333913
100
AcDbArc
 50
208.0724869359
 51
331.9275130641
  0
LINE
  5
516
330
1F
100
AcDbEntity
  8
0
  6
Continuous
 62
     7
370
    25
100
AcDbLine
 10
2304.9986328529
 20
1702.9102171429
 30
0.0
 11
2308.4986328529
 21
1702.9102171429
 31
0.0
  0
LINE
  5
517
330
1F
100
AcDbEntity
  8
0
  6
Continuous
 62
     7
370
    25
100
AcDbLine
 10
2304.9986328529
 20
1702.9102171429
 30
0.0
 11
2304.9986328529
 21
1705.9102171429
 31
0.0
  0
LINE
  5
518
330
1F
100
AcDbEntity
  8
0
  6
Continuous
 62
     7
370
    25
100
AcDbLine
 10
2419.9986328529
 20
1702.9102171429
 30
0.0
 11
2419.9986328529
 21
1705.9102171429
 31
0.0
  0
LINE
  5
519
330
1F
100
AcDbEntity
  8
0
  6
Continuous
 62
     7
370
    25
100
AcDbLine
 10
2313.4986328529
 20
1702.9102171429
 30
0.0
 11
2419.9986328529
 21
1702.9102171429
 31
0.0
  0
ARC
  5
51A
330
1F
100
AcDbEntity
  8
0
  6
Continuous
 62
     7
370
    25
100
AcDbCircle
 10
2310.9986328529
 20
1701.5768838095
 30
0.0
 40
2.833333333333405
100
AcDbArc
 50
28.0724869359
 51
151.9275130641
  0
LINE
  5
51B
330
1F
100
AcDbEntity
  8
0
  6
Continuous
 62
     7
370
    25
100
AcDbLine
 10
2422.9986328529
 20
1705.9102171429
 30
0.0
 11
2422.9986328529
 21
1790.9102171476
 31
0.0
  0
LINE
  5
51C
330
1F
100
AcDbEntity
  8
0
  6
Continuous
 62
     7
370
    25
100
AcDbLine
 10
2419.9986328529
 20
1705.9102171429
 30
0.0
 11
2422.9986328529
 21
1705.9102171429
 31
0.0
  0
LINE
  5
51D
330
1F
100
AcDbEntity
  8
0
  6
Continuous
 62
     7
370
    25
100
AcDbLine
 10
2422.9986328529
 20
1790.9102171429
 30
0.0
 11
2419.9986328529
 21
1790.9102171429
 31
0.0
  0
ARC
  5
51E
330
1F
100
AcDbEntity
  8
0
  6
Continuous
 62
     7
370
    25
100
AcDbCircle
 10
2419.9986328529
 20
1705.9102171429
 30
0.0
 40
3.000000000000227
100
AcDbArc
 50
269.9999996402
 51
0.0
  0
ARC
  5
51F
330
1F
100
AcDbEntity
  8
0
  6
Continuous
 62
     7
370
    25
100
AcDbCircle
 10
2419.9986328529
 20
1790.9102171429
 30
0.0
 40
3.0
100
AcDbArc
 50
0.0000001799
 51
90.0
  0
LINE
  5
520
330
1F
100
AcDbEntity
  8
0
  6
Continuous
 62
     7
370
    25
100
AcDbLine
 10
2304.9986328529
 20
1795.9102171429
 30
0.0
 11
2419.9986328529
 21
1795.9102171429
 31
0.0
  0
ARC
  5
521
330
1F
100
AcDbEntity
  8
0
  6
Continuous
 62
     7
370
    25
100
AcDbCircle
 10
2419.9986328529
 20
1790.9102171429
 30
0.0
 40
5.0
100
AcDbArc
 50
0.0
 51
90.0
  0
LINE
  5
522
330
1F
100
AcDbEntity
  8
0
  6
Continuous
 62
     7
370
    25
100
AcDbLine
 10
2424.9986328529
 20
1790.9102171429
 30
0.0
 11
2424.9986328529
 21
1705.9102171429
 31
0.0
  0
ARC
  5
523
330
1F
100
AcDbEntity
  8
0
  6
Continuous
 62
     7
370
    25
100
AcDbCircle
 10
2419.9986328529
 20
1705.9102171429
 30
0.0
 40
5.000000000000227
100
AcDbArc
 50
270.0
 51
0.0
  0
LINE
  5
524
330
1F
100
AcDbEntity
  8
0
  6
Continuous
 62
     7
370
    25
100
AcDbLine
 10
2419.9986328529
 20
1700.9102171429
 30
0.0
 11
2304.9986328529
 21
1700.9102171429
 31
0.0
  0
LINE
  5
525
330
1F
100
AcDbEntity
  8
0
  6
Continuous
 62
     7
370
    25
100
AcDbLine
 10
2304.9986328529
 20
1793.9102171429
 30
0.0
 11
2304.9986328529
 21
1795.9102171429
 31
0.0
  0
LINE
  5
526
330
1F
100
AcDbEntity
  8
0
  6
Continuous
 62
     7
370
    25
100
AcDbLine
 10
2304.9986328529
 20
1700.9102171429
 30
0.0
 11
2304.9986328529
 21
1702.9102171429
 31
0.0
  0
LINE
  5
527
330
1F
100
AcDbEntity
  8
0
  6
Continuous
 62
     7
370
    25
100
AcDbLine
 10
2349.998632853
 20
1668.410217143
 30
0.0
 11
2350.10143336
 21
1668.410217143
 31
0.0
  0
LINE
  5
528
330
1F
100
AcDbEntity
  8
0
  6
Continuous
 62
     7
370
    25
100
AcDbLine
 10
2362.6953264619
 20
1681.1542011739
 30
0.0
 11
2362.640451747
 21
1680.253782678
 31
0.0
  0
LINE
  5
529
330
1F
100
AcDbEntity
  8
0
  6
Continuous
 62
     7
370
    25
100
AcDbLine
 10
2362.102809186
 20
1680.2537826779
 30
0.0
 11
2362.1576838991
 21
1681.1542011739
 31
0.0
  0
LINE
  5
52A
330
1F
100
AcDbEntity
  8
0
  6
Continuous
 62
     7
370
    25
100
AcDbLine
 10
2360.4628420386
 20
1681.1542011739
 30
0.0
 11
2360.3671963648
 21
1680.2537826779
 31
0.0
  0
LINE
  5
52B
330
1F
100
AcDbEntity
  8
0
  6
Continuous
 62
     7
370
    25
100
AcDbLine
 10
2365.7444659474
 20
1680.253782678
 30
0.0
 11
2365.7264248397
 21
1681.1542011739
 31
0.0
  0
LINE
  5
52C
330
1F
100
AcDbEntity
  8
0
  6
Continuous
 62
     7
370
    25
100
AcDbLine
 10
2369.4669043224
 20
1680.2537826779
 30
0.0
 11
2369.368474517
 21
1681.1542011739
 31
0.0
  0
LINE
  5
52D
330
1F
100
AcDbEntity
  8
0
  6
Continuous
 62
     7
370
    25
100
AcDbLine
 10
2366.0267301065
 20
1681.1542011739
 30
0.0
 11
2366.0447712142
 21
1680.2537826779
 31
0.0
  0
LINE
  5
52E
330
1F
100
AcDbEntity
  8
0
  6
Continuous
 62
     7
370
    25
100
AcDbLine
 10
2369.8561382213
 20
1681.1542011739
 30
0.0
 11
2369.9545680231
 21
1680.253782678
 31
0.0
  0
LINE
  5
52F
330
1F
100
AcDbEntity
  8
0
  6
Continuous
 62
     7
370
    25
100
AcDbLine
 10
2370.9221739305
 20
1680.253782678
 30
0.0
 11
2370.8010142776
 21
1681.1542011739
 31
0.0
  0
LINE
  5
530
330
1F
100
AcDbEntity
  8
0
  6
Continuous
 62
     7
370
    25
100
AcDbLine
 10
2360.1298590528
 20
1680.253782678
 30
0.0
 11
2360.2255047266
 21
1681.1542011739
 31
0.0
  0
LINE
  5
531
330
1F
100
AcDbEntity
  8
0
  6
Continuous
 62
     7
370
    25
100
AcDbLine
 10
2356.8837603481
 20
1681.1542011739
 30
0.0
 11
2356.7077259802
 21
1680.253782678
 31
0.0
  0
LINE
  5
532
330
1F
100
AcDbEntity
  8
0
  6
Continuous
 62
     7
370
    25
100
AcDbLine
 10
2370.9883727467
 20
1681.1542011739
 30
0.0
 11
2371.1095323997
 21
1680.2537826779
 31
0.0
  0
LINE
  5
533
330
1F
100
AcDbEntity
  8
0
  6
Continuous
 62
     7
370
    25
100
AcDbLine
 10
2374.2135466324
 20
1680.2537826779
 30
0.0
 11
2374.0194711535
 21
1681.1542011739
 31
0.0
  0
LINE
  5
534
330
1F
100
AcDbEntity
  8
0
  6
Continuous
 62
     7
370
    25
100
AcDbLine
 10
2355.6317010151
 20
1680.253782678
 30
0.0
 11
2356.419879764
 21
1680.253782678
 31
0.0
  0
LINE
  5
535
330
1F
100
AcDbEntity
  8
0
  6
Continuous
 62
     7
370
    25
100
AcDbLine
 10
2355.8257764906
 20
1681.1542011739
 30
0.0
 11
2355.6317010151
 21
1680.253782678
 31
0.0
  0
LWPOLYLINE
  5
536
330
1F
100
AcDbEntity
  8
0
  6
Continuous
 62
     7
370
    25
100
AcDbPolyline
 90
        3
 70
   128
 43
0.0
 10
2355.5711982869
 20
1680.200475474
 10
2355.574652515
 20
1680.2088980222
 10
2355.6317010151
 20
1680.253782678
  0
LINE
  5
537
330
1F
100
AcDbEntity
  8
FORMAT
370
    25
100
AcDbLine
 10
2424.9986328533
 20
1842.4552350409
 30
0.0
 11
2424.9986328533
 21
1936.6193330553
 31
0.0
  0
LINE
  5
538
330
1F
100
AcDbEntity
  8
FORMAT
370
    25
100
AcDbLine
 10
2274.9986328533
 20
1936.6193330553
 30
0.0
 11
2274.9986328533
 21
1842.4552350409
 31
0.0
  0
DIMENSION
  5
539
330
1F
100
AcDbEntity
  8
FORMAT
100
AcDbDimension
  2
_D_20
 10
2424.9986328533
 20
1904.4102171429
 30
0.0
 11
2500.7199289988
 21
1904.4102171429
 31
0.0
 70
   160
  1
max. +<>
 71
     2
 42
-1.0
  3
SLDDIMSTYLE4
100
AcDbAlignedDimension
 13
2304.9986328533
 23
1834.4102171429
 33
0.0
 14
2424.9986328533
 24
1936.6193330552
 34
0.0
 50
0.0
100
AcDbRotatedDimension
  0
DIMENSION
  5
54A
330
1F
100
AcDbEntity
  8
FORMAT
100
AcDbDimension
  2
_D_21
 10
2274.9986328533
 20
1904.4102171429
 30
0.0
 11
2203.6951829118
 21
1904.4102171429
 31
0.0
 70
   160
  1
max. -<>
 71
     2
 42
-1.0
  3
SLDDIMSTYLE4
100
AcDbAlignedDimension
 13
2304.9986328533
 23
1834.4102171429
 33
0.0
 14
2274.9986328533
 24
1936.6193330552
 34
0.0
 50
0.0
100
AcDbRotatedDimension
  0
DIMENSION
  5
555
330
1F
100
AcDbEntity
  8
FORMAT
100
AcDbDimension
  2
_D_22
 10
2332.9986328509
 20
1515.3259587413
 30
0.0
 11
2386.3466774277
 21
1515.3259587413
 31
0.0
 70
   160
  1
<>
 71
     2
 42
-1.0
  3
SLDDIMSTYLE1
100
AcDbAlignedDimension
 13
2304.9986328533
 23
1654.4102171429
 33
0.0
 14
2332.9986328509
 24
1611.4102171491
 34
0.0
100
AcDbRotatedDimension
  0
DIMENSION
  5
560
330
1F
100
AcDbEntity
  8
FORMAT
100
AcDbDimension
  2
_D_23
 10
2424.9986328529
 20
1451.0481513522
 30
0.0
 11
2364.9986328531
 21
1451.0481513522
 31
0.0
 70
   160
  1
<>
 71
     2
 42
-1.0
  3
SLDDIMSTYLE0
100
AcDbAlignedDimension
 13
2304.9986328533
 23
1334.4102171429
 33
0.0
 14
2424.9986328529
 24
1705.9102171429
 34
0.0
100
AcDbRotatedDimension
  0
DIMENSION
  5
569
330
1F
100
AcDbEntity
  8
FORMAT
100
AcDbDimension
  2
_D_24
 10
2494.9986328529
 20
1795.9102171429
 30
0.0
 11
2494.9986328529
 21
1703.410217146
 31
0.0
 70
   160
  1
<>
 71
     2
 42
-1.0
  3
SLDDIMSTYLE0
100
AcDbAlignedDimension
 13
2332.4986328509
 23
1610.9102171491
 33
0.0
 14
2419.9986328529
 24
1795.9102171429
 34
0.0
 50
90.0
100
AcDbRotatedDimension
  0
DIMENSION
  5
573
330
1F
100
AcDbEntity
  8
FORMAT
100
AcDbDimension
  2
_D_25
 10
2198.6519946405
 20
1796.9102171429
 30
0.0
 11
2198.6519946405
 21
1728.1602171429
 31
0.0
 70
   160
  1
<>
 71
     2
 42
-1.0
  3
SLDDIMSTYLE0
100
AcDbAlignedDimension
 13
2264.9986328533
 23
1659.4102171429
 33
0.0
 14
2305.9986328529
 24
1796.9102171429
 34
0.0
 50
90.0
100
AcDbRotatedDimension
  0
MTEXT
  5
57D
330
1F
100
AcDbEntity
  8
FORMAT
100
AcDbMText
 10
2309.482838192
 20
1998.7794207197
 30
0.0
 40
35.0
 41
0.0
 71
     2
 72
     1
  1
A-A
  7
SLDTEXTSTYLE0
 73
     1
 44
1.0
  0
MTEXT
  5
57E
330
1F
100
AcDbEntity
  8
FORMAT
100
AcDbMText
 10
2234.6668390531
 20
1320.452671969
 30
0.0
 40
18.5208333333
 41
0.0
 71
     1
 72
     1
  1
** Sturztiefe
  7
SLDTEXTSTYLE0
 73
     1
 44
1.0
  0
CIRCLE
  5
57F
330
1F
100
AcDbEntity
  8
0
  6
Continuous
 62
     7
370
    18
100
AcDbCircle
 10
2283.4447955868
 20
1713.3564401576
 30
0.0
 40
166.5838886937281
  0
MTEXT
  5
580
330
1F
100
AcDbEntity
  8
0
  6
Continuous
 62
     7
370
    18
100
AcDbMText
 10
2444.2486077282
 20
1845.5102636844
 30
0.0
 40
35.0
 41
0.0
 71
     1
 72
     1
  1
B
  7
SLDTEXTSTYLE0
 73
     1
 44
1.0
  0
LINE
  5
581
330
1F
100
AcDbEntity
  8
0
  6
Continuous
 62
     7
370
    25
100
AcDbLine
 10
2403.5304074887
 20
758.0896646616
 30
0.0
 11
2403.5304074887
 21
785.7480809924
 31
0.0
  0
LINE
  5
582
330
1F
100
AcDbEntity
  8
0
  6
Continuous
 62
     7
370
    25
100
AcDbLine
 10
2361.5304058197
 20
784.3480885861
 30
0.0
 11
2361.5304058197
 21
758.0896646616
 31
0.0
  0
LINE
  5
583
330
1F
100
AcDbEntity
  8
0
  6
Continuous
 62
     7
370
    25
100
AcDbLine
 10
2307.2804054025
 20
725.5480841634
 30
0.0
 11
2307.2804054025
 21
683.5480824945
 31
0.0
  0
LINE
  5
584
330
1F
100
AcDbEntity
  8
0
  6
Continuous
 62
     7
370
    25
100
AcDbLine
 10
2326.8804066594
 20
683.5480824945
 30
0.0
 11
2326.8804066594
 21
725.5480841634
 31
0.0
  0
LINE
  5
585
330
1F
100
AcDbEntity
  8
0
  6
Continuous
 62
     7
370
    25
100
AcDbLine
 10
2324.0804062005
 20
725.5480841634
 30
0.0
 11
2324.0804062005
 21
726.248085582
 31
0.0
  0
LINE
  5
586
330
1F
100
AcDbEntity
  8
0
  6
Continuous
 62
     7
370
    25
100
AcDbLine
 10
2310.0804058615
 20
726.248085582
 30
0.0
 11
2310.0804058615
 21
725.5480841634
 31
0.0
  0
LINE
  5
587
330
1F
100
AcDbEntity
  8
0
  6
Continuous
 62
     7
370
    25
100
AcDbLine
 10
2361.5304058197
 20
755.368088269
 30
0.0
 11
2361.5304058197
 21
740.2480826614
 31
0.0
  0
LINE
  5
588
330
1F
100
AcDbEntity
  8
0
  6
Continuous
 62
     7
370
    25
100
AcDbLine
 10
2403.5304074887
 20
727.6480884192
 30
0.0
 11
2403.5304074887
 21
755.368088269
 31
0.0
  0
LINE
  5
589
330
1F
100
AcDbEntity
  8
0
  6
Continuous
 62
     7
370
    25
100
AcDbLine
 10
2402.1304046515
 20
726.248085582
 30
0.0
 11
2403.5304074887
 21
727.6480884192
 31
0.0
  0
LINE
  5
58A
330
1F
100
AcDbEntity
  8
0
  6
Continuous
 62
     7
370
    25
100
AcDbLine
 10
2403.5304074887
 20
755.368088269
 30
0.0
 11
2403.2504079643
 21
755.6480825779
 31
0.0
  0
LINE
  5
58B
330
1F
100
AcDbEntity
  8
0
  6
Continuous
 62
     7
370
    25
100
AcDbLine
 10
2361.8104053441
 20
755.6480825779
 30
0.0
 11
2361.5304058197
 21
755.368088269
 31
0.0
  0
LWPOLYLINE
  5
58C
330
1F
100
AcDbEntity
  8
0
  6
Continuous
 62
     7
370
    25
100
AcDbPolyline
 90
       12
 70
   128
 43
0.0
 10
2370.5104125443
 20
756.7792625067
 10
2370.3564459238
 20
756.3605905411
 10
2370.0979755971
 20
756.029892051
 10
2369.9426268938
 20
755.9033975837
 10
2369.7832440737
 20
755.806244993
 10
2369.6343963745
 20
755.737860584
 10
2369.5103687945
 20
755.6938529846
 10
2369.4247709367
 20
755.6682453391
 10
2369.3905787322
 20
755.6551755307
 10
2369.4197406772
 20
755.6497097847
 10
2369.5217774961
 20
755.6481868861
 10
2369.6415858123
 20
755.6481138704
  0
LINE
  5
58D
330
1F
100
AcDbEntity
  8
0
  6
Continuous
 62
     7
370
    25
100
AcDbLine
 10
2370.7666011307
 20
758.0896646616
 30
0.0
 11
2370.4920282367
 21
756.6852182982
 31
0.0
  0
LWPOLYLINE
  5
58E
330
1F
100
AcDbEntity
  8
0
  6
Continuous
 62
     7
370
    25
100
AcDbPolyline
 90
        4
 70
   128
 43
0.0
 10
2396.8528201583
 20
755.6481138704
 10
2396.9082703594
 20
755.6481451628
 10
2396.9441523555
 20
755.6496159074
 10
2396.9431301359
 20
755.6498453853
  0
ARC
  5
58F
330
1F
100
AcDbEntity
  8
0
  6
Continuous
 62
     7
370
    25
100
AcDbCircle
 10
2397.1202183042
 20
757.0637096814
 30
0.0
 40
1.422836952146545
100
AcDbArc
 50
192.6136044467
 51
261.8336052733
  0
LWPOLYLINE
  5
590
330
1F
100
AcDbEntity
  8
0
  6
Continuous
 62
     7
370
    25
100
AcDbPolyline
 90
        3
 70
   128
 43
0.0
 10
2361.3173486445
 20
738.7675539491
 10
2361.2274871919
 20
738.2865057227
 10
2361.1072433892
 20
737.7428204653
  0
LINE
  5
591
330
1F
100
AcDbEntity
  8
0
  6
Continuous
 62
     7
370
    25
100
AcDbLine
 10
2395.7317268256
 20
756.75299772
 30
0.0
 11
2395.4436225596
 21
758.0896646616
 31
0.0
  0
ARC
  5
592
330
1F
100
AcDbEntity
  8
0
  6
Continuous
 62
     7
370
    25
100
AcDbCircle
 10
2357.3303254281
 20
740.2480915011
 30
0.0
 40
4.200080391684631
100
AcDbArc
 50
347.4492632116
 51
359.9998794123
  0
LINE
  5
593
330
1F
100
AcDbEntity
  8
0
  6
Continuous
 62
     7
370
    25
100
AcDbLine
 10
2369.6171907488
 20
758.0896646616
 30
0.0
 11
2369.3290890905
 21
756.75299772
 31
0.0
  0
ARC
  5
594
330
1F
100
AcDbEntity
  8
0
  6
Continuous
 62
     7
370
    25
100
AcDbCircle
 10
2367.8872622678
 20
757.0942002596
 30
0.0
 40
1.481649000182453
100
AcDbArc
 50
282.573099882
 51
346.6861088127
  0
LINE
  5
595
330
1F
100
AcDbEntity
  8
0
  6
Continuous
 62
     7
370
    25
100
AcDbLine
 10
2301.6804070923
 20
727.6480884192
 30
0.0
 11
2303.0804073218
 21
726.248085582
 31
0.0
  0
LINE
  5
596
330
1F
100
AcDbEntity
  8
0
  6
Continuous
 62
     7
370
    25
100
AcDbLine
 10
2303.0804073218
 20
736.0480845806
 30
0.0
 11
2301.6804070923
 21
734.6480817435
 31
0.0
  0
LINE
  5
597
330
1F
100
AcDbEntity
  8
0
  6
Continuous
 62
     7
370
    25
100
AcDbLine
 10
2301.6804070923
 20
734.6480817435
 30
0.0
 11
2301.6804070923
 21
727.6480884192
 31
0.0
  0
LINE
  5
598
330
1F
100
AcDbEntity
  8
0
  6
Continuous
 62
     7
370
    25
100
AcDbLine
 10
2414.7304041091
 20
918.7480897543
 30
0.0
 11
2414.7304041091
 21
920.1480925915
 31
0.0
  0
ARC
  5
599
330
1F
100
AcDbEntity
  8
0
  6
Continuous
 62
     7
370
    18
100
AcDbCircle
 10
2268.355043481
 20
803.172873759
 30
0.0
 40
233.2175209252847
100
AcDbArc
 50
253.0928642785
 51
277.4341824981
  0
LINE
  5
59A
330
1F
100
AcDbEntity
  8
0
  6
Continuous
 62
     7
370
    25
100
AcDbLine
 10
2298.530405924
 20
571.9157450733
 30
0.0
 11
2298.530405924
 21
660.4480852274
 31
0.0
  0
LINE
  5
59B
330
1F
100
AcDbEntity
  8
0
  6
Continuous
 62
     7
370
    25
100
AcDbLine
 10
2298.530405924
 20
682.8480862913
 30
0.0
 11
2298.530405924
 21
720.6480846641
 31
0.0
  0
LINE
  5
59C
330
1F
100
AcDbEntity
  8
0
  6
Continuous
 62
     7
370
    25
100
AcDbLine
 10
2242.5304097834
 20
685.6480867502
 30
0.0
 11
2242.5304097834
 21
720.6480846641
 31
0.0
  0
LINE
  5
59D
330
1F
100
AcDbEntity
  8
0
  6
Continuous
 62
     7
370
    25
100
AcDbLine
 10
2242.5304097834
 20
720.6480846641
 30
0.0
 11
2298.530405924
 21
720.6480846641
 31
0.0
  0
LINE
  5
59E
330
1F
100
AcDbEntity
  8
0
  6
Continuous
 62
     7
370
    25
100
AcDbLine
 10
2200.5304081145
 20
580.0356269715
 30
0.0
 11
2200.5304081145
 21
685.6480867502
 31
0.0
  0
LINE
  5
59F
330
1F
100
AcDbEntity
  8
0
  6
Continuous
 62
     7
370
    25
100
AcDbLine
 10
2200.5304081145
 20
685.6480867502
 30
0.0
 11
2242.5304097834
 21
685.6480867502
 31
0.0
  0
LINE
  5
5A0
330
1F
100
AcDbEntity
  8
0
  6
Continuous
 62
     7
370
    25
100
AcDbLine
 10
2298.530405924
 20
972.6480842469
 30
0.0
 11
2298.530405924
 21
918.7480897543
 31
0.0
  0
LINE
  5
5A1
330
1F
100
AcDbEntity
  8
0
  6
Continuous
 62
     7
370
    25
100
AcDbLine
 10
2298.530405924
 20
785.7480809924
 30
0.0
 11
2298.530405924
 21
727.6480884192
 31
0.0
  0
LINE
  5
5A2
330
1F
100
AcDbEntity
  8
0
  6
Continuous
 62
     7
370
    25
100
AcDbLine
 10
2298.530405924
 20
727.6480884192
 30
0.0
 11
2242.5304097834
 21
727.6480884192
 31
0.0
  0
LINE
  5
5A3
330
1F
100
AcDbEntity
  8
0
  6
Continuous
 62
     7
370
    25
100
AcDbLine
 10
2242.5304097834
 20
727.6480884192
 30
0.0
 11
2242.5304097834
 21
692.6480852899
 31
0.0
  0
LINE
  5
5A4
330
1F
100
AcDbEntity
  8
0
  6
Continuous
 62
     7
370
    25
100
AcDbLine
 10
2200.5304081145
 20
972.6480842469
 30
0.0
 11
2298.530405924
 21
972.6480842469
 31
0.0
  0
LINE
  5
5A5
330
1F
100
AcDbEntity
  8
0
  6
Continuous
 62
     7
370
    25
100
AcDbLine
 10
2200.5304081145
 20
972.6480842469
 30
0.0
 11
2200.5304081145
 21
692.6480852899
 31
0.0
  0
LINE
  5
5A6
330
1F
100
AcDbEntity
  8
0
  6
Continuous
 62
     7
370
    25
100
AcDbLine
 10
2242.5304097834
 20
692.6480852899
 30
0.0
 11
2200.5304081145
 21
692.6480852899
 31
0.0
  0
LINE
  5
5A7
330
1F
100
AcDbEntity
  8
0
  6
Continuous
 62
     7
370
    25
100
AcDbLine
 10
2200.5304081145
 20
685.6480867502
 30
0.0
 11
2200.5304081145
 21
692.6480852899
 31
0.0
  0
LINE
  5
5A8
330
1F
100
AcDbEntity
  8
0
  6
Continuous
 62
     7
370
    25
100
AcDbLine
 10
2298.530405924
 20
720.6480846641
 30
0.0
 11
2298.530405924
 21
727.6480884192
 31
0.0
  0
LINE
  5
5A9
330
1F
100
AcDbEntity
  8
0
  6
Continuous
 62
     7
370
    25
100
AcDbLine
 10
2402.830995411
 20
758.0896646616
 30
0.0
 11
2403.5304074887
 21
758.0896646616
 31
0.0
  0
LINE
  5
5AA
330
1F
100
AcDbEntity
  8
0
  6
Continuous
 62
     7
370
    25
100
AcDbLine
 10
2361.5304058197
 20
758.0896646616
 30
0.0
 11
2402.830995411
 21
758.0896646616
 31
0.0
  0
LINE
  5
5AB
330
1F
100
AcDbEntity
  8
0
  6
Continuous
 62
     7
370
    25
100
AcDbLine
 10
2326.8804066594
 20
725.5480841634
 30
0.0
 11
2307.2804054025
 21
725.5480841634
 31
0.0
  0
LINE
  5
5AC
330
1F
100
AcDbEntity
  8
0
  6
Continuous
 62
     7
370
    25
100
AcDbLine
 10
2403.5304074887
 20
727.6480884192
 30
0.0
 11
2361.6743275675
 21
727.6480884192
 31
0.0
  0
LINE
  5
5AD
330
1F
100
AcDbEntity
  8
0
  6
Continuous
 62
     7
370
    25
100
AcDbLine
 10
2361.6743275675
 20
727.6480884192
 30
0.0
 11
2361.6743275675
 21
740.2480826614
 31
0.0
  0
LINE
  5
5AE
330
1F
100
AcDbEntity
  8
0
  6
Continuous
 62
     7
370
    25
100
AcDbLine
 10
2403.5304074887
 20
755.368088269
 30
0.0
 11
2361.5304058197
 21
755.368088269
 31
0.0
  0
LINE
  5
5AF
330
1F
100
AcDbEntity
  8
0
  6
Continuous
 62
     7
370
    25
100
AcDbLine
 10
2402.1304046515
 20
726.248085582
 30
0.0
 11
2363.0647314492
 21
726.248085582
 31
0.0
  0
LINE
  5
5B0
330
1F
100
AcDbEntity
  8
0
  6
Continuous
 62
     7
370
    25
100
AcDbLine
 10
2363.0647314492
 20
726.248085582
 30
0.0
 11
2361.6743275675
 21
727.6480884192
 31
0.0
  0
LINE
  5
5B1
330
1F
100
AcDbEntity
  8
0
  6
Continuous
 62
     7
370
    25
100
AcDbLine
 10
2403.2504079643
 20
755.6480825779
 30
0.0
 11
2361.8104053441
 21
755.6480825779
 31
0.0
  0
LWPOLYLINE
  5
5B2
330
1F
100
AcDbEntity
  8
0
  6
Continuous
 62
     7
370
    25
100
AcDbPolyline
 90
        9
 70
   128
 43
0.0
 10
2379.903797597
 20
755.6480825779
 10
2379.7836815718
 20
755.6698829768
 10
2379.6673102084
 20
755.7346166012
 10
2379.5583029989
 20
755.8402598736
 10
2379.4600551728
 20
755.9835166571
 10
2379.3756333891
 20
756.1599329946
 10
2379.3076609972
 20
756.3640118477
 10
2379.2582502368
 20
756.5894008515
 10
2379.228955299
 20
756.8290800688
  0
ARC
  5
5B3
330
1F
100
AcDbEntity
  8
0
  6
Continuous
 62
     7
370
    25
100
AcDbCircle
 10
2377.1936176462
 20
756.9326625749
 30
0.0
 40
1.286810293104913
100
AcDbArc
 50
273.3738391676
 51
355.3829493041
  0
ARC
  5
5B4
330
1F
100
AcDbEntity
  8
0
  6
Continuous
 62
     7
370
    25
100
AcDbCircle
 10
2378.8526037488
 20
757.5758553299
 30
0.0
 40
0.8362498310881333
100
AcDbArc
 50
243.2533141581
 51
296.746685842
  0
LWPOLYLINE
  5
5B5
330
1F
100
AcDbEntity
  8
0
  6
Continuous
 62
     7
370
    25
100
AcDbPolyline
 90
        3
 70
   128
 43
0.0
 10
2383.6557036045
 20
755.9835166571
 10
2383.7879663113
 20
755.7346166012
 10
2383.9494665864
 20
755.6480825779
  0
LINE
  5
5B6
330
1F
100
AcDbEntity
  8
0
  6
Continuous
 62
     7
370
    25
100
AcDbLine
 10
2379.228955299
 20
756.8290800688
 30
0.0
 11
2383.5745727423
 21
756.8290800688
 31
0.0
  0
LWPOLYLINE
  5
5B7
330
1F
100
AcDbEntity
  8
0
  6
Continuous
 62
     7
370
    25
100
AcDbPolyline
 90
        3
 70
   128
 43
0.0
 10
2383.5745727423
 20
756.8290800688
 10
2383.5782913271
 20
756.3640118477
 10
2383.6557036045
 20
755.9835166571
  0
LWPOLYLINE
  5
5B8
330
1F
100
AcDbEntity
  8
0
  6
Continuous
 62
     7
370
    25
100
AcDbPolyline
 90
        3
 70
   128
 43
0.0
 10
2384.0315049294
 20
755.9835166571
 10
2384.0337944928
 20
756.3640118477
 10
2383.9950022999
 20
756.8290800688
  0
LINE
  5
5B9
330
1F
100
AcDbEntity
  8
0
  6
Continuous
 62
     7
370
    25
100
AcDbLine
 10
2383.9950022999
 20
756.8290800688
 30
0.0
 11
2388.7859841588
 21
756.8290800688
 31
0.0
  0
LWPOLYLINE
  5
5BA
330
1F
100
AcDbEntity
  8
0
  6
Continuous
 62
     7
370
    25
100
AcDbPolyline
 90
        9
 70
   128
 43
0.0
 10
2388.7859841588
 20
756.8290800688
 10
2388.7696495059
 20
756.5894008515
 10
2388.7421069446
 20
756.3640118477
 10
2388.7042118016
 20
756.1599329946
 10
2388.6571479741
 20
755.9835166571
 10
2388.6023757759
 20
755.8402598736
 10
2388.5416006449
 20
755.7346166012
 10
2388.4767262045
 20
755.6698829768
 10
2388.4097603861
 20
755.6480825779
  0
LWPOLYLINE
  5
5BB
330
1F
100
AcDbEntity
  8
0
  6
Continuous
 62
     7
370
    25
100
AcDbPolyline
 90
        3
 70
   128
 43
0.0
 10
2383.9494665864
 20
755.6480825779
 10
2383.9986322227
 20
755.7346166012
 10
2384.0315049294
 20
755.9835166571
  0
LWPOLYLINE
  5
5BC
330
1F
100
AcDbEntity
  8
0
  6
Continuous
 62
     7
370
    25
100
AcDbPolyline
 90
        3
 70
   128
 43
0.0
 10
2375.7169423405
 20
755.9835166571
 10
2375.9475650046
 20
756.3640118477
 10
2376.0463943485
 20
756.8290800688
  0
LINE
  5
5BD
330
1F
100
AcDbEntity
  8
0
  6
Continuous
 62
     7
370
    25
100
AcDbLine
 10
2376.0463943485
 20
756.8290800688
 30
0.0
 11
2378.4762521985
 21
756.8290800688
 31
0.0
  0
LWPOLYLINE
  5
5BE
330
1F
100
AcDbEntity
  8
0
  6
Continuous
 62
     7
370
    25
100
AcDbPolyline
 90
        3
 70
   128
 43
0.0
 10
2375.0072063658
 20
755.6480825779
 10
2375.3882152739
 20
755.7346166012
 10
2375.7169423405
 20
755.9835166571
  0
ARC
  5
5BF
330
1F
100
AcDbEntity
  8
0
  6
Continuous
 62
     7
370
    25
100
AcDbCircle
 10
2390.8206634266
 20
757.0122080019
 30
0.0
 40
1.364292486409306
100
AcDbArc
 50
187.7140525004
 51
269.1033401462
  0
LWPOLYLINE
  5
5C0
330
1F
100
AcDbEntity
  8
0
  6
Continuous
 62
     7
370
    25
100
AcDbPolyline
 90
        8
 70
   128
 43
0.0
 10
2388.7859841588
 20
756.8290800688
 10
2389.0013022128
 20
756.7662552831
 10
2389.1134073737
 20
756.7482517001
 10
2389.2175955478
 20
756.7422018287
 10
2389.3085470203
 20
756.7483560083
 10
2389.3777815405
 20
756.7648262617
 10
2389.43231383
 20
756.7917168972
 10
2389.4687173668
 20
756.8290800688
  0
LWPOLYLINE
  5
5C1
330
1F
100
AcDbEntity
  8
0
  6
Continuous
 62
     7
370
    25
100
AcDbPolyline
 90
        3
 70
   128
 43
0.0
 10
2391.2322861853
 20
755.9835166571
 10
2391.6175534728
 20
755.7346166012
 10
2392.0604562167
 20
755.6480825779
  0
LINE
  5
5C2
330
1F
100
AcDbEntity
  8
0
  6
Continuous
 62
     7
370
    25
100
AcDbLine
 10
2389.4687173668
 20
756.8290800688
 30
0.0
 11
2390.8233618143
 21
756.8290800688
 31
0.0
  0
LWPOLYLINE
  5
5C3
330
1F
100
AcDbEntity
  8
0
  6
Continuous
 62
     7
370
    25
100
AcDbPolyline
 90
        3
 70
   128
 43
0.0
 10
2390.8233618143
 20
756.8290800688
 10
2390.9551759961
 20
756.3640118477
 10
2391.2322861853
 20
755.9835166571
  0
ARC
  5
5C4
330
1F
100
AcDbEntity
  8
0
  6
Continuous
 62
     7
370
    25
100
AcDbCircle
 10
2381.8369701114
 20
757.4567970085
 30
0.0
 40
2.340586788121322
100
AcDbArc
 50
320.9905069009
 51
327.6226575387
  0
ARC
  5
5C5
330
1F
100
AcDbEntity
  8
0
  6
Continuous
 62
     7
370
    25
100
AcDbCircle
 10
2385.0151564224
 20
757.1756164929
 30
0.0
 40
1.545533007800275
100
AcDbArc
 50
218.9786120623
 51
230.4725322906
  0
LINE
  5
5C6
330
1F
100
AcDbEntity
  8
0
  6
Continuous
 62
     7
370
    25
100
AcDbLine
 10
2383.7802579406
 20
756.8115250108
 30
0.0
 11
2383.5745727423
 21
756.8290800688
 31
0.0
  0
ARC
  5
5C7
330
1F
100
AcDbEntity
  8
0
  6
Continuous
 62
     7
370
    25
100
AcDbCircle
 10
2392.6778165672
 20
756.9957118801
 30
0.0
 40
8.899464833128148
100
AcDbArc
 50
181.1859009485
 51
185.107567279
  0
LINE
  5
5C8
330
1F
100
AcDbEntity
  8
0
  6
Continuous
 62
     7
370
    25
100
AcDbLine
 10
2383.9950022999
 20
756.8290800688
 30
0.0
 11
2383.7802579406
 21
756.8115250108
 31
0.0
  0
LWPOLYLINE
  5
5C9
330
1F
100
AcDbEntity
  8
0
  6
Continuous
 62
     7
370
    25
100
AcDbPolyline
 90
        3
 70
   128
 43
0.0
 10
2375.4199379835
 20
755.9835166571
 10
2375.2217212472
 20
755.7346166012
 10
2375.0072063658
 20
755.6480825779
  0
LWPOLYLINE
  5
5CA
330
1F
100
AcDbEntity
  8
0
  6
Continuous
 62
     7
370
    25
100
AcDbPolyline
 90
        9
 70
   128
 43
0.0
 10
2370.5469099584
 20
755.6480825779
 10
2370.6138757769
 20
755.6698829768
 10
2370.678752825
 20
755.7346166012
 10
2370.7395227406
 20
755.8402598736
 10
2370.7942949388
 20
755.9835166571
 10
2370.8413639817
 20
756.1599329946
 10
2370.8792591247
 20
756.3640118477
 10
2370.906801686
 20
756.5894008515
 10
2370.9231363389
 20
756.8290800688
  0
LINE
  5
5CB
330
1F
100
AcDbEntity
  8
0
  6
Continuous
 62
     7
370
    25
100
AcDbLine
 10
2370.9231363389
 20
756.8290800688
 30
0.0
 11
2375.7141234133
 21
756.8290800688
 31
0.0
  0
LWPOLYLINE
  5
5CC
330
1F
100
AcDbEntity
  8
0
  6
Continuous
 62
     7
370
    25
100
AcDbPolyline
 90
        3
 70
   128
 43
0.0
 10
2375.7141234133
 20
756.8290800688
 10
2375.5875715766
 20
756.3640118477
 10
2375.4199379835
 20
755.9835166571
  0
ARC
  5
5CD
330
1F
100
AcDbEntity
  8
0
  6
Continuous
 62
     7
370
    25
100
AcDbCircle
 10
2374.7506776742
 20
757.2425260506
 30
0.0
 40
1.425838004287565
100
AcDbArc
 50
297.9940797642
 51
313.2172910585
  0
ARC
  5
5CE
330
1F
100
AcDbEntity
  8
0
  6
Continuous
 62
     7
370
    25
100
AcDbCircle
 10
2375.0748525176
 20
756.1232010981
 30
0.0
 40
0.6571081217213111
100
AcDbArc
 50
347.7267317184
 51
7.0129183796
  0
ARC
  5
5CF
330
1F
100
AcDbEntity
  8
0
  6
Continuous
 62
     7
370
    25
100
AcDbCircle
 10
2374.0226064665
 20
757.0309032979
 30
0.0
 40
1.894682613117804
100
AcDbArc
 50
334.1042672461
 51
353.3510203759
  0
LINE
  5
5D0
330
1F
100
AcDbEntity
  8
0
  6
Continuous
 62
     7
370
    25
100
AcDbLine
 10
2376.0463943485
 20
756.8290800688
 30
0.0
 11
2375.9045483324
 21
756.8115250108
 31
0.0
  0
LINE
  5
5D1
330
1F
100
AcDbEntity
  8
0
  6
Continuous
 62
     7
370
    25
100
AcDbLine
 10
2375.9045483324
 20
756.8115250108
 30
0.0
 11
2375.7141234133
 21
756.8290800688
 31
0.0
  0
LINE
  5
5D2
330
1F
100
AcDbEntity
  8
0
  6
Continuous
 62
     7
370
    25
100
AcDbLine
 10
2369.4077426347
 20
755.66312381
 30
0.0
 11
2369.2107906345
 21
755.6480825779
 31
0.0
  0
LWPOLYLINE
  5
5D3
330
1F
100
AcDbEntity
  8
0
  6
Continuous
 62
     7
370
    25
100
AcDbPolyline
 90
        8
 70
   128
 43
0.0
 10
2370.541386843
 20
756.8290800688
 10
2370.5106837455
 20
756.7662552831
 10
2370.5298399332
 20
756.7482517001
 10
2370.5735085312
 20
756.7422018287
 10
2370.6394286606
 20
756.7483560083
 10
2370.7175215486
 20
756.7648262617
 10
2370.8126714233
 20
756.7917168972
 10
2370.9231363389
 20
756.8290800688
  0
LWPOLYLINE
  5
5D4
330
1F
100
AcDbEntity
  8
0
  6
Continuous
 62
     7
370
    25
100
AcDbPolyline
 90
        3
 70
   128
 43
0.0
 10
2391.4667447809
 20
755.9835166571
 10
2391.2393582764
 20
756.3640118477
 10
2391.0856654647
 20
756.8290800688
  0
LINE
  5
5D5
330
1F
100
AcDbEntity
  8
0
  6
Continuous
 62
     7
370
    25
100
AcDbLine
 10
2391.0856654647
 20
756.8290800688
 30
0.0
 11
2395.4312881235
 21
756.8290800688
 31
0.0
  0
LWPOLYLINE
  5
5D6
330
1F
100
AcDbEntity
  8
0
  6
Continuous
 62
     7
370
    25
100
AcDbPolyline
 90
        9
 70
   128
 43
0.0
 10
2395.4312881235
 20
756.8290800688
 10
2395.4605830613
 20
756.5894008515
 10
2395.5099938217
 20
756.3640118477
 10
2395.5779662135
 20
756.1599329946
 10
2395.6623879972
 20
755.9835166571
 10
2395.7606358233
 20
755.8402598736
 10
2395.8696430329
 20
755.7346166012
 10
2395.9860143963
 20
755.6698829768
 10
2396.1061304215
 20
755.6480825779
  0
LWPOLYLINE
  5
5D7
330
1F
100
AcDbEntity
  8
0
  6
Continuous
 62
     7
370
    25
100
AcDbPolyline
 90
        3
 70
   128
 43
0.0
 10
2392.0604562167
 20
755.6480825779
 10
2391.74898693
 20
755.7346166012
 10
2391.4667447809
 20
755.9835166571
  0
ARC
  5
5D8
330
1F
100
AcDbEntity
  8
0
  6
Continuous
 62
     7
370
    25
100
AcDbCircle
 10
2391.6422687132
 20
756.2654124464
 30
0.0
 40
0.4975448815719427
100
AcDbArc
 50
187.156365125
 51
214.5116356522
  0
ARC
  5
5D9
330
1F
100
AcDbEntity
  8
0
  6
Continuous
 62
     7
370
    25
100
AcDbCircle
 10
2392.0470015596
 20
757.163051061
 30
0.0
 40
1.314533886739791
100
AcDbArc
 50
226.8871491223
 51
243.8057138088
  0
LINE
  5
5DA
330
1F
100
AcDbEntity
  8
0
  6
Continuous
 62
     7
370
    25
100
AcDbLine
 10
2390.9238209728
 20
756.8115250108
 30
0.0
 11
2390.8233618143
 21
756.8290800688
 31
0.0
  0
ARC
  5
5DB
330
1F
100
AcDbEntity
  8
0
  6
Continuous
 62
     7
370
    25
100
AcDbCircle
 10
2392.5105485928
 20
757.0524573747
 30
0.0
 40
1.604915245175262
100
AcDbArc
 50
188.6339706115
 51
211.9390801209
  0
LINE
  5
5DC
330
1F
100
AcDbEntity
  8
0
  6
Continuous
 62
     7
370
    25
100
AcDbLine
 10
2391.0856654647
 20
756.8290800688
 30
0.0
 11
2390.9238209728
 21
756.8115250108
 31
0.0
  0
LWPOLYLINE
  5
5DD
330
1F
100
AcDbEntity
  8
0
  6
Continuous
 62
     7
370
    25
100
AcDbPolyline
 90
        9
 70
   128
 43
0.0
 10
2395.4312881235
 20
756.8290800688
 10
2395.5324096385
 20
756.7911014793
 10
2395.6140724722
 20
756.7639709351
 10
2395.6746494177
 20
756.7475945589
 10
2395.7134416107
 20
756.7420766589
 10
2395.7308871451
 20
756.7475841281
 10
2395.7260785404
 20
756.7639605043
 10
2395.6974250975
 20
756.7910910485
 10
2395.6441132131
 20
756.8290800688
  0
ARC
  5
5DE
330
1F
100
AcDbEntity
  8
0
  6
Continuous
 62
     7
370
    25
100
AcDbCircle
 10
2370.6781331649
 20
737.3393621551
 30
0.0
 40
9.46198553254607
100
AcDbArc
 50
162.0967124178
 51
171.737705803
  0
LWPOLYLINE
  5
5DF
330
1F
100
AcDbEntity
  8
0
  6
Continuous
 62
     7
370
    25
100
AcDbPolyline
 90
       11
 70
   128
 43
0.0
 10
2361.6743275675
 20
740.2480826614
 10
2361.6742936674
 20
740.2479470608
 10
2361.6740433279
 20
740.2468413946
 10
2361.6733496788
 20
740.2437121508
 10
2361.6707315448
 20
740.2318105933
 10
2361.6605797562
 20
740.1854143379
 10
2361.3634867373
 20
738.8411433337
 10
2361.0737083259
 20
737.6064897415
 10
2360.7961939427
 20
736.5545422671
 10
2360.3245699558
 20
735.2127746579
 10
2359.8231216672
 20
734.6480817435
  0
LINE
  5
5E0
330
1F
100
AcDbEntity
  8
0
  6
Continuous
 62
     7
370
    25
100
AcDbLine
 10
2361.6743275675
 20
727.6480884192
 30
0.0
 11
2327.2359630804
 21
727.6480884192
 31
0.0
  0
LINE
  5
5E1
330
1F
100
AcDbEntity
  8
0
  6
Continuous
 62
     7
370
    25
100
AcDbLine
 10
2327.2359630804
 20
734.6480817435
 30
0.0
 11
2327.2359630804
 21
727.6480884192
 31
0.0
  0
LINE
  5
5E2
330
1F
100
AcDbEntity
  8
0
  6
Continuous
 62
     7
370
    25
100
AcDbLine
 10
2359.8231216672
 20
734.6480817435
 30
0.0
 11
2327.2359630804
 21
734.6480817435
 31
0.0
  0
LINE
  5
5E3
330
1F
100
AcDbEntity
  8
0
  6
Continuous
 62
     7
370
    25
100
AcDbLine
 10
2328.6263685919
 20
726.248085582
 30
0.0
 11
2327.2359630804
 21
727.6480884192
 31
0.0
  0
LINE
  5
5E4
330
1F
100
AcDbEntity
  8
0
  6
Continuous
 62
     7
370
    25
100
AcDbLine
 10
2363.0647314492
 20
726.248085582
 30
0.0
 11
2328.6263685919
 21
726.248085582
 31
0.0
  0
ARC
  5
5E5
330
1F
100
AcDbEntity
  8
0
  6
Continuous
 62
     7
370
    25
100
AcDbCircle
 10
2368.1340637035
 20
756.9326672869
 30
0.0
 40
1.28681510512569
100
AcDbArc
 50
273.3739085809
 51
355.3827561237
  0
LINE
  5
5E6
330
1F
100
AcDbEntity
  8
0
  6
Continuous
 62
     7
370
    25
100
AcDbLine
 10
2328.6263685919
 20
736.0480845806
 30
0.0
 11
2327.2359630804
 21
734.6480817435
 31
0.0
  0
LINE
  5
5E7
330
1F
100
AcDbEntity
  8
0
  6
Continuous
 62
     7
370
    25
100
AcDbLine
 10
2328.6263685919
 20
736.0480845806
 30
0.0
 11
2360.6181764755
 21
736.0480845806
 31
0.0
  0
LINE
  5
5E8
330
1F
100
AcDbEntity
  8
0
  6
Continuous
 62
     7
370
    25
100
AcDbLine
 10
2327.0785053972
 20
727.6480884192
 30
0.0
 11
2327.2359630804
 21
727.6480884192
 31
0.0
  0
LINE
  5
5E9
330
1F
100
AcDbEntity
  8
0
  6
Continuous
 62
     7
370
    25
100
AcDbLine
 10
2327.0785053972
 20
727.6480884192
 30
0.0
 11
2327.0785053972
 21
734.6480817435
 31
0.0
  0
LINE
  5
5EA
330
1F
100
AcDbEntity
  8
0
  6
Continuous
 62
     7
370
    25
100
AcDbLine
 10
2327.2359630804
 20
734.6480817435
 30
0.0
 11
2327.0785053972
 21
734.6480817435
 31
0.0
  0
LINE
  5
5EB
330
1F
100
AcDbEntity
  8
0
  6
Continuous
 62
     7
370
    25
100
AcDbLine
 10
2328.4720600362
 20
726.248085582
 30
0.0
 11
2327.0785053972
 21
727.6480884192
 31
0.0
  0
LINE
  5
5EC
330
1F
100
AcDbEntity
  8
0
  6
Continuous
 62
     7
370
    25
100
AcDbLine
 10
2328.6263685919
 20
726.248085582
 30
0.0
 11
2328.4720600362
 21
726.248085582
 31
0.0
  0
LINE
  5
5ED
330
1F
100
AcDbEntity
  8
0
  6
Continuous
 62
     7
370
    25
100
AcDbLine
 10
2327.0785053972
 20
734.6480817435
 30
0.0
 11
2328.4720600362
 21
736.0480845806
 31
0.0
  0
LINE
  5
5EE
330
1F
100
AcDbEntity
  8
0
  6
Continuous
 62
     7
370
    25
100
AcDbLine
 10
2328.4720600362
 20
736.0480845806
 30
0.0
 11
2328.6263685919
 21
736.0480845806
 31
0.0
  0
LINE
  5
5EF
330
1F
100
AcDbEntity
  8
0
  6
Continuous
 62
     7
370
    25
100
AcDbLine
 10
2303.144861922
 20
726.248085582
 30
0.0
 11
2301.7513079348
 21
727.6480884192
 31
0.0
  0
LINE
  5
5F0
330
1F
100
AcDbEntity
  8
0
  6
Continuous
 62
     7
370
    25
100
AcDbLine
 10
2327.0785053972
 20
727.6480884192
 30
0.0
 11
2301.7513079348
 21
727.6480884192
 31
0.0
  0
LINE
  5
5F1
330
1F
100
AcDbEntity
  8
0
  6
Continuous
 62
     7
370
    25
100
AcDbLine
 10
2328.4720600362
 20
726.248085582
 30
0.0
 11
2303.144861922
 21
726.248085582
 31
0.0
  0
LINE
  5
5F2
330
1F
100
AcDbEntity
  8
0
  6
Continuous
 62
     7
370
    25
100
AcDbLine
 10
2301.7513079348
 20
734.6480817435
 30
0.0
 11
2303.144861922
 21
736.0480845806
 31
0.0
  0
LINE
  5
5F3
330
1F
100
AcDbEntity
  8
0
  6
Continuous
 62
     7
370
    25
100
AcDbLine
 10
2327.0785053972
 20
734.6480817435
 30
0.0
 11
2301.7513079348
 21
734.6480817435
 31
0.0
  0
LINE
  5
5F4
330
1F
100
AcDbEntity
  8
0
  6
Continuous
 62
     7
370
    25
100
AcDbLine
 10
2303.144861922
 20
736.0480845806
 30
0.0
 11
2328.4720600362
 21
736.0480845806
 31
0.0
  0
LINE
  5
5F5
330
1F
100
AcDbEntity
  8
0
  6
Continuous
 62
     7
370
    25
100
AcDbLine
 10
2301.7513079348
 20
727.6480884192
 30
0.0
 11
2301.7513079348
 21
734.6480817435
 31
0.0
  0
LINE
  5
5F6
330
1F
100
AcDbEntity
  8
0
  6
Continuous
 62
     7
370
    25
100
AcDbLine
 10
2301.7513079348
 20
727.6480884192
 30
0.0
 11
2301.6804070923
 21
727.6480884192
 31
0.0
  0
LINE
  5
5F7
330
1F
100
AcDbEntity
  8
0
  6
Continuous
 62
     7
370
    25
100
AcDbLine
 10
2303.144861922
 20
726.248085582
 30
0.0
 11
2303.0804073218
 21
726.248085582
 31
0.0
  0
LINE
  5
5F8
330
1F
100
AcDbEntity
  8
0
  6
Continuous
 62
     7
370
    25
100
AcDbLine
 10
2301.7513079348
 20
734.6480817435
 30
0.0
 11
2301.6804070923
 21
734.6480817435
 31
0.0
  0
LINE
  5
5F9
330
1F
100
AcDbEntity
  8
0
  6
Continuous
 62
     7
370
    25
100
AcDbLine
 10
2303.0804073218
 20
736.0480845806
 30
0.0
 11
2303.144861922
 21
736.0480845806
 31
0.0
  0
LINE
  5
5FA
330
1F
100
AcDbEntity
  8
0
  6
Continuous
 62
     7
370
    25
100
AcDbLine
 10
2298.530405924
 20
660.4480852274
 30
0.0
 11
2299.2304073426
 21
660.4480852274
 31
0.0
  0
LINE
  5
5FB
330
1F
100
AcDbEntity
  8
0
  6
Continuous
 62
     7
370
    25
100
AcDbLine
 10
2299.2304073426
 20
660.4480852274
 30
0.0
 11
2299.2304073426
 21
659.7480838088
 31
0.0
  0
ARC
  5
5FC
330
1F
100
AcDbEntity
  8
0
  6
Continuous
 62
     7
370
    25
100
AcDbCircle
 10
2299.230406594
 20
660.4480844787
 30
0.0
 40
0.7000006699581174
100
AcDbArc
 50
179.9999387236
 51
270.0000612764
  0
LINE
  5
5FD
330
1F
100
AcDbEntity
  8
0
  6
Continuous
 62
     7
370
    25
100
AcDbLine
 10
2299.2304073426
 20
660.4480852274
 30
0.0
 11
2337.0304063674
 21
660.4480852274
 31
0.0
  0
LINE
  5
5FE
330
1F
100
AcDbEntity
  8
0
  6
Continuous
 62
     7
370
    25
100
AcDbLine
 10
2299.2304073426
 20
682.8480862913
 30
0.0
 11
2299.2304073426
 21
660.4480852274
 31
0.0
  0
LINE
  5
5FF
330
1F
100
AcDbEntity
  8
0
  6
Continuous
 62
     7
370
    25
100
AcDbLine
 10
2337.0304063674
 20
682.8480862913
 30
0.0
 11
2299.2304073426
 21
682.8480862913
 31
0.0
  0
LINE
  5
600
330
1F
100
AcDbEntity
  8
0
  6
Continuous
 62
     7
370
    25
100
AcDbLine
 10
2337.0304063674
 20
660.4480852274
 30
0.0
 11
2337.0304063674
 21
682.8480862913
 31
0.0
  0
LINE
  5
601
330
1F
100
AcDbEntity
  8
0
  6
Continuous
 62
     7
370
    25
100
AcDbLine
 10
2299.2304073426
 20
682.8480862913
 30
0.0
 11
2298.530405924
 21
682.8480862913
 31
0.0
  0
LINE
  5
602
330
1F
100
AcDbEntity
  8
0
  6
Continuous
 62
     7
370
    25
100
AcDbLine
 10
2298.530405924
 20
682.8480862913
 30
0.0
 11
2298.530405924
 21
660.4480852274
 31
0.0
  0
LINE
  5
603
330
1F
100
AcDbEntity
  8
0
  6
Continuous
 62
     7
370
    25
100
AcDbLine
 10
2337.0304063674
 20
659.7480838088
 30
0.0
 11
2337.0304063674
 21
660.4480852274
 31
0.0
  0
LINE
  5
604
330
1F
100
AcDbEntity
  8
0
  6
Continuous
 62
     7
370
    25
100
AcDbLine
 10
2299.2304073426
 20
659.7480838088
 30
0.0
 11
2337.0304063674
 21
659.7480838088
 31
0.0
  0
LINE
  5
605
330
1F
100
AcDbEntity
  8
0
  6
Continuous
 62
     7
370
    25
100
AcDbLine
 10
2337.0304063674
 20
682.8480862913
 30
0.0
 11
2337.0304063674
 21
683.5480824945
 31
0.0
  0
LINE
  5
606
330
1F
100
AcDbEntity
  8
0
  6
Continuous
 62
     7
370
    25
100
AcDbLine
 10
2299.2304073426
 20
683.5480824945
 30
0.0
 11
2299.2304073426
 21
682.8480862913
 31
0.0
  0
LINE
  5
607
330
1F
100
AcDbEntity
  8
0
  6
Continuous
 62
     7
370
    25
100
AcDbLine
 10
2337.0304063674
 20
683.5480824945
 30
0.0
 11
2299.2304073426
 21
683.5480824945
 31
0.0
  0
ARC
  5
608
330
1F
100
AcDbEntity
  8
0
  6
Continuous
 62
     7
370
    25
100
AcDbCircle
 10
2299.2304021424
 20
682.8480862761
 30
0.0
 40
0.6999962183558638
100
AcDbArc
 50
89.9995743527
 51
179.9999987598
  0
LINE
  5
609
330
1F
100
AcDbEntity
  8
0
  6
Continuous
 62
     7
370
    25
100
AcDbLine
 10
2337.7304064821
 20
682.8480862913
 30
0.0
 11
2337.0304063674
 21
682.8480862913
 31
0.0
  0
LINE
  5
60A
330
1F
100
AcDbEntity
  8
0
  6
Continuous
 62
     7
370
    25
100
AcDbLine
 10
2337.7304064821
 20
660.4480852274
 30
0.0
 11
2337.7304064821
 21
682.8480862913
 31
0.0
  0
LINE
  5
60B
330
1F
100
AcDbEntity
  8
0
  6
Continuous
 62
     7
370
    25
100
AcDbLine
 10
2337.0304063674
 20
660.4480852274
 30
0.0
 11
2337.7304064821
 21
660.4480852274
 31
0.0
  0
ARC
  5
60C
330
1F
100
AcDbEntity
  8
0
  6
Continuous
 62
     7
370
    25
100
AcDbCircle
 10
2337.0304058121
 20
660.4480844787
 30
0.0
 40
0.7000006699578235
100
AcDbArc
 50
270.0000454452
 51
0.0000612764
  0
ARC
  5
60D
330
1F
100
AcDbEntity
  8
0
  6
Continuous
 62
     7
370
    25
100
AcDbCircle
 10
2337.0304102638
 20
682.8480862761
 30
0.0
 40
0.6999962183413558
100
AcDbArc
 50
0.0000012398
 51
90.0003189262
  0
LINE
  5
60E
330
1F
100
AcDbEntity
  8
0
  6
Continuous
 62
     7
370
    25
100
AcDbLine
 10
2299.9304061535
 20
920.1480925915
 30
0.0
 11
2382.5304066542
 21
920.1480925915
 31
0.0
  0
LINE
  5
60F
330
1F
100
AcDbEntity
  8
0
  6
Continuous
 62
     7
370
    25
100
AcDbLine
 10
2382.5304066542
 20
920.1480925915
 30
0.0
 11
2382.5304066542
 21
918.7480897543
 31
0.0
  0
LINE
  5
610
330
1F
100
AcDbEntity
  8
0
  6
Continuous
 62
     7
370
    25
100
AcDbLine
 10
2299.9304061535
 20
918.7480897543
 30
0.0
 11
2299.9304061535
 21
920.1480925915
 31
0.0
  0
LINE
  5
611
330
1F
100
AcDbEntity
  8
0
  6
Continuous
 62
     7
370
    25
100
AcDbLine
 10
2382.5304066542
 20
920.1480925915
 30
0.0
 11
2414.7304041091
 21
920.1480925915
 31
0.0
  0
LINE
  5
612
330
1F
100
AcDbEntity
  8
0
  6
Continuous
 62
     7
370
    25
100
AcDbLine
 10
2378.3304085735
 20
785.7480809924
 30
0.0
 11
2378.3304085735
 21
784.3480885861
 31
0.0
  0
LINE
  5
613
330
1F
100
AcDbEntity
  8
0
  6
Continuous
 62
     7
370
    25
100
AcDbLine
 10
2378.3304085735
 20
784.3480885861
 30
0.0
 11
2299.9304061535
 21
784.3480885861
 31
0.0
  0
LINE
  5
614
330
1F
100
AcDbEntity
  8
0
  6
Continuous
 62
     7
370
    25
100
AcDbLine
 10
2299.9304061535
 20
784.3480885861
 30
0.0
 11
2299.9304061535
 21
785.7480809924
 31
0.0
  0
LINE
  5
615
330
1F
100
AcDbEntity
  8
0
  6
Continuous
 62
     7
370
    25
100
AcDbLine
 10
2459.5304114524
 20
792.7480847475
 30
0.0
 11
2459.5304114524
 21
911.7480755684
 31
0.0
  0
LINE
  5
616
330
1F
100
AcDbEntity
  8
0
  6
Continuous
 62
     7
370
    25
100
AcDbLine
 10
2298.530405924
 20
792.7480847475
 30
0.0
 11
2459.5304114524
 21
792.7480847475
 31
0.0
  0
LINE
  5
617
330
1F
100
AcDbEntity
  8
0
  6
Continuous
 62
     7
370
    25
100
AcDbLine
 10
2298.530405924
 20
911.7480755684
 30
0.0
 11
2298.530405924
 21
792.7480847475
 31
0.0
  0
LINE
  5
618
330
1F
100
AcDbEntity
  8
0
  6
Continuous
 62
     7
370
    25
100
AcDbLine
 10
2459.5304114524
 20
911.7480755684
 30
0.0
 11
2298.530405924
 21
911.7480755684
 31
0.0
  0
LINE
  5
619
330
1F
100
AcDbEntity
  8
0
  6
Continuous
 62
     7
370
    25
100
AcDbLine
 10
2315.3304060701
 20
893.5480804083
 30
0.0
 11
2315.3304060701
 21
810.9480799076
 31
0.0
  0
ARC
  5
61A
330
1F
100
AcDbEntity
  8
0
  6
Continuous
 62
     7
370
    25
100
AcDbCircle
 10
2319.5303989608
 20
810.9480851484
 30
0.0
 40
4.199992890686277
100
AcDbArc
 50
180.0000714938
 51
270.0001063759
  0
LINE
  5
61B
330
1F
100
AcDbEntity
  8
0
  6
Continuous
 62
     7
370
    25
100
AcDbLine
 10
2319.5304067585
 20
806.7480922577
 30
0.0
 11
2439.9304030243
 21
806.7480922577
 31
0.0
  0
ARC
  5
61C
330
1F
100
AcDbEntity
  8
0
  6
Continuous
 62
     7
370
    25
100
AcDbCircle
 10
2439.9304075161
 20
810.9480962775
 30
0.0
 40
4.20000401978281
100
AcDbArc
 50
269.9999387237
 51
359.999776685
  0
LINE
  5
61D
330
1F
100
AcDbEntity
  8
0
  6
Continuous
 62
     7
370
    25
100
AcDbLine
 10
2444.1304115358
 20
810.9480799076
 30
0.0
 11
2444.1304115358
 21
893.5480804083
 31
0.0
  0
ARC
  5
61E
330
1F
100
AcDbEntity
  8
0
  6
Continuous
 62
     7
370
    25
100
AcDbCircle
 10
2439.9304075161
 20
893.5480849001
 30
0.0
 40
4.200004019732788
100
AcDbArc
 50
359.9999387234
 51
90.0000612766
  0
LINE
  5
61F
330
1F
100
AcDbEntity
  8
0
  6
Continuous
 62
     7
370
    25
100
AcDbLine
 10
2439.9304030243
 20
897.7480889199
 30
0.0
 11
2319.5304067585
 21
897.7480889199
 31
0.0
  0
ARC
  5
620
330
1F
100
AcDbEntity
  8
0
  6
Continuous
 62
     7
370
    25
100
AcDbCircle
 10
2319.5303989608
 20
893.5480960291
 30
0.0
 40
4.199992890730263
100
AcDbArc
 50
89.9998936243
 51
180.0002130973
  0
LINE
  5
621
330
1F
100
AcDbEntity
  8
0
  6
Continuous
 62
     7
370
    25
100
AcDbLine
 10
2459.5304114524
 20
915.94808408
 30
0.0
 11
2310.4304065708
 21
915.94808408
 31
0.0
  0
LINE
  5
622
330
1F
100
AcDbEntity
  8
0
  6
Continuous
 62
     7
370
    25
100
AcDbLine
 10
2459.5304114524
 20
911.7480755684
 30
0.0
 11
2459.5304114524
 21
915.94808408
 31
0.0
  0
LINE
  5
623
330
1F
100
AcDbEntity
  8
0
  6
Continuous
 62
     7
370
    25
100
AcDbLine
 10
2298.530405924
 20
911.7480755684
 30
0.0
 11
2298.530405924
 21
915.94808408
 31
0.0
  0
LINE
  5
624
330
1F
100
AcDbEntity
  8
0
  6
Continuous
 62
     7
370
    25
100
AcDbLine
 10
2303.4304054234
 20
915.94808408
 30
0.0
 11
2298.530405924
 21
915.94808408
 31
0.0
  0
ARC
  5
625
330
1F
100
AcDbEntity
  8
0
  6
Continuous
 62
     7
370
    25
100
AcDbCircle
 10
2306.9304059971
 20
917.8147501211
 30
0.0
 40
3.966666878480581
100
AcDbArc
 50
208.0724750633
 51
331.9275249367
  0
LINE
  5
626
330
1F
100
AcDbEntity
  8
0
  6
Continuous
 62
     7
370
    25
100
AcDbLine
 10
2298.530405924
 20
788.5480866668
 30
0.0
 11
2303.4304054234
 21
788.5480866668
 31
0.0
  0
LINE
  5
627
330
1F
100
AcDbEntity
  8
0
  6
Continuous
 62
     7
370
    25
100
AcDbLine
 10
2298.530405924
 20
788.5480866668
 30
0.0
 11
2298.530405924
 21
792.7480847475
 31
0.0
  0
LINE
  5
628
330
1F
100
AcDbEntity
  8
0
  6
Continuous
 62
     7
370
    25
100
AcDbLine
 10
2459.5304114524
 20
788.5480866668
 30
0.0
 11
2459.5304114524
 21
792.7480847475
 31
0.0
  0
LINE
  5
629
330
1F
100
AcDbEntity
  8
0
  6
Continuous
 62
     7
370
    25
100
AcDbLine
 10
2310.4304065708
 20
788.5480866668
 30
0.0
 11
2459.5304114524
 21
788.5480866668
 31
0.0
  0
ARC
  5
62A
330
1F
100
AcDbEntity
  8
0
  6
Continuous
 62
     7
370
    25
100
AcDbCircle
 10
2306.9304059971
 20
786.6814119116
 30
0.0
 40
3.96667097923616
100
AcDbArc
 50
28.0725861242
 51
151.9274138758
  0
LINE
  5
62B
330
1F
100
AcDbEntity
  8
0
  6
Continuous
 62
     7
370
    25
100
AcDbLine
 10
2463.7304095331
 20
792.7480847475
 30
0.0
 11
2463.7304095331
 21
911.7480755684
 31
0.0
  0
LINE
  5
62C
330
1F
100
AcDbEntity
  8
0
  6
Continuous
 62
     7
370
    25
100
AcDbLine
 10
2459.5304114524
 20
792.7480847475
 30
0.0
 11
2463.7304095331
 21
792.7480847475
 31
0.0
  0
LINE
  5
62D
330
1F
100
AcDbEntity
  8
0
  6
Continuous
 62
     7
370
    25
100
AcDbLine
 10
2463.7304095331
 20
911.7480755684
 30
0.0
 11
2459.5304114524
 21
911.7480755684
 31
0.0
  0
ARC
  5
62E
330
1F
100
AcDbEntity
  8
0
  6
Continuous
 62
     7
370
    25
100
AcDbCircle
 10
2459.5304055134
 20
792.7480906865
 30
0.0
 40
4.200004019738678
100
AcDbArc
 50
270.0000810189
 51
359.9999189811
  0
ARC
  5
62F
330
1F
100
AcDbEntity
  8
0
  6
Continuous
 62
     7
370
    25
100
AcDbCircle
 10
2459.5304055134
 20
911.7480800602
 30
0.0
 40
4.200004019735722
100
AcDbArc
 50
359.9999387234
 51
89.9999189811
  0
LINE
  5
630
330
1F
100
AcDbEntity
  8
0
  6
Continuous
 62
     7
370
    25
100
AcDbLine
 10
2298.530405924
 20
918.7480897543
 30
0.0
 11
2459.5304114524
 21
918.7480897543
 31
0.0
  0
ARC
  5
631
330
1F
100
AcDbEntity
  8
0
  6
Continuous
 62
     7
370
    25
100
AcDbCircle
 10
2459.5303980771
 20
911.7480830547
 30
0.0
 40
7.000006699585742
100
AcDbArc
 50
359.9999387236
 51
89.9998905218
  0
LINE
  5
632
330
1F
100
AcDbEntity
  8
0
  6
Continuous
 62
     7
370
    25
100
AcDbLine
 10
2466.5304047767
 20
911.7480755684
 30
0.0
 11
2466.5304047767
 21
792.7480847475
 31
0.0
  0
ARC
  5
633
330
1F
100
AcDbEntity
  8
0
  6
Continuous
 62
     7
370
    25
100
AcDbCircle
 10
2459.5303980771
 20
792.748087692
 30
0.0
 40
7.000006699580172
100
AcDbArc
 50
270.0001094782
 51
359.9999758992
  0
LINE
  5
634
330
1F
100
AcDbEntity
  8
0
  6
Continuous
 62
     7
370
    25
100
AcDbLine
 10
2459.5304114524
 20
785.7480809924
 30
0.0
 11
2298.530405924
 21
785.7480809924
 31
0.0
  0
LINE
  5
635
330
1F
100
AcDbEntity
  8
0
  6
Continuous
 62
     7
370
    25
100
AcDbLine
 10
2298.530405924
 20
915.94808408
 30
0.0
 11
2298.530405924
 21
918.7480897543
 31
0.0
  0
LINE
  5
636
330
1F
100
AcDbEntity
  8
0
  6
Continuous
 62
     7
370
    25
100
AcDbLine
 10
2298.530405924
 20
785.7480809924
 30
0.0
 11
2298.530405924
 21
788.5480866668
 31
0.0
  0
LINE
  5
637
330
1F
100
AcDbEntity
  8
0
  6
Continuous
 62
     7
370
    25
100
AcDbLine
 10
2361.5304058197
 20
740.2480826614
 30
0.0
 11
2361.6743275675
 21
740.2480826614
 31
0.0
  0
LINE
  5
638
330
1F
100
AcDbEntity
  8
0
  6
Continuous
 62
     7
370
    25
100
AcDbLine
 10
2379.3057782355
 20
758.0896646616
 30
0.0
 11
2379.228955299
 21
756.8290800688
 31
0.0
  0
LINE
  5
639
330
1F
100
AcDbEntity
  8
0
  6
Continuous
 62
     7
370
    25
100
AcDbLine
 10
2378.4762521985
 20
756.8290800688
 30
0.0
 11
2378.5530803505
 21
758.0896646616
 31
0.0
  0
LINE
  5
63A
330
1F
100
AcDbEntity
  8
0
  6
Continuous
 62
     7
370
    25
100
AcDbLine
 10
2376.1802999082
 20
758.0896646616
 30
0.0
 11
2376.0463943485
 21
756.8290800688
 31
0.0
  0
LINE
  5
63B
330
1F
100
AcDbEntity
  8
0
  6
Continuous
 62
     7
370
    25
100
AcDbLine
 10
2383.5745727423
 20
756.8290800688
 30
0.0
 11
2383.549314529
 21
758.0896646616
 31
0.0
  0
LINE
  5
63C
330
1F
100
AcDbEntity
  8
0
  6
Continuous
 62
     7
370
    25
100
AcDbLine
 10
2388.7859841588
 20
756.8290800688
 30
0.0
 11
2388.6481826905
 21
758.0896646616
 31
0.0
  0
LINE
  5
63D
330
1F
100
AcDbEntity
  8
0
  6
Continuous
 62
     7
370
    25
100
AcDbLine
 10
2383.9697440866
 20
758.0896646616
 30
0.0
 11
2383.9950022999
 21
756.8290800688
 31
0.0
  0
LINE
  5
63E
330
1F
100
AcDbEntity
  8
0
  6
Continuous
 62
     7
370
    25
100
AcDbLine
 10
2389.3309158984
 20
758.0896646616
 30
0.0
 11
2389.4687173668
 21
756.8290800688
 31
0.0
  0
LINE
  5
63F
330
1F
100
AcDbEntity
  8
0
  6
Continuous
 62
     7
370
    25
100
AcDbLine
 10
2390.8233618143
 20
756.8290800688
 30
0.0
 11
2390.6537411514
 21
758.0896646616
 31
0.0
  0
LINE
  5
640
330
1F
100
AcDbEntity
  8
0
  6
Continuous
 62
     7
370
    25
100
AcDbLine
 10
2375.7141234133
 20
756.8290800688
 30
0.0
 11
2375.8480263654
 21
758.0896646616
 31
0.0
  0
LINE
  5
641
330
1F
100
AcDbEntity
  8
0
  6
Continuous
 62
     7
370
    25
100
AcDbLine
 10
2371.1695851538
 20
758.0896646616
 30
0.0
 11
2370.9231363389
 21
756.8290800688
 31
0.0
  0
LINE
  5
642
330
1F
100
AcDbEntity
  8
0
  6
Continuous
 62
     7
370
    25
100
AcDbLine
 10
2390.9160448018
 20
758.0896646616
 30
0.0
 11
2391.0856654647
 21
756.8290800688
 31
0.0
  0
LINE
  5
643
330
1F
100
AcDbEntity
  8
0
  6
Continuous
 62
     7
370
    25
100
AcDbLine
 10
2395.4312881235
 20
756.8290800688
 30
0.0
 11
2395.1595810953
 21
758.0896646616
 31
0.0
  0
LINE
  5
644
330
1F
100
AcDbEntity
  8
0
  6
Continuous
 62
     7
370
    25
100
AcDbLine
 10
2369.416702703
 20
756.8290800688
 30
0.0
 11
2370.5201523158
 21
756.8290800688
 31
0.0
  0
LINE
  5
645
330
1F
100
AcDbEntity
  8
0
  6
Continuous
 62
     7
370
    25
100
AcDbLine
 10
2369.6884071234
 20
758.0896646616
 30
0.0
 11
2369.416702703
 21
756.8290800688
 31
0.0
  0
LWPOLYLINE
  5
646
330
1F
100
AcDbEntity
  8
0
  6
Continuous
 62
     7
370
    25
100
AcDbPolyline
 90
        3
 70
   128
 43
0.0
 10
2369.3319992873
 20
756.754447603
 10
2369.3368339691
 20
756.7662344215
 10
2369.416702703
 20
756.8290800688
  0
LINE
  5
647
330
1F
100
AcDbEntity
  8
FORMAT
370
    25
100
AcDbLine
 10
2298.5304064453
 20
812.3480842469
 30
0.0
 11
2302.7304064453
 21
812.3480842469
 31
0.0
  0
LINE
  5
648
330
1F
100
AcDbEntity
  8
FORMAT
370
    25
100
AcDbLine
 10
2302.7304064453
 20
822.1480842469
 30
0.0
 11
2298.5304064453
 21
822.1480842469
 31
0.0
  0
LINE
  5
649
330
1F
100
AcDbEntity
  8
FORMAT
370
    25
100
AcDbLine
 10
2298.5304064453
 20
824.2480842469
 30
0.0
 11
2302.7304064453
 21
824.2480842469
 31
0.0
  0
LINE
  5
64A
330
1F
100
AcDbEntity
  8
FORMAT
370
    25
100
AcDbLine
 10
2302.7304064453
 20
838.2480842469
 30
0.0
 11
2298.5304064453
 21
838.2480842469
 31
0.0
  0
LINE
  5
64B
330
1F
100
AcDbEntity
  8
FORMAT
370
    25
100
AcDbLine
 10
2298.5304064453
 20
840.3480842469
 30
0.0
 11
2302.7304064453
 21
840.3480842469
 31
0.0
  0
LINE
  5
64C
330
1F
100
AcDbEntity
  8
FORMAT
370
    25
100
AcDbLine
 10
2302.7304064453
 20
850.1480842469
 30
0.0
 11
2298.5304064453
 21
850.1480842469
 31
0.0
  0
LINE
  5
64D
330
1F
100
AcDbEntity
  8
FORMAT
370
    25
100
AcDbLine
 10
2298.5304064453
 20
854.3480842469
 30
0.0
 11
2302.7304064453
 21
854.3480842469
 31
0.0
  0
LINE
  5
64E
330
1F
100
AcDbEntity
  8
FORMAT
370
    25
100
AcDbLine
 10
2302.7304064453
 20
864.1480842469
 30
0.0
 11
2298.5304064453
 21
864.1480842469
 31
0.0
  0
LINE
  5
64F
330
1F
100
AcDbEntity
  8
FORMAT
370
    25
100
AcDbLine
 10
2298.5304064453
 20
866.2480842469
 30
0.0
 11
2302.7304064453
 21
866.2480842469
 31
0.0
  0
LINE
  5
650
330
1F
100
AcDbEntity
  8
FORMAT
370
    25
100
AcDbLine
 10
2302.7304064453
 20
880.2480842469
 30
0.0
 11
2298.5304064453
 21
880.2480842469
 31
0.0
  0
LINE
  5
651
330
1F
100
AcDbEntity
  8
FORMAT
370
    25
100
AcDbLine
 10
2298.5304064453
 20
882.3480842469
 30
0.0
 11
2302.7304064453
 21
882.3480842469
 31
0.0
  0
LINE
  5
652
330
1F
100
AcDbEntity
  8
FORMAT
370
    25
100
AcDbLine
 10
2302.7304064453
 20
892.1480842469
 30
0.0
 11
2298.5304064453
 21
892.1480842469
 31
0.0
  0
LINE
  5
653
330
1F
100
AcDbEntity
  8
FORMAT
  6
CENTERX2
370
    25
100
AcDbLine
 10
2290.8811462795
 20
898.4035198886
 30
0.0
 11
2312.2576220102
 21
898.4035198886
 31
0.0
  0
LINE
  5
654
330
1F
100
AcDbEntity
  8
FORMAT
  6
CENTERX2
370
    25
100
AcDbLine
 10
2290.8811462795
 20
898.4035198886
 30
0.0
 11
2290.8811462795
 21
807.2990161791
 31
0.0
  0
LINE
  5
655
330
1F
100
AcDbEntity
  8
FORMAT
  6
CENTERX2
370
    25
100
AcDbLine
 10
2290.8811462795
 20
807.2990161791
 30
0.0
 11
2312.2576220102
 21
807.2990161791
 31
0.0
  0
LINE
  5
656
330
1F
100
AcDbEntity
  8
FORMAT
  6
CENTERX2
370
    25
100
AcDbLine
 10
2312.2576220102
 20
898.4035198886
 30
0.0
 11
2312.2576220102
 21
807.2990161791
 31
0.0
  0
ARC
  5
657
330
1F
100
AcDbEntity
  8
FORMAT
370
    25
100
AcDbCircle
 10
2302.7304064453
 20
817.2480842469
 30
0.0
 40
4.900000000000091
100
AcDbArc
 50
270.0
 51
90.0
  0
ARC
  5
658
330
1F
100
AcDbEntity
  8
FORMAT
370
    25
100
AcDbCircle
 10
2302.7304064453
 20
831.2480842469
 30
0.0
 40
7.0
100
AcDbArc
 50
270.0
 51
90.0
  0
ARC
  5
659
330
1F
100
AcDbEntity
  8
FORMAT
370
    25
100
AcDbCircle
 10
2302.7304064453
 20
845.2480842469
 30
0.0
 40
4.900000000000091
100
AcDbArc
 50
270.0
 51
90.0
  0
ARC
  5
65A
330
1F
100
AcDbEntity
  8
FORMAT
370
    25
100
AcDbCircle
 10
2302.7304064453
 20
859.2480842469
 30
0.0
 40
4.900000000000091
100
AcDbArc
 50
270.0
 51
90.0
  0
ARC
  5
65B
330
1F
100
AcDbEntity
  8
FORMAT
370
    25
100
AcDbCircle
 10
2302.7304064453
 20
873.2480842469
 30
0.0
 40
6.999999999999886
100
AcDbArc
 50
270.0
 51
90.0
  0
ARC
  5
65C
330
1F
100
AcDbEntity
  8
FORMAT
370
    25
100
AcDbCircle
 10
2302.7304064453
 20
887.2480842469
 30
0.0
 40
4.899999999999977
100
AcDbArc
 50
270.0
 51
90.0
  0
DIMENSION
  5
65D
330
1F
100
AcDbEntity
  8
FORMAT
100
AcDbDimension
  2
_D_26
 10
2104.2208288594
 20
683.5480842616
 30
0.0
 11
2104.2208288594
 21
619.10642094
 31
0.0
 70
   160
  1
<>
 71
     2
 42
-1.0
  3
SLDDIMSTYLE5
100
AcDbAlignedDimension
 13
2242.5304064458
 23
720.6480842469
 33
0.0
 14
2299.2304064426
 24
683.5480842616
 34
0.0
 50
90.0
100
AcDbRotatedDimension
  0
DIMENSION
  5
66B
330
1F
100
AcDbEntity
  8
FORMAT
100
AcDbDimension
  2
_D_27
 10
2104.2208288594
 20
785.7480842469
 30
0.0
 11
2104.2208288594
 21
852.6712561373
 31
0.0
 70
   160
  1
<>
 71
     2
 42
-1.0
  3
SLDDIMSTYLE5
100
AcDbAlignedDimension
 13
2242.5304064458
 23
720.6480842469
 33
0.0
 14
2298.5304064453
 24
785.7480842469
 34
0.0
 50
90.0
100
AcDbRotatedDimension
  0
DIMENSION
  5
678
330
1F
100
AcDbEntity
  8
FORMAT
100
AcDbDimension
  2
_D_28
 10
2165.3530379042
 20
785.7480842469
 30
0.0
 11
2165.3530379042
 21
852.671256139
 31
0.0
 70
   160
  1
<>
 71
     2
 42
-1.0
  3
SLDDIMSTYLE6
100
AcDbAlignedDimension
 13
2328.6263685922
 23
736.0480842469
 33
0.0
 14
2298.5304064453
 24
785.7480842469
 34
0.0
 50
90.0
100
AcDbRotatedDimension
  0
DIMENSION
  5
685
330
1F
100
AcDbEntity
  8
FORMAT
100
AcDbDimension
  2
_D_29
 10
2337.7304064426
 20
520.4025633834
 30
0.0
 11
2408.8542764788
 21
520.4025633834
 31
0.0
 70
   160
  1
(<>)
 71
     2
 42
-1.0
  3
SLDDIMSTYLE6
100
AcDbAlignedDimension
 13
2298.5304064458
 23
571.9157450733
 33
0.0
 14
2337.7304064426
 24
660.4480842616
 34
0.0
100
AcDbRotatedDimension
  0
DIMENSION
  5
693
330
1F
100
AcDbEntity
  8
FORMAT
100
AcDbDimension
  2
_D_30
 10
2493.5949507905
 20
683.5480842616
 30
0.0
 11
2493.5949507905
 21
594.2497302572
 31
0.0
 70
   160
  1
(<>)
 71
     2
 42
-1.0
  3
SLDDIMSTYLE6
100
AcDbAlignedDimension
 13
2337.0304064426
 23
659.7480842616
 33
0.0
 14
2337.0304064426
 24
683.5480842616
 34
0.0
 50
90.0
100
AcDbRotatedDimension
  0
DIMENSION
  5
6A1
330
1F
100
AcDbEntity
  8
FORMAT
100
AcDbDimension
  2
_D_31
 10
2543.8630408744
 20
726.248084247
 30
0.0
 11
2543.8630408744
 21
675.843580188
 31
0.0
 70
   160
  1
<>*
 71
     2
 42
-1.0
  3
SLDDIMSTYLE7
100
AcDbAlignedDimension
 13
2298.5304064458
 23
720.6480842469
 33
0.0
 14
2363.0647324412
 24
726.248084247
 34
0.0
 50
90.0
100
AcDbRotatedDimension
  0
DIMENSION
  5
6AF
330
1F
100
AcDbEntity
  8
FORMAT
100
AcDbDimension
  2
_D_32
 10
2578.5304064453
 20
785.7480842469
 30
0.0
 11
2578.5304064453
 21
853.2401839219
 31
0.0
 70
   160
  1
<>
 71
     2
 42
-1.0
  3
SLDDIMSTYLE6
100
AcDbAlignedDimension
 13
2363.0647324412
 23
726.248084247
 33
0.0
 14
2459.5304064453
 24
785.7480842469
 34
0.0
 50
90.0
100
AcDbRotatedDimension
  0
MTEXT
  5
6BB
330
1F
100
AcDbEntity
  8
FORMAT
100
AcDbMText
 10
2298.278803434
 20
1049.5917672948
 30
0.0
 40
35.0
 41
0.0
 71
     2
 72
     1
  1
B (1 : 5)
  7
SLDTEXTSTYLE0
 73
     1
 44
1.0
  0
MTEXT
  5
6BC
330
1F
100
AcDbEntity
  8
FORMAT
100
AcDbMText
 10
2521.0858589969
 20
991.945147587
 30
0.0
 40
18.5208333333
 41
0.0
 71
     1
 72
     1
  1
AV 12
  7
SLDTEXTSTYLE0
 73
     1
 44
1.0
  0
LEADER
  5
6BE
330
1F
100
AcDbEntity
  8
FORMAT
100
AcDbLeader
  3
SLDDIMSTYLE8
 76
     3
 10
2387.2901824465
 20
772.9578003747
 30
0.0
 10
2473.0474853311
 20
982.4810889197
 30
0.0
 10
2517.4974853311
 20
982.4810889197
 30
0.0
  0
MTEXT
  5
6BF
330
1F
100
AcDbEntity
  8
FORMAT
100
AcDbMText
 10
2056.5962140833
 20
526.6650364238
 30
0.0
 40
18.5208333333
 41
0.0
 71
     1
 72
     1
  1
GB 46
  7
SLDTEXTSTYLE0
 73
     1
 44
1.0
  0
LEADER
  5
6C0
330
1F
100
AcDbEntity
  8
FORMAT
100
AcDbLeader
  3
SLDDIMSTYLE8
 76
     3
 10
2316.5309626892
 20
702.911397866
 30
0.0
 10
2174.2042699778
 20
517.7702758434
 30
0.0
 10
2129.7542699778
 20
517.7702758434
 30
0.0
  0
MTEXT
  5
6C1
330
1F
100
AcDbEntity
  8
FORMAT
100
AcDbMText
 10
1712.0188057915
 20
950.2183898927
 30
0.0
 40
18.5208333333
 41
0.0
 71
     1
 72
     1
  1
aufliegende Kabelzuführung (optional)
  7
SLDTEXTSTYLE0
 73
     1
 44
1.0
  0
LEADER
  5
6C2
330
1F
100
AcDbEntity
  8
FORMAT
100
AcDbLeader
  3
SLDDIMSTYLE3
 76
     3
 10
2290.8811462795
 20
855.4201502796
 30
0.0
 10
2176.8724856239
 20
940.8214074444
 30
0.0
 10
2132.4224856239
 20
940.8214074444
 30
0.0
  0
CIRCLE
  5
6C3
330
1F
100
AcDbEntity
  8
0
  6
Continuous
 62
     7
370
    18
100
AcDbCircle
 10
1854.1475220418
 20
285.8100480812
 30
0.0
 40
73.72167462772474
  0
ARC
  5
6C4
330
1F
100
AcDbEntity
  8
0
  6
Continuous
 62
     7
370
    25
100
AcDbCircle
 10
1866.8550382387
 20
338.960089894
 30
0.0
 40
4.200008151989278
100
AcDbArc
 50
9.5942083945
 51
170.4057916055
  0
ARC
  5
6C5
330
1F
100
AcDbEntity
  8
0
  6
Continuous
 62
     7
370
    25
100
AcDbCircle
 10
1844.455034567
 20
338.960097998
 30
0.0
 40
4.549995541921722
100
AcDbArc
 50
8.8499349891
 51
171.1500650109
  0
ARC
  5
6C6
330
1F
100
AcDbEntity
  8
0
  6
Continuous
 62
     7
370
    25
100
AcDbCircle
 10
1844.455034567
 20
338.9601019325
 30
0.0
 40
4.549995541921739
100
AcDbArc
 50
188.8499349891
 51
351.1500650109
  0
ARC
  5
6C7
330
1F
100
AcDbEntity
  8
0
  6
Continuous
 62
     7
370
    25
100
AcDbCircle
 10
1866.8550382387
 20
338.9601100364
 30
0.0
 40
4.200008151989297
100
AcDbArc
 50
189.5942083945
 51
350.4057916055
  0
ARC
  5
6C8
330
1F
100
AcDbEntity
  8
0
  6
Continuous
 62
     7
370
    25
100
AcDbCircle
 10
1844.455034567
 20
232.5601156431
 30
0.0
 40
4.549991748949879
100
AcDbArc
 50
8.8496282222
 51
171.1503717778
  0
ARC
  5
6C9
330
1F
100
AcDbEntity
  8
0
  6
Continuous
 62
     7
370
    25
100
AcDbCircle
 10
1866.8550382387
 20
232.5600828845
 30
0.0
 40
4.200008151989287
100
AcDbArc
 50
9.5942083945
 51
170.4057916055
  0
ARC
  5
6CA
330
1F
100
AcDbEntity
  8
0
  6
Continuous
 62
     7
370
    25
100
AcDbCircle
 10
1844.455034567
 20
232.560094923
 30
0.0
 40
4.54999554192173
100
AcDbArc
 50
188.8499349891
 51
351.1500650109
  0
ARC
  5
6CB
330
1F
100
AcDbEntity
  8
0
  6
Continuous
 62
     7
370
    25
100
AcDbCircle
 10
1866.8550382387
 20
232.560115544
 30
0.0
 40
4.200010238209859
100
AcDbArc
 50
189.5943767613
 51
350.4056232387
  0
LINE
  5
6CC
330
1F
100
AcDbEntity
  8
0
  6
Continuous
 62
     7
370
    25
100
AcDbLine
 10
1891.3488815557
 20
349.4601003824
 30
0.0
 11
1816.9462065231
 21
349.4601003824
 31
0.0
  0
LINE
  5
6CD
330
1F
100
AcDbEntity
  8
0
  6
Continuous
 62
     7
370
    25
100
AcDbLine
 10
1817.1280364524
 20
222.0601029693
 30
0.0
 11
1891.1670516263
 21
222.0601029693
 31
0.0
  0
ARC
  5
6CE
330
1F
100
AcDbEntity
  8
0
  6
Continuous
 62
     7
370
    25
100
AcDbCircle
 10
1844.4480674196
 20
338.9607176195
 30
0.0
 40
4.543016036971984
100
AcDbArc
 50
171.1442682279
 51
180.0076582036
  0
ARC
  5
6CF
330
1F
100
AcDbEntity
  8
0
  6
Continuous
 62
     7
370
    25
100
AcDbCircle
 10
1866.8507919608
 20
338.9597313699
 30
0.0
 40
4.204254806493589
100
AcDbArc
 50
0.0051653851
 51
9.5893811515
  0
ARC
  5
6D0
330
1F
100
AcDbEntity
  8
0
  6
Continuous
 62
     7
370
    25
100
AcDbCircle
 10
1866.8592845166
 20
338.9597313699
 30
0.0
 40
4.204254806529976
100
AcDbArc
 50
170.4106188486
 51
179.9948346149
  0
ARC
  5
6D1
330
1F
100
AcDbEntity
  8
0
  6
Continuous
 62
     7
370
    25
100
AcDbCircle
 10
1844.4541801008
 20
338.9598412225
 30
0.0
 40
4.550879341237446
100
AcDbArc
 50
0.0033889076
 51
8.8514742657
  0
ARC
  5
6D2
330
1F
100
AcDbEntity
  8
0
  6
Continuous
 62
     7
370
    25
100
AcDbCircle
 10
1844.4480674196
 20
232.56071061
 30
0.0
 40
4.543016036971531
100
AcDbArc
 50
171.1442682279
 51
180.0076582036
  0
ARC
  5
6D3
330
1F
100
AcDbEntity
  8
0
  6
Continuous
 62
     7
370
    25
100
AcDbCircle
 10
1844.4541801008
 20
232.559834213
 30
0.0
 40
4.550879341237438
100
AcDbArc
 50
0.0033889076
 51
8.8514742657
  0
ARC
  5
6D4
330
1F
100
AcDbEntity
  8
0
  6
Continuous
 62
     7
370
    25
100
AcDbCircle
 10
1866.8589117664
 20
232.5597556433
 30
0.0
 40
4.203882053623663
100
AcDbArc
 50
170.4101929447
 51
179.9952605187
  0
ARC
  5
6D5
330
1F
100
AcDbEntity
  8
0
  6
Continuous
 62
     7
370
    25
100
AcDbCircle
 10
1866.851164711
 20
232.5597556433
 30
0.0
 40
4.203882053586836
100
AcDbArc
 50
0.0047394812
 51
9.5898070553
  0
ARC
  5
6D6
330
1F
100
AcDbEntity
  8
0
  6
Continuous
 62
     7
370
    25
100
AcDbCircle
 10
1866.8592842541
 20
338.9604685275
 30
0.0
 40
4.204254542244844
100
AcDbArc
 50
180.0048806323
 51
189.5893813037
  0
ARC
  5
6D7
330
1F
100
AcDbEntity
  8
0
  6
Continuous
 62
     7
370
    25
100
AcDbCircle
 10
1844.454180393
 20
338.9603586776
 30
0.0
 40
4.550879047851787
100
AcDbArc
 50
351.1485255456
 51
359.996874123
  0
ARC
  5
6D8
330
1F
100
AcDbEntity
  8
0
  6
Continuous
 62
     7
370
    25
100
AcDbCircle
 10
1866.8507922233
 20
338.9604685275
 30
0.0
 40
4.204254542208241
100
AcDbArc
 50
350.4106186963
 51
359.9951193677
  0
ARC
  5
6D9
330
1F
100
AcDbEntity
  8
0
  6
Continuous
 62
     7
370
    25
100
AcDbCircle
 10
1844.4480679393
 20
338.9594823696
 30
0.0
 40
4.543016559520673
100
AcDbArc
 50
179.9920794332
 51
188.8557314935
  0
ARC
  5
6DA
330
1F
100
AcDbEntity
  8
0
  6
Continuous
 62
     7
370
    25
100
AcDbCircle
 10
1844.4484702438
 20
232.5595064845
 30
0.0
 40
4.543418859746449
100
AcDbArc
 50
179.9924726367
 51
188.85533829
  0
ARC
  5
6DB
330
1F
100
AcDbEntity
  8
0
  6
Continuous
 62
     7
370
    25
100
AcDbCircle
 10
1866.8507922233
 20
232.560461518
 30
0.0
 40
4.204254542208241
100
AcDbArc
 50
350.4106186963
 51
359.9951193677
  0
ARC
  5
6DC
330
1F
100
AcDbEntity
  8
0
  6
Continuous
 62
     7
370
    25
100
AcDbCircle
 10
1844.4537770474
 20
232.5603828972
 30
0.0
 40
4.551282395277649
100
AcDbArc
 50
351.1489184093
 51
359.9964812592
  0
ARC
  5
6DD
330
1F
100
AcDbEntity
  8
0
  6
Continuous
 62
     7
370
    25
100
AcDbCircle
 10
1866.8592842541
 20
232.560461518
 30
0.0
 40
4.20425454224484
100
AcDbArc
 50
180.0048806323
 51
189.5893813037
  0
DIMENSION
  5
6DE
330
1F
100
AcDbEntity
  8
FORMAT
100
AcDbDimension
  2
_D_33
 10
1766.0242117345
 20
232.5601005488
 30
0.0
 11
1766.0242117345
 21
170.2703130767
 31
0.0
 70
   160
  1
<>
 71
     2
 42
-1.0
  3
SLDDIMSTYLE6
100
AcDbAlignedDimension
 13
1817.1280364524
 23
222.0601005487
 33
0.0
 14
1844.4550447475
 24
232.5601005488
 34
0.0
 50
90.0
100
AcDbRotatedDimension
  0
DIMENSION
  5
6EA
330
1F
100
AcDbEntity
  8
FORMAT
100
AcDbDimension
  2
_D_34
 10
1723.0461514899
 20
338.9601005488
 30
0.0
 11
1723.0461514899
 21
285.7601005488
 31
0.0
 70
   160
  1
<>
 71
     2
 42
-1.0
  3
SLDDIMSTYLE9
100
AcDbAlignedDimension
 13
1836.4050447475
 23
232.5601005488
 33
0.0
 14
1836.4050447475
 24
338.9601005488
 34
0.0
 50
90.0
100
AcDbRotatedDimension
  0
MTEXT
  5
6F5
330
1F
100
AcDbEntity
  8
FORMAT
100
AcDbMText
 10
1847.8316588658
 20
448.4513270056
 30
0.0
 40
35.0
 41
0.0
 71
     2
 72
     1
  1
C (1 : 5)
  7
SLDTEXTSTYLE0
 73
     1
 44
1.0
  0
INSERT
  5
701
330
1F
100
AcDbEntity
  8
FORMAT
100
AcDbBlockReference
  2
SW_CENTERMARKSYMBOL_12
 10
1844.4550554286
 20
232.5601033865
 30
0.0
  0
INSERT
  5
70D
330
1F
100
AcDbEntity
  8
FORMAT
100
AcDbBlockReference
  2
SW_CENTERMARKSYMBOL_13
 10
1844.4550554286
 20
338.960110396
 30
0.0
  0
ENDSEC
  0
SECTION
  2
OBJECTS
  0
DICTIONARY
  5
C
330
0
100
AcDbDictionary
281
     1
  3
ACAD_GROUP
350
D
  3
ACAD_LAYOUT
350
1A
  3
ACAD_MLINESTYLE
350
17
  3
ACAD_PLOTSETTINGS
350
19
  3
ACAD_PLOTSTYLENAME
350
E
  3
ACAD_SCALELIST
350
47
  3
DWGPROPS
350
70E
  0
DICTIONARY
  5
D
102
{ACAD_REACTORS
330
C
102
}
330
C
100
AcDbDictionary
281
     1
  0
DICTIONARY
  5
1A
102
{ACAD_REACTORS
330
C
102
}
330
C
100
AcDbDictionary
281
     1
  3
Layout1
350
1E
  3
Layout2
350
26
  3
Model
350
22
  0
DICTIONARY
  5
17
102
{ACAD_REACTORS
330
C
102
}
330
C
100
AcDbDictionary
281
     1
  3
Standard
350
18
  0
DICTIONARY
  5
19
102
{ACAD_REACTORS
330
C
102
}
330
C
100
AcDbDictionary
281
     1
  0
ACDBDICTIONARYWDFLT
  5
E
102
{ACAD_REACTORS
330
C
102
}
330
C
100
AcDbDictionary
281
     1
  3
Normal
350
F
100
AcDbDictionaryWithDefault
340
F
  0
DICTIONARY
  5
47
102
{ACAD_REACTORS
330
C
102
}
330
C
100
AcDbDictionary
281
     1
  3
A0
350
48
  3
A1
350
49
  3
A2
350
4A
  3
A3
350
4B
  3
A4
350
4C
  3
A5
350
4D
  3
A6
350
4E
  3
A7
350
4F
  3
A8
350
50
  3
A9
350
51
  3
B0
350
52
  3
B1
350
53
  3
B2
350
54
  3
B3
350
55
  3
B4
350
56
  3
B5
350
57
  3
B6
350
58
  3
B7
350
59
  3
B8
350
5A
  3
B9
350
5B
  3
C0
350
5C
  3
C1
350
5D
  3
C2
350
5E
  3
C3
350
5F
  3
C4
350
60
  3
C5
350
61
  3
C6
350
62
  3
C7
350
63
  3
C8
350
64
  3
C9
350
65
  3
D0
350
66
  3
D1
350
67
  3
D2
350
68
  0
XRECORD
  5
70E
102
{ACAD_REACTORS
330
C
102
}
330
C
100
AcDbXrecord
280
     1
  1
DWGPROPS COOKIE
  2

  3

  4

  6

  7

  8
l.eckardt
  9

300
=
301
=
302
=
303
=
304
=
305
=
306
=
307
=
308
=
309
=
 40
0.0
 41
2460077.376544201
 42
2460077.376548113
  1

 90
        0
  0
LAYOUT
  5
1E
102
{ACAD_REACTORS
330
1A
102
}
330
1A
100
AcDbPlotSettings
  1

  2
none_device
  4

  6

 40
0.0
 41
0.0
 42
0.0
 43
0.0
 44
0.0
 45
0.0
 46
0.0
 47
0.0
 48
0.0
 49
0.0
140
0.0
141
0.0
142
1.0
143
1.0
 70
   688
 72
     1
 73
     0
 74
     5
  7

 75
    16
147
1.0
148
0.0
149
0.0
100
AcDbLayout
  1
Layout1
 70
     1
 71
     1
 10
0.0
 20
0.0
 11
420.0
 21
297.0
 12
0.0
 22
0.0
 32
0.0
 14
1.0000000000E+20
 24
1.0000000000E+20
 34
1.0000000000E+20
 15
-1.0000000000E+20
 25
-1.0000000000E+20
 35
-1.0000000000E+20
146
0.0
 13
0.0
 23
0.0
 33
0.0
 16
1.0
 26
0.0
 36
0.0
 17
0.0
 27
1.0
 37
0.0
 76
     0
330
1B
  0
LAYOUT
  5
26
102
{ACAD_REACTORS
330
1A
102
}
330
1A
100
AcDbPlotSettings
  1

  2
none_device
  4

  6

 40
0.0
 41
0.0
 42
0.0
 43
0.0
 44
0.0
 45
0.0
 46
0.0
 47
0.0
 48
0.0
 49
0.0
140
0.0
141
0.0
142
1.0
143
1.0
 70
   688
 72
     1
 73
     0
 74
     5
  7

 75
    16
147
1.0
148
0.0
149
0.0
100
AcDbLayout
  1
Layout2
 70
     1
 71
     2
 10
0.0
 20
0.0
 11
0.0
 21
0.0
 12
0.0
 22
0.0
 32
0.0
 14
0.0
 24
0.0
 34
0.0
 15
0.0
 25
0.0
 35
0.0
146
0.0
 13
0.0
 23
0.0
 33
0.0
 16
1.0
 26
0.0
 36
0.0
 17
0.0
 27
1.0
 37
0.0
 76
     0
330
23
  0
LAYOUT
  5
22
102
{ACAD_REACTORS
330
1A
102
}
330
1A
100
AcDbPlotSettings
  1

  2
none_device
  4
Letter_(8.50_x_11.00_Inches)
  6

 40
6.35
 41
6.35
 42
6.35000508
 43
6.35000508
 44
215.9
 45
279.4
 46
0.0
 47
0.0
 48
0.0
 49
0.0
140
0.0
141
0.0
142
1.0
143
1.0
 70
  1712
 72
     1
 73
     0
 74
     0
  7

 75
     0
147
1.0
148
0.0
149
0.0
100
AcDbLayout
  1
Model
 70
     1
 71
     0
 10
0.0
 20
0.0
 11
2940.0
 21
2079.0
 12
0.0
 22
0.0
 32
0.0
 14
0.0
 24
0.0
 34
0.0
 15
2940.0
 25
2079.0
 35
0.0
146
0.0
 13
0.0
 23
0.0
 33
0.0
 16
1.0
 26
0.0
 36
0.0
 17
0.0
 27
1.0
 37
0.0
 76
     0
330
1F
331
29
  0
MLINESTYLE
  5
18
102
{ACAD_REACTORS
330
17
102
}
330
17
100
AcDbMlineStyle
  2
Standard
 70
     0
  3

 62
   256
 51
90.0
 52
90.0
 71
     2
 49
0.5
 62
   256
  6
BYLAYER
 49
-0.5
 62
   256
  6
BYLAYER
  0
ACDBPLACEHOLDER
  5
F
102
{ACAD_REACTORS
330
E
102
}
330
E
  0
SCALE
  5
48
102
{ACAD_REACTORS
330
47
102
}
330
47
100
AcDbScale
 70
     0
300
1:1
140
1.0
141
1.0
290
     1
  0
SCALE
  5
49
102
{ACAD_REACTORS
330
47
102
}
330
47
100
AcDbScale
 70
     0
300
1:2
140
1.0
141
2.0
290
     0
  0
SCALE
  5
4A
102
{ACAD_REACTORS
330
47
102
}
330
47
100
AcDbScale
 70
     0
300
1:4
140
1.0
141
4.0
290
     0
  0
SCALE
  5
4B
102
{ACAD_REACTORS
330
47
102
}
330
47
100
AcDbScale
 70
     0
300
1:5
140
1.0
141
5.0
290
     0
  0
SCALE
  5
4C
102
{ACAD_REACTORS
330
47
102
}
330
47
100
AcDbScale
 70
     0
300
1:8
140
1.0
141
8.0
290
     0
  0
SCALE
  5
4D
102
{ACAD_REACTORS
330
47
102
}
330
47
100
AcDbScale
 70
     0
300
1:10
140
1.0
141
10.0
290
     0
  0
SCALE
  5
4E
102
{ACAD_REACTORS
330
47
102
}
330
47
100
AcDbScale
 70
     0
300
1:16
140
1.0
141
16.0
290
     0
  0
SCALE
  5
4F
102
{ACAD_REACTORS
330
47
102
}
330
47
100
AcDbScale
 70
     0
300
1:20
140
1.0
141
20.0
290
     0
  0
SCALE
  5
50
102
{ACAD_REACTORS
330
47
102
}
330
47
100
AcDbScale
 70
     0
300
1:30
140
1.0
141
30.0
290
     0
  0
SCALE
  5
51
102
{ACAD_REACTORS
330
47
102
}
330
47
100
AcDbScale
 70
     0
300
1:40
140
1.0
141
40.0
290
     0
  0
SCALE
  5
52
102
{ACAD_REACTORS
330
47
102
}
330
47
100
AcDbScale
 70
     0
300
1:50
140
1.0
141
50.0
290
     0
  0
SCALE
  5
53
102
{ACAD_REACTORS
330
47
102
}
330
47
100
AcDbScale
 70
     0
300
1:100
140
1.0
141
100.0
290
     0
  0
SCALE
  5
54
102
{ACAD_REACTORS
330
47
102
}
330
47
100
AcDbScale
 70
     0
300
2:1
140
2.0
141
1.0
290
     0
  0
SCALE
  5
55
102
{ACAD_REACTORS
330
47
102
}
330
47
100
AcDbScale
 70
     0
300
4:1
140
4.0
141
1.0
290
     0
  0
SCALE
  5
56
102
{ACAD_REACTORS
330
47
102
}
330
47
100
AcDbScale
 70
     0
300
8:1
140
8.0
141
1.0
290
     0
  0
SCALE
  5
57
102
{ACAD_REACTORS
330
47
102
}
330
47
100
AcDbScale
 70
     0
300
10:1
140
10.0
141
1.0
290
     0
  0
SCALE
  5
58
102
{ACAD_REACTORS
330
47
102
}
330
47
100
AcDbScale
 70
     0
300
100:1
140
100.0
141
1.0
290
     0
  0
SCALE
  5
59
102
{ACAD_REACTORS
330
47
102
}
330
47
100
AcDbScale
 70
     0
300
1/128" = 1'-0"
140
0.0078125
141
12.0
290
     0
  0
SCALE
  5
5A
102
{ACAD_REACTORS
330
47
102
}
330
47
100
AcDbScale
 70
     0
300
1/64" = 1'-0"
140
0.015625
141
12.0
290
     0
  0
SCALE
  5
5B
102
{ACAD_REACTORS
330
47
102
}
330
47
100
AcDbScale
 70
     0
300
1/32" = 1'-0"
140
0.03125
141
12.0
290
     0
  0
SCALE
  5
5C
102
{ACAD_REACTORS
330
47
102
}
330
47
100
AcDbScale
 70
     0
300
1/16" = 1'-0"
140
0.0625
141
12.0
290
     0
  0
SCALE
  5
5D
102
{ACAD_REACTORS
330
47
102
}
330
47
100
AcDbScale
 70
     0
300
3/32" = 1'-0"
140
0.09375
141
12.0
290
     0
  0
SCALE
  5
5E
102
{ACAD_REACTORS
330
47
102
}
330
47
100
AcDbScale
 70
     0
300
1/8" = 1'-0"
140
0.125
141
12.0
290
     0
  0
SCALE
  5
5F
102
{ACAD_REACTORS
330
47
102
}
330
47
100
AcDbScale
 70
     0
300
3/16" = 1'-0"
140
0.1875
141
12.0
290
     0
  0
SCALE
  5
60
102
{ACAD_REACTORS
330
47
102
}
330
47
100
AcDbScale
 70
     0
300
1/4" = 1'-0"
140
0.25
141
12.0
290
     0
  0
SCALE
  5
61
102
{ACAD_REACTORS
330
47
102
}
330
47
100
AcDbScale
 70
     0
300
3/8" = 1'-0"
140
0.375
141
12.0
290
     0
  0
SCALE
  5
62
102
{ACAD_REACTORS
330
47
102
}
330
47
100
AcDbScale
 70
     0
300
1/2" = 1'-0"
140
0.5
141
12.0
290
     0
  0
SCALE
  5
63
102
{ACAD_REACTORS
330
47
102
}
330
47
100
AcDbScale
 70
     0
300
3/4" = 1'-0"
140
0.75
141
12.0
290
     0
  0
SCALE
  5
64
102
{ACAD_REACTORS
330
47
102
}
330
47
100
AcDbScale
 70
     0
300
1" = 1'-0"
140
1.0
141
12.0
290
     0
  0
SCALE
  5
65
102
{ACAD_REACTORS
330
47
102
}
330
47
100
AcDbScale
 70
     0
300
1-1/2" = 1'-0"
140
1.5
141
12.0
290
     0
  0
SCALE
  5
66
102
{ACAD_REACTORS
330
47
102
}
330
47
100
AcDbScale
 70
     0
300
3" = 1'-0"
140
3.0
141
12.0
290
     0
  0
SCALE
  5
67
102
{ACAD_REACTORS
330
47
102
}
330
47
100
AcDbScale
 70
     0
300
6" = 1'-0"
140
6.0
141
12.0
290
     0
  0
SCALE
  5
68
102
{ACAD_REACTORS
330
47
102
}
330
47
100
AcDbScale
 70
     0
300
1'-0" = 1'-0"
140
12.0
141
12.0
290
     0
  0
ENDSEC
  0
EOF
