  0
SECTION
  2
HEADER
  9
$ACADVER
  1
AC1015
  9
$ACADMAINTVER
 70
     6
  9
$DWGCODEPAGE
  3
ANSI_1252
  9
$INSBASE
 10
0.0
 20
0.0
 30
0.0
  9
$EXTMIN
 10
0.0
 20
0.0
 30
0.0
  9
$EXTMAX
 10
2940.0
 20
2079.0
 30
0.0
  9
$LIMMIN
 10
0.0
 20
0.0
  9
$LIMMAX
 10
2940.0
 20
2079.0
  9
$ORTHOMODE
 70
     0
  9
$REGENMODE
 70
     1
  9
$FILLMODE
 70
     1
  9
$QTEXTMODE
 70
     0
  9
$MIRRTEXT
 70
     1
  9
$LTSCALE
 40
7.0
  9
$ATTMODE
 70
     1
  9
$TEXTSIZE
 40
24.5
  9
$TRACEWID
 40
1.0
  9
$TEXTSTYLE
  7
STANDARD
  9
$CLAYER
  8
0
  9
$CELTYPE
  6
ByLayer
  9
$CECOLOR
 62
   256
  9
$CELTSCALE
 40
1.0
  9
$DISPSILH
 70
     0
  9
$DIMSCALE
 40
1.0
  9
$DIMASZ
 40
23.114
  9
$DIMEXO
 40
7.0
  9
$DIMDLI
 40
3.75
  9
$DIMRND
 40
0.0
  9
$DIMDLE
 40
0.0
  9
$DIMEXE
 40
7.0
  9
$DIMTP
 40
0.0
  9
$DIMTM
 40
0.0
  9
$DIMTXT
 40
24.5
  9
$DIMCEN
 40
2.5
  9
$DIMTSZ
 40
0.0
  9
$DIMTOL
 70
     0
  9
$DIMLIM
 70
     0
  9
$DIMTIH
 70
     1
  9
$DIMTOH
 70
     1
  9
$DIMSE1
 70
     0
  9
$DIMSE2
 70
     0
  9
$DIMTAD
 70
     1
  9
$DIMZIN
 70
     0
  9
$DIMBLK
  1

  9
$DIMASO
 70
     1
  9
$DIMSHO
 70
     1
  9
$DIMPOST
  1

  9
$DIMAPOST
  1

  9
$DIMALT
 70
     0
  9
$DIMALTD
 70
     3
  9
$DIMALTF
 40
0.0393700787
  9
$DIMLFAC
 40
1.0
  9
$DIMTOFL
 70
     1
  9
$DIMTVP
 40
0.0
  9
$DIMTIX
 70
     0
  9
$DIMSOXD
 70
     0
  9
$DIMSAH
 70
     0
  9
$DIMBLK1
  1

  9
$DIMBLK2
  1

  9
$DIMSTYLE
  2
ISO-25
  9
$DIMCLRD
 70
     0
  9
$DIMCLRE
 70
     0
  9
$DIMCLRT
 70
     0
  9
$DIMTFAC
 40
1.0
  9
$DIMGAP
 40
21.0
  9
$DIMJUST
 70
     0
  9
$DIMSD1
 70
     0
  9
$DIMSD2
 70
     0
  9
$DIMTOLJ
 70
     0
  9
$DIMTZIN
 70
     0
  9
$DIMALTZ
 70
     0
  9
$DIMALTTZ
 70
     0
  9
$DIMUPT
 70
     0
  9
$DIMDEC
 70
     2
  9
$DIMTDEC
 70
     2
  9
$DIMALTU
 70
     2
  9
$DIMALTTD
 70
     3
  9
$DIMTXSTY
  7
STANDARD
  9
$DIMAUNIT
 70
     0
  9
$DIMADEC
 70
     2
  9
$DIMALTRND
 40
0.0
  9
$DIMAZIN
 70
     0
  9
$DIMDSEP
 70
    44
  9
$DIMATFIT
 70
     3
  9
$DIMFRAC
 70
     0
  9
$DIMLDRBLK
  1

  9
$DIMLUNIT
 70
     2
  9
$DIMLWD
 70
    -2
  9
$DIMLWE
 70
    -2
  9
$DIMTMOVE
 70
     0
  9
$LUNITS
 70
     2
  9
$LUPREC
 70
     2
  9
$SKETCHINC
 40
1.0
  9
$FILLETRAD
 40
10.0
  9
$AUNITS
 70
     0
  9
$AUPREC
 70
     2
  9
$MENU
  1
.
  9
$ELEVATION
 40
0.0
  9
$PELEVATION
 40
0.0
  9
$THICKNESS
 40
0.0
  9
$LIMCHECK
 70
     0
  9
$CHAMFERA
 40
0.0
  9
$CHAMFERB
 40
0.0
  9
$CHAMFERC
 40
0.0
  9
$CHAMFERD
 40
0.0
  9
$SKPOLY
 70
     0
  9
$TDCREATE
 40
2460077.46683456
  9
$TDUCREATE
 40
2460077.383501227
  9
$TDUPDATE
 40
2460077.466838796
  9
$TDUUPDATE
 40
2460077.383505463
  9
$TDINDWG
 40
0.0000000116
  9
$TDUSRTIMER
 40
0.0000000116
  9
$USRTIMER
 70
     1
  9
$ANGBASE
 50
0.0
  9
$ANGDIR
 70
     0
  9
$PDMODE
 70
     0
  9
$PDSIZE
 40
-1.0
  9
$PLINEWID
 40
0.0
  9
$SPLFRAME
 70
     0
  9
$SPLINETYPE
 70
     6
  9
$SPLINESEGS
 70
     8
  9
$HANDSEED
  5
6C5
  9
$SURFTAB1
 70
     6
  9
$SURFTAB2
 70
     6
  9
$SURFTYPE
 70
     6
  9
$SURFU
 70
     6
  9
$SURFV
 70
     6
  9
$UCSBASE
  2

  9
$UCSNAME
  2

  9
$UCSORG
 10
0.0
 20
0.0
 30
0.0
  9
$UCSXDIR
 10
1.0
 20
0.0
 30
0.0
  9
$UCSYDIR
 10
0.0
 20
1.0
 30
0.0
  9
$UCSORTHOREF
  2

  9
$UCSORTHOVIEW
 70
     0
  9
$UCSORGTOP
 10
0.0
 20
0.0
 30
0.0
  9
$UCSORGBOTTOM
 10
0.0
 20
0.0
 30
0.0
  9
$UCSORGLEFT
 10
0.0
 20
0.0
 30
0.0
  9
$UCSORGRIGHT
 10
0.0
 20
0.0
 30
0.0
  9
$UCSORGFRONT
 10
0.0
 20
0.0
 30
0.0
  9
$UCSORGBACK
 10
0.0
 20
0.0
 30
0.0
  9
$PUCSBASE
  2

  9
$PUCSNAME
  2

  9
$PUCSORG
 10
0.0
 20
0.0
 30
0.0
  9
$PUCSXDIR
 10
1.0
 20
0.0
 30
0.0
  9
$PUCSYDIR
 10
0.0
 20
1.0
 30
0.0
  9
$PUCSORTHOREF
  2

  9
$PUCSORTHOVIEW
 70
     0
  9
$PUCSORGTOP
 10
0.0
 20
0.0
 30
0.0
  9
$PUCSORGBOTTOM
 10
0.0
 20
0.0
 30
0.0
  9
$PUCSORGLEFT
 10
0.0
 20
0.0
 30
0.0
  9
$PUCSORGRIGHT
 10
0.0
 20
0.0
 30
0.0
  9
$PUCSORGFRONT
 10
0.0
 20
0.0
 30
0.0
  9
$PUCSORGBACK
 10
0.0
 20
0.0
 30
0.0
  9
$USERI1
 70
     0
  9
$USERI2
 70
     0
  9
$USERI3
 70
     0
  9
$USERI4
 70
     0
  9
$USERI5
 70
     0
  9
$USERR1
 40
0.0
  9
$USERR2
 40
0.0
  9
$USERR3
 40
0.0
  9
$USERR4
 40
0.0
  9
$USERR5
 40
0.0
  9
$WORLDVIEW
 70
     1
  9
$SHADEDGE
 70
     3
  9
$SHADEDIF
 70
    70
  9
$TILEMODE
 70
     1
  9
$MAXACTVP
 70
    64
  9
$PINSBASE
 10
0.0
 20
0.0
 30
0.0
  9
$PLIMCHECK
 70
     0
  9
$PEXTMIN
 10
1.0000000000E+20
 20
1.0000000000E+20
 30
1.0000000000E+20
  9
$PEXTMAX
 10
-1.0000000000E+20
 20
-1.0000000000E+20
 30
-1.0000000000E+20
  9
$PLIMMIN
 10
0.0
 20
0.0
  9
$PLIMMAX
 10
420.0
 20
297.0
  9
$UNITMODE
 70
     0
  9
$VISRETAIN
 70
     1
  9
$PLINEGEN
 70
     0
  9
$PSLTSCALE
 70
     1
  9
$TREEDEPTH
 70
  3020
  9
$CMLSTYLE
  2
Standard
  9
$CMLJUST
 70
     0
  9
$CMLSCALE
 40
20.0
  9
$PROXYGRAPHICS
 70
     1
  9
$MEASUREMENT
 70
     1
  9
$CELWEIGHT
370
    -1
  9
$ENDCAPS
280
     0
  9
$JOINSTYLE
280
     0
  9
$LWDISPLAY
290
     1
  9
$INSUNITS
 70
     4
  9
$HYPERLINKBASE
  1

  9
$STYLESHEET
  1

  9
$XEDIT
290
     1
  9
$CEPSNTYPE
380
     0
  9
$PSTYLEMODE
290
     1
  9
$FINGERPRINTGUID
  2
{be1f28e7-4578-4c78-a88e-f35cfa2f0b3a}
  9
$VERSIONGUID
  2
{FAEB1C32-E019-11D5-929B-00C0DF256EC4}
  9
$EXTNAMES
290
     1
  9
$PSVPSCALE
 40
0.0
  9
$OLESTARTUP
290
     0
  0
ENDSEC
  0
SECTION
  2
CLASSES
  0
CLASS
  1
ACDBDICTIONARYWDFLT
  2
AcDbDictionaryWithDefault
  3
ObjectDBX Classes
 90
        0
280
     0
281
     0
  0
CLASS
  1
VISUALSTYLE
  2
AcDbVisualStyle
  3
ObjectDBX Classes
 90
     4095
280
     0
281
     0
  0
CLASS
  1
MATERIAL
  2
AcDbMaterial
  3
ObjectDBX Classes
 90
     1153
280
     0
281
     0
  0
CLASS
  1
SCALE
  2
AcDbScale
  3
ObjectDBX Classes
 90
     1153
280
     0
281
     0
  0
CLASS
  1
TABLESTYLE
  2
AcDbTableStyle
  3
ObjectDBX Classes
 90
     4095
280
     0
281
     0
  0
CLASS
  1
MLEADERSTYLE
  2
AcDbMLeaderStyle
  3
ACDB_MLEADERSTYLE_CLASS
 90
     4095
280
     0
281
     0
  0
CLASS
  1
SUN
  2
AcDbSun
  3
SCENEOE
 90
     1153
280
     0
281
     0
  0
CLASS
  1
ACDBPLACEHOLDER
  2
AcDbPlaceHolder
  3
ObjectDBX Classes
 90
        0
280
     0
281
     0
  0
CLASS
  1
LAYOUT
  2
AcDbLayout
  3
ObjectDBX Classes
 90
        0
280
     0
281
     0
  0
ENDSEC
  0
SECTION
  2
TABLES
  0
TABLE
  2
VPORT
  5
8
330
0
100
AcDbSymbolTable
 70
     1
  0
VPORT
  5
29
330
8
100
AcDbSymbolTableRecord
100
AcDbViewportTableRecord
  2
*Active
 70
     0
 10
0.0
 20
0.0
 11
1.0
 21
1.0
 12
1470.0
 22
1039.5
 13
0.0
 23
0.0
 14
10.0
 24
10.0
 15
10.0
 25
10.0
 16
0.0
 26
0.0
 36
1.0
 17
0.0
 27
0.0
 37
0.0
 40
2079.0
 41
1.4141414141
 42
50.0
 43
0.0
 44
0.0
 50
0.0
 51
0.0
 71
     0
 72
  2000
 73
     1
 74
     3
 75
     0
 76
     0
 77
     0
 78
     0
281
     0
 65
     1
110
0.0
120
0.0
130
0.0
111
1.0
121
0.0
131
0.0
112
0.0
122
1.0
132
0.0
 79
     0
146
0.0
  0
ENDTAB
  0
TABLE
  2
LTYPE
  5
5
330
0
100
AcDbSymbolTable
 70
     6
  0
LTYPE
  5
14
330
5
100
AcDbSymbolTableRecord
100
AcDbLinetypeTableRecord
  2
ByBlock
 70
     0
  3

 72
    65
 73
     0
 40
0.0
  0
LTYPE
  5
15
330
5
100
AcDbSymbolTableRecord
100
AcDbLinetypeTableRecord
  2
ByLayer
 70
     0
  3

 72
    65
 73
     0
 40
0.0
  0
LTYPE
  5
16
330
5
100
AcDbSymbolTableRecord
100
AcDbLinetypeTableRecord
  2
Continuous
 70
     0
  3
Solid line
 72
    65
 73
     0
 40
0.0
  0
LTYPE
  5
6E
330
5
100
AcDbSymbolTableRecord
100
AcDbLinetypeTableRecord
  2
HIDDEN
 70
     0
  3
Hidden __ __ __ __ __ __ __ __ __ __ __ __ __ __
 72
    65
 73
     2
 40
1.905
 49
1.27
 74
     0
 49
-0.635
 74
     0
  0
LTYPE
  5
6F
330
5
100
AcDbSymbolTableRecord
100
AcDbLinetypeTableRecord
  2
PHANTOM
 70
     0
  3
Phantom ______  __  __  ______  __  __  ______
 72
    65
 73
     6
 40
12.7
 49
6.35
 74
     0
 49
-1.27
 74
     0
 49
1.27
 74
     0
 49
-1.27
 74
     0
 49
1.27
 74
     0
 49
-1.27
 74
     0
  0
LTYPE
  5
70
330
5
100
AcDbSymbolTableRecord
100
AcDbLinetypeTableRecord
  2
CENTER
 70
     0
  3
Center ____ _ ____ _ ____ _ ____ _ ____ _ ____
 72
    65
 73
     4
 40
10.16
 49
6.35
 74
     0
 49
-1.27
 74
     0
 49
1.27
 74
     0
 49
-1.27
 74
     0
  0
LTYPE
  5
71
330
5
100
AcDbSymbolTableRecord
100
AcDbLinetypeTableRecord
  2
CENTERX2
 70
     0
  3
Center (2x) ________  __  ________  __  _____
 72
    65
 73
     4
 40
20.32
 49
12.7
 74
     0
 49
-2.54
 74
     0
 49
2.54
 74
     0
 49
-2.54
 74
     0
  0
LTYPE
  5
72
330
5
100
AcDbSymbolTableRecord
100
AcDbLinetypeTableRecord
  2
DOT2
 70
     0
  3
Dot (.5x) ........................................
 72
    65
 73
     2
 40
0.635
 49
0.0
 74
     0
 49
-0.635
 74
     0
  0
ENDTAB
  0
TABLE
  2
LAYER
  5
2
330
0
100
AcDbSymbolTable
 70
     8
  0
LAYER
  5
10
330
2
100
AcDbSymbolTableRecord
100
AcDbLayerTableRecord
  2
0
 70
     0
 62
     7
  6
Continuous
370
    -3
390
F
  0
LAYER
  5
73
330
2
100
AcDbSymbolTableRecord
100
AcDbLayerTableRecord
  2
FORMAT
 70
     0
 62
     7
  6
Continuous
370
    -3
390
F
  0
LAYER
  5
74
330
2
100
AcDbSymbolTableRecord
100
AcDbLayerTableRecord
  2
VORLAGE
 70
     0
 62
     7
  6
Continuous
370
    -3
390
F
  0
LAYER
  5
75
330
2
100
AcDbSymbolTableRecord
100
AcDbLayerTableRecord
  2
1
 70
     0
 62
   179
  6
Continuous
370
    -3
390
F
  0
LAYER
  5
76
330
2
100
AcDbSymbolTableRecord
100
AcDbLayerTableRecord
  2
LAYER0
 70
     0
 62
     7
  6
Continuous
370
    -3
390
F
  0
LAYER
  5
77
330
2
100
AcDbSymbolTableRecord
100
AcDbLayerTableRecord
  2
BEMASSUNG
 70
     0
 62
     1
  6
Continuous
370
    -3
390
F
  0
LAYER
  5
78
330
2
100
AcDbSymbolTableRecord
100
AcDbLayerTableRecord
  2
ÄNDERUNG
 70
     0
 62
     1
  6
Continuous
370
    -3
390
F
  0
LAYER
  5
79
330
2
100
AcDbSymbolTableRecord
100
AcDbLayerTableRecord
  2
KENNZEICHNUNG
 70
     0
 62
     7
  6
Continuous
370
    -3
390
F
  0
ENDTAB
  0
TABLE
  2
STYLE
  5
3
330
0
100
AcDbSymbolTable
 70
     5
  0
STYLE
  5
11
330
3
100
AcDbSymbolTableRecord
100
AcDbTextStyleTableRecord
  2
STANDARD
 70
     0
 40
0.0
 41
1.0
 50
0.0
 71
     0
 42
24.5
  3
ARIAL.TTF
  4

1001
ACAD
1000
ARIAL
1071
       34
  0
STYLE
  5
8B
330
3
100
AcDbSymbolTableRecord
100
AcDbTextStyleTableRecord
  2
SLDTEXTSTYLE0
 70
     0
 40
0.0
 41
0.948
 50
0.0
 71
     0
 42
24.5
  3
ARIAL.TTF
  4

1001
ACAD
1000
Arial
1071
      290
  0
STYLE
  5
B2
330
3
100
AcDbSymbolTableRecord
100
AcDbTextStyleTableRecord
  2
SLDTEXTSTYLE1
 70
     0
 40
0.0
 41
1.0
 50
0.0
 71
     0
 42
24.5
  3
ARIALUNI.TTF
  4

1001
ACAD
1000
Arial Unicode MS
1071
 33554722
  0
STYLE
  5
B8
330
3
100
AcDbSymbolTableRecord
100
AcDbTextStyleTableRecord
  2
SLDTEXTSTYLE2
 70
     0
 40
0.0
 41
0.87
 50
0.0
 71
     0
 42
24.5
  3
ARIALN.TTF
  4

1001
ACAD
1000
Arial Narrow
1071
      290
  0
STYLE
  5
E8
330
3
100
AcDbSymbolTableRecord
100
AcDbTextStyleTableRecord
  2
SLDTEXTSTYLE3
 70
     0
 40
0.0
 41
0.948
 50
0.0
 71
     0
 42
24.5
  3
ARIALBD.TTF
  4

1001
ACAD
1000
Arial
1071
 33554722
  0
ENDTAB
  0
TABLE
  2
VIEW
  5
6
330
0
100
AcDbSymbolTable
 70
     0
  0
ENDTAB
  0
TABLE
  2
UCS
  5
7
330
0
100
AcDbSymbolTable
 70
     0
  0
ENDTAB
  0
TABLE
  2
APPID
  5
9
330
0
100
AcDbSymbolTable
 70
     1
  0
APPID
  5
12
330
9
100
AcDbSymbolTableRecord
100
AcDbRegAppTableRecord
  2
ACAD
 70
     0
  0
ENDTAB
  0
TABLE
  2
DIMSTYLE
  5
A
330
0
100
AcDbSymbolTable
 70
    11
100
AcDbDimStyleTable
  0
DIMSTYLE
105
27
330
A
100
AcDbSymbolTableRecord
100
AcDbDimStyleTableRecord
  2
ISO-25
 70
     0
 41
2.5
 42
0.625
 43
3.75
 44
1.25
 73
     0
 74
     0
 77
     1
 78
     8
140
2.5
141
2.5
143
0.0393700787
147
0.625
171
     3
172
     1
178
     0
271
     2
272
     2
274
     3
278
    44
283
     0
284
     8
340
11
  0
DIMSTYLE
105
200
102
{ACAD_REACTORS
330
1FF
330
217
330
221
330
22B
330
2E2
330
2EC
330
2F6
330
355
330
35F
330
369
330
373
330
37D
330
516
330
51F
330
529
102
}
330
A
100
AcDbSymbolTableRecord
100
AcDbDimStyleTableRecord
  2
SLDDIMSTYLE0
 70
     0
 41
23.114
 44
0.0
 45
0.000000001
 73
     0
 74
     0
 77
     1
 78
    12
 79
     3
140
24.5
147
6.125
173
     1
178
     0
271
     2
272
     2
276
     2
284
    12
340
8B
  0
DIMSTYLE
105
20B
102
{ACAD_REACTORS
330
20A
330
30B
330
32F
330
33D
330
349
330
50B
102
}
330
A
100
AcDbSymbolTableRecord
100
AcDbDimStyleTableRecord
  2
SLDDIMSTYLE1
 70
     0
 41
23.114
 44
0.0
 45
0.000000001
 73
     0
 74
     0
 77
     1
 78
    12
 79
     3
140
24.5
147
6.125
172
     1
173
     1
178
     0
271
     2
272
     2
276
     2
284
    12
289
     0
340
8B
  0
DIMSTYLE
105
300
102
{ACAD_REACTORS
330
2FF
330
316
330
322
102
}
330
A
100
AcDbSymbolTableRecord
100
AcDbDimStyleTableRecord
  2
SLDDIMSTYLE2
 70
     0
 41
23.114
 44
0.0
 45
0.000000001
 73
     0
 74
     0
 77
     1
 78
    12
 79
     3
140
24.5
147
6.125
172
     1
173
     1
178
     0
271
     0
272
     2
276
     2
284
    12
289
     0
340
8B
  0
DIMSTYLE
105
388
330
A
100
AcDbSymbolTableRecord
100
AcDbDimStyleTableRecord
  2
SLDDIMSTYLE3
 70
     0
 41
23.114
 44
0.0
 45
0.000000001
146
23.114
147
0.0
173
     1
178
     0
271
     0
272
     0
276
     2
340
11
  0
DIMSTYLE
105
4F0
102
{ACAD_REACTORS
330
4EF
330
500
102
}
330
A
100
AcDbSymbolTableRecord
100
AcDbDimStyleTableRecord
  2
SLDDIMSTYLE4
 70
     0
 41
7.112
 44
0.0
 45
0.000000001
 73
     0
 74
     0
 77
     1
 78
    12
 79
     3
140
17.9782307943
147
4.4945576986
173
     1
178
     0
271
     2
272
     2
276
     2
284
    12
340
8B
341
4F1
343
4F1
  0
DIMSTYLE
105
615
102
{ACAD_REACTORS
330
614
330
623
330
631
330
63D
330
694
102
}
330
A
100
AcDbSymbolTableRecord
100
AcDbDimStyleTableRecord
  2
SLDDIMSTYLE5
 70
     0
 41
23.114
 44
0.0
 45
0.000000001
 73
     0
 74
     0
 77
     1
 78
    12
 79
     3
140
24.5
144
0.7142857143
147
6.125
172
     1
173
     1
178
     0
271
     2
272
     2
276
     2
284
    12
289
     0
340
8B
  0
DIMSTYLE
105
64A
102
{ACAD_REACTORS
330
649
102
}
330
A
100
AcDbSymbolTableRecord
100
AcDbDimStyleTableRecord
  2
SLDDIMSTYLE6
 70
     0
 41
23.114
 44
0.0
 45
0.000000001
 73
     0
 74
     0
 77
     1
 78
    12
 79
     3
140
24.5
144
0.7142857143
147
6.125
172
     1
173
     1
178
     0
271
     2
272
     2
276
     2
284
    12
289
     0
340
E8
  0
DIMSTYLE
105
658
102
{ACAD_REACTORS
330
657
330
664
102
}
330
A
100
AcDbSymbolTableRecord
100
AcDbDimStyleTableRecord
  2
SLDDIMSTYLE7
 70
     0
 41
7.112
 44
0.0
 45
0.000000001
 73
     0
 74
     0
 77
     1
 78
    12
 79
     3
140
24.5
144
0.7142857143
147
6.125
172
     1
173
     1
178
     0
271
     2
272
     2
276
     2
284
    12
289
     0
340
8B
341
4F1
343
4F1
  0
DIMSTYLE
105
674
330
A
100
AcDbSymbolTableRecord
100
AcDbDimStyleTableRecord
  2
SLDDIMSTYLE8
 70
     0
 41
7.112
 44
0.0
 45
0.000000001
146
7.112
147
0.0
173
     1
178
     0
271
     0
272
     0
276
     2
340
11
341
4F1
343
4F1
344
4F1
  0
DIMSTYLE
105
6A1
102
{ACAD_REACTORS
330
6A0
102
}
330
A
100
AcDbSymbolTableRecord
100
AcDbDimStyleTableRecord
  2
SLDDIMSTYLE9
 70
     0
 41
23.114
 44
0.0
 45
0.000000001
 73
     0
 74
     0
 77
     1
 78
    12
 79
     3
140
24.5
144
0.7142857143
147
6.125
173
     1
178
     0
271
     2
272
     2
276
     2
284
    12
340
8B
  0
ENDTAB
  0
TABLE
  2
BLOCK_RECORD
  5
1
330
0
100
AcDbSymbolTable
 70
    61
  0
BLOCK_RECORD
  5
1F
330
1
100
AcDbSymbolTableRecord
100
AcDbBlockTableRecord
  2
*Model_Space
340
22
  0
BLOCK_RECORD
  5
1B
330
1
100
AcDbSymbolTableRecord
100
AcDbBlockTableRecord
  2
*Paper_Space
340
1E
  0
BLOCK_RECORD
  5
23
330
1
100
AcDbSymbolTableRecord
100
AcDbBlockTableRecord
  2
*Paper_Space0
340
26
  0
BLOCK_RECORD
  5
7A
330
1
100
AcDbSymbolTableRecord
100
AcDbBlockTableRecord
  2
Block1_3_1
340
0
102
{BLKREFS
331
D8
102
}
  0
BLOCK_RECORD
  5
88
330
1
100
AcDbSymbolTableRecord
100
AcDbBlockTableRecord
  2
SW_NOTE_0
340
0
102
{BLKREFS
331
8E
102
}
  0
BLOCK_RECORD
  5
8F
330
1
100
AcDbSymbolTableRecord
100
AcDbBlockTableRecord
  2
Block2_3_1
340
0
102
{BLKREFS
331
D9
102
}
  0
BLOCK_RECORD
  5
AF
330
1
100
AcDbSymbolTableRecord
100
AcDbBlockTableRecord
  2
SW_NOTE_0_1
340
0
102
{BLKREFS
331
B4
102
}
  0
BLOCK_RECORD
  5
B5
330
1
100
AcDbSymbolTableRecord
100
AcDbBlockTableRecord
  2
SW_NOTE_0_2
340
0
102
{BLKREFS
331
BC
102
}
  0
BLOCK_RECORD
  5
BD
330
1
100
AcDbSymbolTableRecord
100
AcDbBlockTableRecord
  2
rechtlicher_Hinweis_Katalogzeichnungen_1
340
0
102
{BLKREFS
331
DA
102
}
  0
BLOCK_RECORD
  5
C0
330
1
100
AcDbSymbolTableRecord
100
AcDbBlockTableRecord
  2
SW_NOTE_0_3
340
0
102
{BLKREFS
331
C9
102
}
  0
BLOCK_RECORD
  5
DC
330
1
100
AcDbSymbolTableRecord
100
AcDbBlockTableRecord
  2
SW_NOTE_0_4
340
0
102
{BLKREFS
331
E2
102
}
  0
BLOCK_RECORD
  5
F4
330
1
100
AcDbSymbolTableRecord
100
AcDbBlockTableRecord
  2
SW_TABLEANNOTATION_0
340
0
102
{BLKREFS
331
10E
102
}
  0
BLOCK_RECORD
  5
201
330
1
100
AcDbSymbolTableRecord
100
AcDbBlockTableRecord
  2
_D
340
0
  0
BLOCK_RECORD
  5
20C
330
1
100
AcDbSymbolTableRecord
100
AcDbBlockTableRecord
  2
_D_1
340
0
  0
BLOCK_RECORD
  5
218
330
1
100
AcDbSymbolTableRecord
100
AcDbBlockTableRecord
  2
_D_2
340
0
  0
BLOCK_RECORD
  5
222
330
1
100
AcDbSymbolTableRecord
100
AcDbBlockTableRecord
  2
_D_3
340
0
  0
BLOCK_RECORD
  5
22C
330
1
100
AcDbSymbolTableRecord
100
AcDbBlockTableRecord
  2
_D_4
340
0
  0
BLOCK_RECORD
  5
2E3
330
1
100
AcDbSymbolTableRecord
100
AcDbBlockTableRecord
  2
_D_5
340
0
  0
BLOCK_RECORD
  5
2ED
330
1
100
AcDbSymbolTableRecord
100
AcDbBlockTableRecord
  2
_D_6
340
0
  0
BLOCK_RECORD
  5
2F7
330
1
100
AcDbSymbolTableRecord
100
AcDbBlockTableRecord
  2
_D_7
340
0
  0
BLOCK_RECORD
  5
301
330
1
100
AcDbSymbolTableRecord
100
AcDbBlockTableRecord
  2
_D_8
340
0
  0
BLOCK_RECORD
  5
30C
330
1
100
AcDbSymbolTableRecord
100
AcDbBlockTableRecord
  2
_D_9
340
0
  0
BLOCK_RECORD
  5
317
330
1
100
AcDbSymbolTableRecord
100
AcDbBlockTableRecord
  2
_D_10
340
0
  0
BLOCK_RECORD
  5
323
330
1
100
AcDbSymbolTableRecord
100
AcDbBlockTableRecord
  2
_D_11
340
0
  0
BLOCK_RECORD
  5
330
330
1
100
AcDbSymbolTableRecord
100
AcDbBlockTableRecord
  2
_D_12
340
0
  0
BLOCK_RECORD
  5
33E
330
1
100
AcDbSymbolTableRecord
100
AcDbBlockTableRecord
  2
_D_13
340
0
  0
BLOCK_RECORD
  5
34A
330
1
100
AcDbSymbolTableRecord
100
AcDbBlockTableRecord
  2
_D_14
340
0
  0
BLOCK_RECORD
  5
356
330
1
100
AcDbSymbolTableRecord
100
AcDbBlockTableRecord
  2
_D_15
340
0
  0
BLOCK_RECORD
  5
360
330
1
100
AcDbSymbolTableRecord
100
AcDbBlockTableRecord
  2
_D_16
340
0
  0
BLOCK_RECORD
  5
36A
330
1
100
AcDbSymbolTableRecord
100
AcDbBlockTableRecord
  2
_D_17
340
0
  0
BLOCK_RECORD
  5
374
330
1
100
AcDbSymbolTableRecord
100
AcDbBlockTableRecord
  2
_D_18
340
0
  0
BLOCK_RECORD
  5
37E
330
1
100
AcDbSymbolTableRecord
100
AcDbBlockTableRecord
  2
_D_19
340
0
  0
BLOCK_RECORD
  5
38C
330
1
100
AcDbSymbolTableRecord
100
AcDbBlockTableRecord
  2
SW_NOTE_0_5
340
0
102
{BLKREFS
331
391
102
}
  0
BLOCK_RECORD
  5
393
330
1
100
AcDbSymbolTableRecord
100
AcDbBlockTableRecord
  2
SW_CENTERMARKSYMBOL_0
340
0
102
{BLKREFS
331
39E
102
}
  0
BLOCK_RECORD
  5
39F
330
1
100
AcDbSymbolTableRecord
100
AcDbBlockTableRecord
  2
SW_CENTERMARKSYMBOL_1
340
0
102
{BLKREFS
331
3AA
102
}
  0
BLOCK_RECORD
  5
3AB
330
1
100
AcDbSymbolTableRecord
100
AcDbBlockTableRecord
  2
SW_CENTERMARKSYMBOL_2
340
0
102
{BLKREFS
331
3B6
102
}
  0
BLOCK_RECORD
  5
3B7
330
1
100
AcDbSymbolTableRecord
100
AcDbBlockTableRecord
  2
SW_CENTERMARKSYMBOL_3
340
0
102
{BLKREFS
331
3C2
102
}
  0
BLOCK_RECORD
  5
3C3
330
1
100
AcDbSymbolTableRecord
100
AcDbBlockTableRecord
  2
SW_CENTERMARKSYMBOL_4
340
0
102
{BLKREFS
331
3CE
102
}
  0
BLOCK_RECORD
  5
3CF
330
1
100
AcDbSymbolTableRecord
100
AcDbBlockTableRecord
  2
SW_CENTERMARKSYMBOL_5
340
0
102
{BLKREFS
331
3DA
102
}
  0
BLOCK_RECORD
  5
3DB
330
1
100
AcDbSymbolTableRecord
100
AcDbBlockTableRecord
  2
SW_CENTERMARKSYMBOL_6
340
0
102
{BLKREFS
331
3E6
102
}
  0
BLOCK_RECORD
  5
3E7
330
1
100
AcDbSymbolTableRecord
100
AcDbBlockTableRecord
  2
SW_CENTERMARKSYMBOL_7
340
0
102
{BLKREFS
331
3F2
102
}
  0
BLOCK_RECORD
  5
3F3
330
1
100
AcDbSymbolTableRecord
100
AcDbBlockTableRecord
  2
SW_CENTERMARKSYMBOL_8
340
0
102
{BLKREFS
331
3FE
102
}
  0
BLOCK_RECORD
  5
3FF
330
1
100
AcDbSymbolTableRecord
100
AcDbBlockTableRecord
  2
SW_CENTERMARKSYMBOL_9
340
0
102
{BLKREFS
331
40A
102
}
  0
BLOCK_RECORD
  5
40B
330
1
100
AcDbSymbolTableRecord
100
AcDbBlockTableRecord
  2
SW_CENTERMARKSYMBOL_10
340
0
102
{BLKREFS
331
416
102
}
  0
BLOCK_RECORD
  5
417
330
1
100
AcDbSymbolTableRecord
100
AcDbBlockTableRecord
  2
SW_CENTERMARKSYMBOL_11
340
0
102
{BLKREFS
331
422
102
}
  0
BLOCK_RECORD
  5
4F1
330
1
100
AcDbSymbolTableRecord
100
AcDbBlockTableRecord
  2
_Dot
340
0
102
{BLKREFS
331
4F9
331
504
331
65C
331
668
102
}
  0
BLOCK_RECORD
  5
4F6
330
1
100
AcDbSymbolTableRecord
100
AcDbBlockTableRecord
  2
_D_20
340
0
  0
BLOCK_RECORD
  5
501
330
1
100
AcDbSymbolTableRecord
100
AcDbBlockTableRecord
  2
_D_21
340
0
  0
BLOCK_RECORD
  5
50C
330
1
100
AcDbSymbolTableRecord
100
AcDbBlockTableRecord
  2
_D_22
340
0
  0
BLOCK_RECORD
  5
517
330
1
100
AcDbSymbolTableRecord
100
AcDbBlockTableRecord
  2
_D_23
340
0
  0
BLOCK_RECORD
  5
520
330
1
100
AcDbSymbolTableRecord
100
AcDbBlockTableRecord
  2
_D_24
340
0
  0
BLOCK_RECORD
  5
52A
330
1
100
AcDbSymbolTableRecord
100
AcDbBlockTableRecord
  2
_D_25
340
0
  0
BLOCK_RECORD
  5
616
330
1
100
AcDbSymbolTableRecord
100
AcDbBlockTableRecord
  2
_D_26
340
0
  0
BLOCK_RECORD
  5
624
330
1
100
AcDbSymbolTableRecord
100
AcDbBlockTableRecord
  2
_D_27
340
0
  0
BLOCK_RECORD
  5
632
330
1
100
AcDbSymbolTableRecord
100
AcDbBlockTableRecord
  2
_D_28
340
0
  0
BLOCK_RECORD
  5
63E
330
1
100
AcDbSymbolTableRecord
100
AcDbBlockTableRecord
  2
_D_29
340
0
  0
BLOCK_RECORD
  5
64B
330
1
100
AcDbSymbolTableRecord
100
AcDbBlockTableRecord
  2
_D_30
340
0
  0
BLOCK_RECORD
  5
659
330
1
100
AcDbSymbolTableRecord
100
AcDbBlockTableRecord
  2
_D_31
340
0
  0
BLOCK_RECORD
  5
665
330
1
100
AcDbSymbolTableRecord
100
AcDbBlockTableRecord
  2
_D_32
340
0
  0
BLOCK_RECORD
  5
695
330
1
100
AcDbSymbolTableRecord
100
AcDbBlockTableRecord
  2
_D_33
340
0
  0
BLOCK_RECORD
  5
6A2
330
1
100
AcDbSymbolTableRecord
100
AcDbBlockTableRecord
  2
_D_34
340
0
  0
BLOCK_RECORD
  5
6AC
330
1
100
AcDbSymbolTableRecord
100
AcDbBlockTableRecord
  2
SW_CENTERMARKSYMBOL_12
340
0
102
{BLKREFS
331
6B7
102
}
  0
BLOCK_RECORD
  5
6B8
330
1
100
AcDbSymbolTableRecord
100
AcDbBlockTableRecord
  2
SW_CENTERMARKSYMBOL_13
340
0
102
{BLKREFS
331
6C3
102
}
  0
ENDTAB
  0
ENDSEC
  0
SECTION
  2
BLOCKS
  0
BLOCK
  5
20
330
1F
100
AcDbEntity
  8
0
100
AcDbBlockBegin
  2
*Model_Space
 70
     0
 10
0.0
 20
0.0
 30
0.0
  3
*Model_Space
  1

  0
ENDBLK
  5
21
330
1F
100
AcDbEntity
  8
0
100
AcDbBlockEnd
  0
BLOCK
  5
1C
330
1B
100
AcDbEntity
 67
     1
  8
0
100
AcDbBlockBegin
  2
*Paper_Space
 70
     0
 10
0.0
 20
0.0
 30
0.0
  3
*Paper_Space
  1

  0
ENDBLK
  5
1D
330
1B
100
AcDbEntity
 67
     1
  8
0
100
AcDbBlockEnd
  0
BLOCK
  5
24
330
23
100
AcDbEntity
  8
0
100
AcDbBlockBegin
  2
*Paper_Space0
 70
     0
 10
0.0
 20
0.0
 30
0.0
  3
*Paper_Space0
  1

  0
ENDBLK
  5
25
330
23
100
AcDbEntity
  8
0
100
AcDbBlockEnd
  0
BLOCK
  5
7B
330
7A
100
AcDbEntity
  8
0
100
AcDbBlockBegin
  2
Block1_3_1
 70
     0
 10
0.0
 20
0.0
 30
0.0
  3
Block1_3_1
  1

  0
CIRCLE
  5
7D
330
7A
100
AcDbEntity
  8
0
  6
Continuous
 62
     7
370
    18
100
AcDbCircle
 10
81.2962813747
 20
63.6276108944
 30
0.0
 40
8.79136307741128
  0
CIRCLE
  5
7E
330
7A
100
AcDbEntity
  8
0
  6
Continuous
 62
     7
370
    18
100
AcDbCircle
 10
81.2962813747
 20
63.6276108944
 30
0.0
 40
15.51210404558959
  0
LINE
  5
7F
330
7A
100
AcDbEntity
  8
0
  6
CENTERX2
 62
     7
370
    18
100
AcDbLine
 10
81.2962813747
 20
63.6276108944
 30
0.0
 11
55.2841773291
 21
63.6276108944
 31
0.0
  0
LINE
  5
80
330
7A
100
AcDbEntity
  8
0
  6
Continuous
 62
     7
370
    18
100
AcDbLine
 10
57.1602751158
 20
48.1155068489
 30
0.0
 11
57.1602751158
 21
79.150109214
 31
0.0
  0
LINE
  5
81
330
7A
100
AcDbEntity
  8
0
  6
Continuous
 62
     7
370
    18
100
AcDbLine
 10
18.7580035265
 20
72.4189739719
 30
0.0
 11
18.7580035265
 21
54.836247817
 31
0.0
  0
LINE
  5
82
330
7A
100
AcDbEntity
  8
0
  6
Continuous
 62
     7
370
    18
100
AcDbLine
 10
18.7580035265
 20
54.836247817
 30
0.0
 11
57.1602751158
 21
48.1155068489
 31
0.0
  0
LINE
  5
83
330
7A
100
AcDbEntity
  8
0
  6
CENTERX2
 62
     7
370
    18
100
AcDbLine
 10
67.6602751158
 20
63.6276108944
 30
0.0
 11
8.2580035265
 21
63.6276108944
 31
0.0
  0
LINE
  5
84
330
7A
100
AcDbEntity
  8
0
  6
Continuous
 62
     7
370
    18
100
AcDbLine
 10
57.1602751158
 20
79.150109214
 30
0.0
 11
18.7580035265
 21
72.4189739719
 31
0.0
  0
LINE
  5
85
330
7A
100
AcDbEntity
  8
0
  6
CENTERX2
 62
     7
370
    18
100
AcDbLine
 10
81.2962813747
 20
63.6276108944
 30
0.0
 11
81.2962813747
 21
37.6155068489
 31
0.0
  0
LINE
  5
86
330
7A
100
AcDbEntity
  8
0
  6
CENTERX2
 62
     7
370
    18
100
AcDbLine
 10
81.2962813747
 20
63.6276108944
 30
0.0
 11
81.2962813747
 21
89.63971494
 31
0.0
  0
LINE
  5
87
330
7A
100
AcDbEntity
  8
0
  6
CENTERX2
 62
     7
370
    18
100
AcDbLine
 10
81.2962813747
 20
63.6276108944
 30
0.0
 11
107.3083854203
 21
63.6276108944
 31
0.0
  0
INSERT
  5
8E
330
7A
100
AcDbEntity
  8
0
  6
Continuous
 62
     7
370
     0
100
AcDbBlockReference
  2
SW_NOTE_0
 10
14.7222830224
 20
16.6281309378
 30
0.0
  0
ENDBLK
  5
7C
330
7A
100
AcDbEntity
  8
0
100
AcDbBlockEnd
  0
BLOCK
  5
89
330
88
100
AcDbEntity
  8
0
100
AcDbBlockBegin
  2
SW_NOTE_0
 70
     0
 10
0.0
 20
0.0
 30
0.0
  3
SW_NOTE_0
  1

  0
MTEXT
  5
8C
330
88
100
AcDbEntity
  8
0
  6
Continuous
 62
     0
370
     0
100
AcDbMText
 10
46.134375
 20
17.144600939
 30
0.0
 40
13.3
 41
0.0
 71
     2
 72
     1
  1
DIN 6  T1 - 
  7
SLDTEXTSTYLE0
 73
     1
 44
1.0
  0
MTEXT
  5
8D
330
88
100
AcDbEntity
  8
0
  6
Continuous
 62
     0
370
     0
100
AcDbMText
 10
46.5984838367
 20
0.0023782104
 30
0.0
 40
13.3
 41
0.0
 71
     2
 72
     1
  1
Proj.methode 1
  7
SLDTEXTSTYLE0
 73
     1
 44
1.0
  0
ENDBLK
  5
8A
330
88
100
AcDbEntity
  8
0
100
AcDbBlockEnd
  0
BLOCK
  5
90
330
8F
100
AcDbEntity
  8
0
100
AcDbBlockBegin
  2
Block2_3_1
 70
     0
 10
0.0
 20
0.0
 30
0.0
  3
Block2_3_1
  1

  0
ARC
  5
92
330
8F
100
AcDbEntity
  8
FORMAT
100
AcDbCircle
 10
1657.2474557671
 20
399.6934206979
 30
0.0
 40
26.25000000000006
100
AcDbArc
 50
93.8225537293
 51
266.1774462707
  0
ARC
  5
93
330
8F
100
AcDbEntity
  8
FORMAT
100
AcDbCircle
 10
1657.2474557671
 20
399.6934206979
 30
0.0
 40
21.0000000000001
100
AcDbArc
 50
94.7801918472
 51
265.2198081528
  0
ARC
  5
94
330
8F
100
AcDbEntity
  8
FORMAT
100
AcDbCircle
 10
1657.2474557671
 20
399.6934206979
 30
0.0
 40
26.25000000000006
100
AcDbArc
 50
273.8225537293
 51
86.1774462707
  0
ARC
  5
95
330
8F
100
AcDbEntity
  8
FORMAT
100
AcDbCircle
 10
1657.2474557671
 20
399.6934206979
 30
0.0
 40
21.0000000000001
100
AcDbArc
 50
274.7801918472
 51
85.2198081528
  0
ARC
  5
96
330
8F
100
AcDbEntity
  8
FORMAT
100
AcDbCircle
 10
1657.2474557671
 20
407.6242915053
 30
0.0
 40
6.022819479648172
100
AcDbArc
 50
304.8395134495
 51
73.1084194601
  0
ARC
  5
97
330
8F
100
AcDbEntity
  8
FORMAT
100
AcDbCircle
 10
1657.2474557671
 20
407.6242915053
 30
0.0
 40
9.81620102162464
100
AcDbArc
 50
313.8988153445
 51
79.7306010333
  0
ARC
  5
98
330
8F
100
AcDbEntity
  8
FORMAT
100
AcDbCircle
 10
1657.2474557671
 20
388.4857005791
 30
0.0
 40
3.440714680707612
100
AcDbArc
 50
300.5716370086
 51
0.0
  0
ARC
  5
99
330
8F
100
AcDbEntity
  8
FORMAT
100
AcDbCircle
 10
1657.2474557671
 20
407.6242915053
 30
0.0
 40
9.81620102162464
100
AcDbArc
 50
100.2693989667
 51
226.1011846555
  0
ARC
  5
9A
330
8F
100
AcDbEntity
  8
FORMAT
100
AcDbCircle
 10
1657.2474557671
 20
388.4857005791
 30
0.0
 40
6.806425489791309
100
AcDbArc
 50
180.0
 51
255.1013518888
  0
ARC
  5
9B
330
8F
100
AcDbEntity
  8
FORMAT
100
AcDbCircle
 10
1657.2474557671
 20
388.4857005791
 30
0.0
 40
6.806425489791309
100
AcDbArc
 50
284.8986481112
 51
0.0
  0
ARC
  5
9C
330
8F
100
AcDbEntity
  8
FORMAT
100
AcDbCircle
 10
1657.2474557671
 20
388.4857005791
 30
0.0
 40
3.440714680707612
100
AcDbArc
 50
180.0
 51
239.4283629914
  0
ARC
  5
9D
330
8F
100
AcDbEntity
  8
FORMAT
100
AcDbCircle
 10
1657.2474557671
 20
407.6242915053
 30
0.0
 40
6.022819479648172
100
AcDbArc
 50
106.8915805399
 51
235.1604865505
  0
LINE
  5
9E
330
8F
100
AcDbEntity
  8
FORMAT
100
AcDbLine
 10
1627.7186808898
 20
370.1646458206
 30
0.0
 11
1686.7762306444
 21
370.1646458206
 31
0.0
  0
LINE
  5
9F
330
8F
100
AcDbEntity
  8
FORMAT
100
AcDbLine
 10
1627.7186808898
 20
429.2221955752
 30
0.0
 11
1686.7762306444
 21
429.2221955752
 31
0.0
  0
LINE
  5
A0
330
8F
100
AcDbEntity
  8
FORMAT
100
AcDbLine
 10
1627.7186808898
 20
429.2221955752
 30
0.0
 11
1627.7186808898
 21
370.1646458206
 31
0.0
  0
LINE
  5
A1
330
8F
100
AcDbEntity
  8
FORMAT
100
AcDbLine
 10
1686.7762306444
 20
429.2221955752
 30
0.0
 11
1686.7762306444
 21
370.1646458206
 31
0.0
  0
LINE
  5
A2
330
8F
100
AcDbEntity
  8
FORMAT
100
AcDbLine
 10
1655.4974557671
 20
425.8850224053
 30
0.0
 11
1655.4974557671
 21
420.6203769983
 31
0.0
  0
LINE
  5
A3
330
8F
100
AcDbEntity
  8
FORMAT
100
AcDbLine
 10
1658.9974557671
 20
425.8850224053
 30
0.0
 11
1658.9974557671
 21
420.6203769983
 31
0.0
  0
LINE
  5
A4
330
8F
100
AcDbEntity
  8
FORMAT
100
AcDbLine
 10
1655.4974557671
 20
378.7664643974
 30
0.0
 11
1655.4974557671
 21
373.5018189904
 31
0.0
  0
LINE
  5
A5
330
8F
100
AcDbEntity
  8
FORMAT
100
AcDbLine
 10
1658.9974557671
 20
378.7664643974
 30
0.0
 11
1658.9974557671
 21
373.5018189904
 31
0.0
  0
LINE
  5
A6
330
8F
100
AcDbEntity
  8
FORMAT
100
AcDbLine
 10
1658.9974557671
 20
417.2832408527
 30
0.0
 11
1658.9974557671
 21
413.3872642177
 31
0.0
  0
LINE
  5
A7
330
8F
100
AcDbEntity
  8
FORMAT
100
AcDbLine
 10
1655.4974557671
 20
417.2832408527
 30
0.0
 11
1655.4974557671
 21
413.3872642177
 31
0.0
  0
LINE
  5
A8
330
8F
100
AcDbEntity
  8
FORMAT
100
AcDbLine
 10
1650.4410302773
 20
388.4857005791
 30
0.0
 11
1650.4410302773
 21
400.5510762146
 31
0.0
  0
LINE
  5
A9
330
8F
100
AcDbEntity
  8
FORMAT
100
AcDbLine
 10
1664.0538812569
 20
388.4857005791
 30
0.0
 11
1664.0538812569
 21
400.5510762146
 31
0.0
  0
LINE
  5
AA
330
8F
100
AcDbEntity
  8
FORMAT
100
AcDbLine
 10
1660.6881704478
 20
388.4857005791
 30
0.0
 11
1660.6881704478
 21
402.6810297309
 31
0.0
  0
LINE
  5
AB
330
8F
100
AcDbEntity
  8
FORMAT
100
AcDbLine
 10
1653.8067410864
 20
388.4857005791
 30
0.0
 11
1653.8067410864
 21
402.6810297309
 31
0.0
  0
LINE
  5
AC
330
8F
100
AcDbEntity
  8
FORMAT
100
AcDbLine
 10
1655.4974557671
 20
385.5232661892
 30
0.0
 11
1655.4974557671
 21
381.9080925071
 31
0.0
  0
LINE
  5
AD
330
8F
100
AcDbEntity
  8
FORMAT
100
AcDbLine
 10
1658.9974557671
 20
385.5232661892
 30
0.0
 11
1658.9974557671
 21
381.9080925071
 31
0.0
  0
HATCH
  5
AE
330
8F
100
AcDbEntity
  8
FORMAT
100
AcDbHatch
 10
0.0
 20
0.0
 30
0.0
210
0.0
220
0.0
230
1.0
  2
SOLID
 70
     1
 71
     0
 91
        5
 92
        0
 93
        4
 72
     1
 10
1686.776230644441
 20
429.2221955751519
 11
1686.776230644441
 21
370.1646458205502
 72
     1
 10
1686.776230644441
 20
370.1646458205502
 11
1627.718680889839
 21
370.1646458205502
 72
     1
 10
1627.718680889839
 20
370.1646458205502
 11
1627.718680889839
 21
429.2221955751519
 72
     1
 10
1627.718680889839
 20
429.2221955751519
 11
1686.776230644441
 21
429.2221955751519
 97
        0
 92
        0
 93
        4
 72
     2
 10
1657.24745576714
 20
399.693420697851
 40
21.00000000000007
 50
94.78019184719915
 51
265.2198081528017
 73
     0
 72
     1
 10
1655.49745576714
 20
420.6203769982786
 11
1655.49745576714
 21
425.8850224052687
 72
     2
 10
1657.24745576714
 20
399.693420697851
 40
26.25000000000005
 50
93.82255372927435
 51
266.1774462707265
 73
     1
 72
     1
 10
1655.49745576714
 20
373.5018189904334
 11
1655.49745576714
 21
378.7664643974235
 97
        0
 92
        0
 93
        8
 72
     1
 10
1664.053881256931
 20
388.4857005790521
 11
1664.053881256931
 21
400.5510762145541
 72
     2
 10
1657.24745576714
 20
407.6242915052733
 40
9.816201021624591
 50
313.8988153445118
 51
439.730601033339
 73
     1
 72
     1
 10
1658.99745576714
 20
417.2832408527408
 11
1658.99745576714
 21
413.3872642177221
 72
     2
 10
1657.24745576714
 20
407.6242915052733
 40
6.022819479648148
 50
286.8915805399267
 51
415.1604865505418
 73
     0
 72
     1
 10
1660.688170447847
 20
402.6810297308583
 11
1660.688170447847
 21
388.4857005790521
 72
     2
 10
1657.24745576714
 20
388.4857005790521
 40
3.440714680707529
 50
0.0
 51
59.42836299135161
 73
     0
 72
     1
 10
1658.99745576714
 20
385.523266189224
 11
1658.99745576714
 21
381.9080925071099
 72
     2
 10
1657.24745576714
 20
388.4857005790521
 40
6.806425489791268
 50
284.8986481111874
 51
360.0000000000008
 73
     1
 97
        0
 92
        0
 93
        8
 72
     2
 10
1657.24745576714
 20
388.4857005790521
 40
3.440714680707529
 50
120.5716370086479
 51
180.0
 73
     0
 72
     1
 10
1653.806741086432
 20
388.4857005790521
 11
1653.806741086432
 21
402.6810297308583
 72
     2
 10
1657.24745576714
 20
407.6242915052733
 40
6.022819479648148
 50
124.839513449459
 51
253.1084194600749
 73
     0
 72
     1
 10
1655.49745576714
 20
413.3872642177221
 11
1655.49745576714
 21
417.2832408527408
 72
     2
 10
1657.24745576714
 20
407.6242915052733
 40
9.816201021624591
 50
100.2693989666618
 51
226.1011846554899
 73
     1
 72
     1
 10
1650.441030277349
 20
400.5510762145541
 11
1650.441030277349
 21
388.4857005790521
 72
     2
 10
1657.24745576714
 20
388.4857005790521
 40
6.806425489791268
 50
180.0
 51
255.1013518888142
 73
     1
 72
     1
 10
1655.49745576714
 20
381.9080925071099
 11
1655.49745576714
 21
385.5232661892239
 97
        0
 92
        0
 93
        4
 72
     2
 10
1657.24745576714
 20
399.693420697851
 40
21.00000000000007
 50
274.7801918471999
 51
445.2198081528016
 73
     0
 72
     1
 10
1658.99745576714
 20
378.7664643974235
 11
1658.99745576714
 21
373.5018189904334
 72
     2
 10
1657.24745576714
 20
399.693420697851
 40
26.25000000000005
 50
273.8225537292751
 51
446.1774462707265
 73
     1
 72
     1
 10
1658.99745576714
 20
425.8850224052687
 11
1658.99745576714
 21
420.6203769982786
 97
        0
 75
     0
 76
     1
 98
        1
 10
0.0
 20
0.0
  0
INSERT
  5
B4
330
8F
100
AcDbEntity
  8
FORMAT
 62
     7
100
AcDbBlockReference
  2
SW_NOTE_0_1
 10
1625.7602656139
 20
334.0630571774
 30
0.0
  0
INSERT
  5
BC
330
8F
100
AcDbEntity
  8
0
  6
Continuous
 62
     7
370
     0
100
AcDbBlockReference
  2
SW_NOTE_0_2
 10
1708.506124485
 20
399.8232127904
 30
0.0
  0
ENDBLK
  5
91
330
8F
100
AcDbEntity
  8
0
100
AcDbBlockEnd
  0
BLOCK
  5
B0
330
AF
100
AcDbEntity
  8
0
100
AcDbBlockBegin
  2
SW_NOTE_0_1
 70
     0
 10
0.0
 20
0.0
 30
0.0
  3
SW_NOTE_0_1
  1

  0
MTEXT
  5
B3
330
AF
100
AcDbEntity
  8
FORMAT
 62
     0
100
AcDbMText
 10
0.0
 20
27.0563380282
 30
0.0
 40
21.0
 41
0.0
 71
     1
 72
     1
  1
ECO
  7
SLDTEXTSTYLE1
 73
     1
 44
1.0
  0
ENDBLK
  5
B1
330
AF
100
AcDbEntity
  8
0
100
AcDbBlockEnd
  0
BLOCK
  5
B6
330
B5
100
AcDbEntity
  8
0
100
AcDbBlockBegin
  2
SW_NOTE_0_2
 70
     0
 10
0.0
 20
0.0
 30
0.0
  3
SW_NOTE_0_2
  1

  0
MTEXT
  5
B9
330
B5
100
AcDbEntity
  8
0
  6
Continuous
 62
     0
370
     0
100
AcDbMText
 10
0.0
 20
22.558685446
 30
0.0
 40
17.5
 41
0.0
 71
     1
 72
     1
  1
ECO Schulte GmbH & Co. KG
  7
SLDTEXTSTYLE2
 73
     1
 44
1.0
  0
MTEXT
  5
BA
330
B5
100
AcDbEntity
  8
0
  6
Continuous
 62
     0
370
     0
100
AcDbMText
 10
0.0
 20
-1.9413153102
 30
0.0
 40
17.5
 41
0.0
 71
     1
 72
     1
  1
Postfach 206
  7
SLDTEXTSTYLE2
 73
     1
 44
1.0
  0
MTEXT
  5
BB
330
B5
100
AcDbEntity
  8
0
  6
Continuous
 62
     0
370
     0
100
AcDbMText
 10
0.0
 20
-26.4413160665
 30
0.0
 40
17.5
 41
0.0
 71
     1
 72
     1
  1
58682 Menden
  7
SLDTEXTSTYLE2
 73
     1
 44
1.0
  0
ENDBLK
  5
B7
330
B5
100
AcDbEntity
  8
0
100
AcDbBlockEnd
  0
BLOCK
  5
BE
330
BD
100
AcDbEntity
  8
0
100
AcDbBlockBegin
  2
rechtlicher_Hinweis_Katalogzeichnungen_1
 70
     0
 10
0.0
 20
0.0
 30
0.0
  3
rechtlicher_Hinweis_Katalogzeichnungen_1
  1

  0
INSERT
  5
C9
330
BD
100
AcDbEntity
  8
0
  6
Continuous
 62
     7
370
     0
100
AcDbBlockReference
  2
SW_NOTE_0_3
 10
2.1768074632
 20
401.5030406501
 30
0.0
  0
ENDBLK
  5
BF
330
BD
100
AcDbEntity
  8
0
100
AcDbBlockEnd
  0
BLOCK
  5
C1
330
C0
100
AcDbEntity
  8
0
100
AcDbBlockBegin
  2
SW_NOTE_0_3
 70
     0
 10
0.0
 20
0.0
 30
0.0
  3
SW_NOTE_0_3
  1

  0
MTEXT
  5
C3
330
C0
100
AcDbEntity
  8
0
  6
Continuous
 62
     0
370
     0
100
AcDbMText
 10
0.0
 20
45.117370892
 30
0.0
 40
35.0
 41
0.0
 71
     1
 72
     1
  1
Technische Änderungen und Irrtümer vorbehalten. Aus dem Gebrauch der Zeichnung können keinerlei Ansprüche (inkl. 
  7
SLDTEXTSTYLE0
 73
     1
 44
1.0
  0
MTEXT
  5
C4
330
C0
100
AcDbEntity
  8
0
  6
Continuous
 62
     0
370
     0
100
AcDbMText
 10
0.0
 20
-3.8826306204
 30
0.0
 40
35.0
 41
0.0
 71
     1
 72
     1
  1
Schadenersatzansprüche) erhoben und gegen ECO Schulte geltend gemacht werden. Die Zeichnung bleibt unser 
  7
SLDTEXTSTYLE0
 73
     1
 44
1.0
  0
MTEXT
  5
C5
330
C0
100
AcDbEntity
  8
0
  6
Continuous
 62
     0
370
     0
100
AcDbMText
 10
0.0
 20
-52.8826321329
 30
0.0
 40
35.0
 41
0.0
 71
     1
 72
     1
  1
Eigentum. Sämtliche sich aus der Zeichnung ergebenden Ansprüche stehen ausschließlich ECO Schulte zu.
  7
SLDTEXTSTYLE0
 73
     1
 44
1.0
  0
MTEXT
  5
C6
330
C0
100
AcDbEntity
  8
0
  6
Continuous
 62
     0
370
     0
100
AcDbMText
 10
0.0
 20
-150.8826351579
 30
0.0
 40
35.0
 41
0.0
 71
     1
 72
     1
  1
Technical changes and errors excepted. No claims (including compensation claims) may be raised against ECO Schulte by 
  7
SLDTEXTSTYLE0
 73
     1
 44
1.0
  0
MTEXT
  5
C7
330
C0
100
AcDbEntity
  8
0
  6
Continuous
 62
     0
370
     0
100
AcDbMText
 10
0.0
 20
-199.8826366703
 30
0.0
 40
35.0
 41
0.0
 71
     1
 72
     1
  1
using of this drawing. The drawing remains the property of ECO Schulte. All claims resulting from this drawing are solely 
  7
SLDTEXTSTYLE0
 73
     1
 44
1.0
  0
MTEXT
  5
C8
330
C0
100
AcDbEntity
  8
0
  6
Continuous
 62
     0
370
     0
100
AcDbMText
 10
0.0
 20
-248.8826381828
 30
0.0
 40
35.0
 41
0.0
 71
     1
 72
     1
  1
entitled to ECO Schulte.
  7
SLDTEXTSTYLE0
 73
     1
 44
1.0
  0
ENDBLK
  5
C2
330
C0
100
AcDbEntity
  8
0
100
AcDbBlockEnd
  0
BLOCK
  5
DD
330
DC
100
AcDbEntity
  8
0
100
AcDbBlockBegin
  2
SW_NOTE_0_4
 70
     0
 10
0.0
 20
0.0
 30
0.0
  3
SW_NOTE_0_4
  1

  0
MTEXT
  5
DF
330
DC
100
AcDbEntity
  8
FORMAT
 62
     0
100
AcDbMText
 10
0.0
 20
23.8746087637
 30
0.0
 40
18.5208333333
 41
0.0
 71
     1
 72
     1
  1
\LBefestigungsmittel:
  7
SLDTEXTSTYLE0
 73
     1
 44
1.0
  0
MTEXT
  5
E0
330
DC
100
AcDbEntity
  8
FORMAT
 62
     0
100
AcDbMText
 10
0.0
 20
-9.7180977825
 30
0.0
 40
18.5208333333
 41
0.0
 71
     1
 72
     1
  1
1. Montageplatte: Stahl/Alu-Tür: 6x M6 (Einnietmutter M6) ; Holztür: 6x Senkschraube ø6x60
  7
SLDTEXTSTYLE0
 73
     1
 44
1.0
  0
MTEXT
  5
E1
330
DC
100
AcDbEntity
  8
FORMAT
 62
     0
100
AcDbMText
 10
0.0
 20
-41.4125430759
 30
0.0
 40
18.5208333333
 41
0.0
 71
     1
 72
     1
  1
2. Gleitschiene: Stahl/Alu-Tür: 2x M6 (Einnietmutter M6) ; Holztür: 2x Senkschraube ø4x30
  7
SLDTEXTSTYLE0
 73
     1
 44
1.0
  0
ENDBLK
  5
DE
330
DC
100
AcDbEntity
  8
0
100
AcDbBlockEnd
  0
BLOCK
  5
F5
330
F4
100
AcDbEntity
  8
0
100
AcDbBlockBegin
  2
SW_TABLEANNOTATION_0
 70
     0
 10
0.0
 20
0.0
 30
0.0
  3
SW_TABLEANNOTATION_0
  1

  0
LINE
  5
F7
330
F4
100
AcDbEntity
  8
FORMAT
 62
     0
100
AcDbLine
 10
0.0
 20
0.0
 30
0.0
 11
0.0
 21
-57.4045902402
 31
0.0
  0
LINE
  5
F8
330
F4
100
AcDbEntity
  8
FORMAT
 62
     0
100
AcDbLine
 10
285.0569387564
 20
0.0
 30
0.0
 11
285.0569387564
 21
-57.4045902402
 31
0.0
  0
LINE
  5
F9
330
F4
100
AcDbEntity
  8
FORMAT
 62
     0
100
AcDbLine
 10
0.0
 20
-57.4045902402
 30
0.0
 11
0.0
 21
-96.0504246862
 31
0.0
  0
LINE
  5
FA
330
F4
100
AcDbEntity
  8
FORMAT
 62
     0
100
AcDbLine
 10
285.0569387564
 20
-57.4045902402
 30
0.0
 11
285.0569387564
 21
-96.0504246862
 31
0.0
  0
LINE
  5
FB
330
F4
100
AcDbEntity
  8
FORMAT
 62
     0
100
AcDbLine
 10
0.0
 20
-96.0504246862
 30
0.0
 11
0.0
 21
-134.6962591321
 31
0.0
  0
LINE
  5
FC
330
F4
100
AcDbEntity
  8
FORMAT
 62
     0
100
AcDbLine
 10
285.0569387564
 20
-96.0504246862
 30
0.0
 11
285.0569387564
 21
-134.6962591321
 31
0.0
  0
LINE
  5
FD
330
F4
100
AcDbEntity
  8
FORMAT
 62
     0
100
AcDbLine
 10
460.6397332518
 20
0.0
 30
0.0
 11
460.6397332518
 21
-57.4045902402
 31
0.0
  0
LINE
  5
FE
330
F4
100
AcDbEntity
  8
FORMAT
 62
     0
100
AcDbLine
 10
460.6397332518
 20
-57.4045902402
 30
0.0
 11
460.6397332518
 21
-96.0504246862
 31
0.0
  0
LINE
  5
FF
330
F4
100
AcDbEntity
  8
FORMAT
 62
     0
100
AcDbLine
 10
460.6397332518
 20
-96.0504246862
 30
0.0
 11
460.6397332518
 21
-134.6962591321
 31
0.0
  0
LINE
  5
100
330
F4
100
AcDbEntity
  8
FORMAT
 62
     0
100
AcDbLine
 10
0.0
 20
0.0
 30
0.0
 11
285.0569387564
 21
0.0
 31
0.0
  0
LINE
  5
101
330
F4
100
AcDbEntity
  8
FORMAT
 62
     0
100
AcDbLine
 10
0.0
 20
-57.4045902402
 30
0.0
 11
285.0569387564
 21
-57.4045902402
 31
0.0
  0
LINE
  5
102
330
F4
100
AcDbEntity
  8
FORMAT
 62
     0
100
AcDbLine
 10
285.0569387564
 20
0.0
 30
0.0
 11
460.6397332518
 21
0.0
 31
0.0
  0
LINE
  5
103
330
F4
100
AcDbEntity
  8
FORMAT
 62
     0
100
AcDbLine
 10
285.0569387564
 20
-57.4045902402
 30
0.0
 11
460.6397332518
 21
-57.4045902402
 31
0.0
  0
LINE
  5
104
330
F4
100
AcDbEntity
  8
FORMAT
 62
     0
100
AcDbLine
 10
0.0
 20
-96.0504246862
 30
0.0
 11
285.0569387564
 21
-96.0504246862
 31
0.0
  0
LINE
  5
105
330
F4
100
AcDbEntity
  8
FORMAT
 62
     0
100
AcDbLine
 10
285.0569387564
 20
-96.0504246862
 30
0.0
 11
460.6397332518
 21
-96.0504246862
 31
0.0
  0
LINE
  5
106
330
F4
100
AcDbEntity
  8
FORMAT
 62
     0
100
AcDbLine
 10
0.0
 20
-134.6962591321
 30
0.0
 11
285.0569387564
 21
-134.6962591321
 31
0.0
  0
LINE
  5
107
330
F4
100
AcDbEntity
  8
FORMAT
 62
     0
100
AcDbLine
 10
285.0569387564
 20
-134.6962591321
 30
0.0
 11
460.6397332518
 21
-134.6962591321
 31
0.0
  0
MTEXT
  5
108
330
F4
100
AcDbEntity
  8
FORMAT
 62
     0
100
AcDbMText
 10
20.079514647
 20
-16.0798507069
 30
0.0
 40
24.5
 41
0.0
 71
     1
 72
     1
  1
Sturztiefe (mm)
  7
SLDTEXTSTYLE0
 73
     1
 44
1.0
  0
MTEXT
  5
109
330
F4
100
AcDbEntity
  8
FORMAT
 62
     0
100
AcDbMText
 10
314.916038305
 20
-16.0798507069
 30
0.0
 40
24.5
 41
0.0
 71
     1
 72
     1
  1
D (mm)
  7
SLDTEXTSTYLE0
 73
     1
 44
1.0
  0
MTEXT
  5
10A
330
F4
100
AcDbEntity
  8
FORMAT
 62
     0
100
AcDbMText
 10
66.2722193469
 20
-64.10506305
 30
0.0
 40
24.5
 41
0.0
 71
     1
 72
     1
  1
-30 ... +10
  7
SLDTEXTSTYLE0
 73
     1
 44
1.0
  0
MTEXT
  5
10B
330
F4
100
AcDbEntity
  8
FORMAT
 62
     0
100
AcDbMText
 10
354.1330586899
 20
-64.10506305
 30
0.0
 40
24.5
 41
0.0
 71
     1
 72
     1
  1
89
  7
SLDTEXTSTYLE0
 73
     1
 44
1.0
  0
MTEXT
  5
10C
330
F4
100
AcDbEntity
  8
FORMAT
 62
     0
100
AcDbMText
 10
62.0357642715
 20
-102.750897496
 30
0.0
 40
24.5
 41
0.0
 71
     1
 72
     1
  1
+11 ... +50
  7
SLDTEXTSTYLE0
 73
     1
 44
1.0
  0
MTEXT
  5
10D
330
F4
100
AcDbEntity
  8
FORMAT
 62
     0
100
AcDbMText
 10
354.1330586899
 20
-102.750897496
 30
0.0
 40
24.5
 41
0.0
 71
     1
 72
     1
  1
79
  7
SLDTEXTSTYLE0
 73
     1
 44
1.0
  0
ENDBLK
  5
F6
330
F4
100
AcDbEntity
  8
0
100
AcDbBlockEnd
  0
BLOCK
  5
202
330
201
100
AcDbEntity
  8
0
100
AcDbBlockBegin
  2
_D
 70
     0
 10
0.0
 20
0.0
 30
0.0
  3
_D
  1

  0
SOLID
  5
204
330
201
100
AcDbEntity
  8
FORMAT
100
AcDbTrace
 10
572.4434482705
 20
1469.426455388
 30
0.0
 11
595.5574482705
 21
1465.870455388
 31
0.0
 12
595.5574482705
 22
1472.982455388
 32
0.0
 13
595.5574482705
 23
1472.982455388
 33
0.0
  0
SOLID
  5
205
330
201
100
AcDbEntity
  8
FORMAT
100
AcDbTrace
 10
1225.4434482705
 20
1469.426455388
 30
0.0
 11
1202.3294482705
 21
1472.982455388
 31
0.0
 12
1202.3294482705
 22
1465.870455388
 32
0.0
 13
1202.3294482705
 23
1465.870455388
 33
0.0
  0
LINE
  5
206
330
201
100
AcDbEntity
  8
FORMAT
100
AcDbLine
 10
572.4434482705
 20
1589.1943387057
 30
0.0
 11
572.4434482705
 21
1462.426455388
 31
0.0
  0
LINE
  5
207
330
201
100
AcDbEntity
  8
FORMAT
100
AcDbLine
 10
1225.4434482705
 20
1589.1943387057
 30
0.0
 11
1225.4434482705
 21
1462.426455388
 31
0.0
  0
LINE
  5
208
330
201
100
AcDbEntity
  8
FORMAT
100
AcDbLine
 10
572.4434482705
 20
1469.426455388
 30
0.0
 11
1225.4434482705
 21
1469.426455388
 31
0.0
  0
MTEXT
  5
209
330
201
100
AcDbEntity
  8
FORMAT
100
AcDbMText
 10
870.8705322992
 20
1501.0086166422
 30
0.0
 40
24.5
 41
0.0
 71
     1
 72
     1
  1
653
  7
SLDTEXTSTYLE0
 73
     1
 44
1.0
  0
ENDBLK
  5
203
330
201
100
AcDbEntity
  8
0
100
AcDbBlockEnd
  0
BLOCK
  5
20D
330
20C
100
AcDbEntity
  8
0
100
AcDbBlockBegin
  2
_D_1
 70
     0
 10
0.0
 20
0.0
 30
0.0
  3
_D_1
  1

  0
SOLID
  5
20F
330
20C
100
AcDbEntity
  8
FORMAT
100
AcDbTrace
 10
1262.8433403325
 20
1595.6943387057
 30
0.0
 11
1259.2873403325
 21
1572.5803387057
 31
0.0
 12
1266.3993403325
 22
1572.5803387057
 32
0.0
 13
1266.3993403325
 23
1572.5803387057
 33
0.0
  0
SOLID
  5
210
330
20C
100
AcDbEntity
  8
FORMAT
100
AcDbTrace
 10
1262.8433403325
 20
1612.6943387057
 30
0.0
 11
1266.3993403325
 21
1635.8083387057
 31
0.0
 12
1259.2873403325
 22
1635.8083387057
 32
0.0
 13
1259.2873403325
 23
1635.8083387057
 33
0.0
  0
LINE
  5
211
330
20C
100
AcDbEntity
  8
FORMAT
100
AcDbLine
 10
1231.9434482705
 20
1595.6943387057
 30
0.0
 11
1269.8433403325
 21
1595.6943387057
 31
0.0
  0
LINE
  5
212
330
20C
100
AcDbEntity
  8
FORMAT
100
AcDbLine
 10
1231.9434482705
 20
1612.6943387057
 30
0.0
 11
1269.8433403325
 21
1612.6943387057
 31
0.0
  0
LINE
  5
213
330
20C
100
AcDbEntity
  8
FORMAT
100
AcDbLine
 10
1262.8433403325
 20
1595.6943387057
 30
0.0
 11
1262.8433403325
 21
1541.3972992951
 31
0.0
  0
LINE
  5
214
330
20C
100
AcDbEntity
  8
FORMAT
100
AcDbLine
 10
1262.8433403325
 20
1595.6943387057
 30
0.0
 11
1262.8433403325
 21
1612.6943387057
 31
0.0
  0
LINE
  5
215
330
20C
100
AcDbEntity
  8
FORMAT
100
AcDbLine
 10
1262.8433403325
 20
1612.6943387057
 30
0.0
 11
1262.8433403325
 21
1657.1443387057
 31
0.0
  0
MTEXT
  5
216
330
20C
100
AcDbEntity
  8
FORMAT
100
AcDbMText
 10
1231.2611790783
 20
1541.3972992951
 30
0.0
 40
24.5
 41
0.0
 71
     1
 72
     1
  1
17
  7
SLDTEXTSTYLE0
 11
-3.269436733918102E-15
 21
1.0
 31
0.0
 73
     1
 44
1.0
  0
ENDBLK
  5
20E
330
20C
100
AcDbEntity
  8
0
100
AcDbBlockEnd
  0
BLOCK
  5
219
330
218
100
AcDbEntity
  8
0
100
AcDbBlockBegin
  2
_D_2
 70
     0
 10
0.0
 20
0.0
 30
0.0
  3
_D_2
  1

  0
SOLID
  5
21B
330
218
100
AcDbEntity
  8
FORMAT
100
AcDbTrace
 10
462.4728040067
 20
1657.6943387039
 30
0.0
 11
466.0288040067
 21
1680.8083387039
 31
0.0
 12
458.9168040067
 22
1680.8083387039
 32
0.0
 13
458.9168040067
 23
1680.8083387039
 33
0.0
  0
SOLID
  5
21C
330
218
100
AcDbEntity
  8
FORMAT
100
AcDbTrace
 10
462.4728040067
 20
1752.6943387039
 30
0.0
 11
458.9168040067
 21
1729.5803387039
 31
0.0
 12
466.0288040067
 22
1729.5803387039
 32
0.0
 13
466.0288040067
 23
1729.5803387039
 33
0.0
  0
LINE
  5
21D
330
218
100
AcDbEntity
  8
FORMAT
100
AcDbLine
 10
496.4434482695
 20
1657.6943387039
 30
0.0
 11
455.4728040067
 21
1657.6943387039
 31
0.0
  0
LINE
  5
21E
330
218
100
AcDbEntity
  8
FORMAT
100
AcDbLine
 10
496.4434482695
 20
1752.6943387039
 30
0.0
 11
455.4728040067
 21
1752.6943387039
 31
0.0
  0
LINE
  5
21F
330
218
100
AcDbEntity
  8
FORMAT
100
AcDbLine
 10
462.4728040067
 20
1657.6943387039
 30
0.0
 11
462.4728040067
 21
1752.6943387039
 31
0.0
  0
MTEXT
  5
220
330
218
100
AcDbEntity
  8
FORMAT
100
AcDbMText
 10
430.8906427524
 20
1686.4790613897
 30
0.0
 40
24.5
 41
0.0
 71
     1
 72
     1
  1
95
  7
SLDTEXTSTYLE0
 11
6.123233995736766E-17
 21
1.0
 31
0.0
 73
     1
 44
1.0
  0
ENDBLK
  5
21A
330
218
100
AcDbEntity
  8
0
100
AcDbBlockEnd
  0
BLOCK
  5
223
330
222
100
AcDbEntity
  8
0
100
AcDbBlockBegin
  2
_D_3
 70
     0
 10
0.0
 20
0.0
 30
0.0
  3
_D_3
  1

  0
SOLID
  5
225
330
222
100
AcDbEntity
  8
FORMAT
100
AcDbTrace
 10
493.9434482695
 20
1790.1570806383
 30
0.0
 11
517.0574482695
 21
1786.6010806383
 31
0.0
 12
517.0574482695
 22
1793.7130806383
 32
0.0
 13
517.0574482695
 23
1793.7130806383
 33
0.0
  0
SOLID
  5
226
330
222
100
AcDbEntity
  8
FORMAT
100
AcDbTrace
 10
1182.9434482695
 20
1790.1570806383
 30
0.0
 11
1159.8294482695
 21
1793.7130806383
 31
0.0
 12
1159.8294482695
 22
1786.6010806383
 32
0.0
 13
1159.8294482695
 23
1786.6010806383
 33
0.0
  0
LINE
  5
227
330
222
100
AcDbEntity
  8
FORMAT
100
AcDbLine
 10
493.9434482695
 20
1754.6943387039
 30
0.0
 11
493.9434482695
 21
1797.1570806383
 31
0.0
  0
LINE
  5
228
330
222
100
AcDbEntity
  8
FORMAT
100
AcDbLine
 10
1182.9434482695
 20
1754.6943387038
 30
0.0
 11
1182.9434482695
 21
1797.1570806383
 31
0.0
  0
LINE
  5
229
330
222
100
AcDbEntity
  8
FORMAT
100
AcDbLine
 10
493.9434482695
 20
1790.1570806383
 30
0.0
 11
1182.9434482695
 21
1790.1570806383
 31
0.0
  0
MTEXT
  5
22A
330
222
100
AcDbEntity
  8
FORMAT
100
AcDbMText
 10
810.3705322983
 20
1821.7392418925
 30
0.0
 40
24.5
 41
0.0
 71
     1
 72
     1
  1
689
  7
SLDTEXTSTYLE0
 73
     1
 44
1.0
  0
ENDBLK
  5
224
330
222
100
AcDbEntity
  8
0
100
AcDbBlockEnd
  0
BLOCK
  5
22D
330
22C
100
AcDbEntity
  8
0
100
AcDbBlockBegin
  2
_D_4
 70
     0
 10
0.0
 20
0.0
 30
0.0
  3
_D_4
  1

  0
SOLID
  5
22F
330
22C
100
AcDbEntity
  8
FORMAT
100
AcDbTrace
 10
493.4434482695
 20
1411.8900889001
 30
0.0
 11
516.5574482695
 21
1408.3340889001
 31
0.0
 12
516.5574482695
 22
1415.4460889001
 32
0.0
 13
516.5574482695
 23
1415.4460889001
 33
0.0
  0
SOLID
  5
230
330
22C
100
AcDbEntity
  8
FORMAT
100
AcDbTrace
 10
773.4434482695
 20
1411.8900889001
 30
0.0
 11
750.3294482695
 21
1415.4460889001
 31
0.0
 12
750.3294482695
 22
1408.3340889001
 32
0.0
 13
750.3294482695
 23
1408.3340889001
 33
0.0
  0
LINE
  5
231
330
22C
100
AcDbEntity
  8
FORMAT
100
AcDbLine
 10
773.4434482695
 20
1599.1497405272
 30
0.0
 11
773.4434482695
 21
1404.8900889001
 31
0.0
  0
LINE
  5
232
330
22C
100
AcDbEntity
  8
FORMAT
100
AcDbLine
 10
493.4434482695
 20
1411.8900889001
 30
0.0
 11
773.4434482695
 21
1411.8900889001
 31
0.0
  0
MTEXT
  5
233
330
22C
100
AcDbEntity
  8
FORMAT
100
AcDbMText
 10
605.3705322982
 20
1443.4722501543
 30
0.0
 40
24.5
 41
0.0
 71
     1
 72
     1
  1
280
  7
SLDTEXTSTYLE0
 73
     1
 44
1.0
  0
ENDBLK
  5
22E
330
22C
100
AcDbEntity
  8
0
100
AcDbBlockEnd
  0
BLOCK
  5
2E4
330
2E3
100
AcDbEntity
  8
0
100
AcDbBlockBegin
  2
_D_5
 70
     0
 10
0.0
 20
0.0
 30
0.0
  3
_D_5
  1

  0
SOLID
  5
2E6
330
2E3
100
AcDbEntity
  8
FORMAT
100
AcDbTrace
 10
582.4434482695
 20
624.4503711674
 30
0.0
 11
605.5574482695
 21
620.8943711674
 31
0.0
 12
605.5574482695
 22
628.0063711674
 32
0.0
 13
605.5574482695
 23
628.0063711674
 33
0.0
  0
SOLID
  5
2E7
330
2E3
100
AcDbEntity
  8
FORMAT
100
AcDbTrace
 10
1215.4434482695
 20
624.4503711674
 30
0.0
 11
1192.3294482695
 21
628.0063711674
 31
0.0
 12
1192.3294482695
 22
620.8943711674
 32
0.0
 13
1192.3294482695
 23
620.8943711674
 33
0.0
  0
LINE
  5
2E8
330
2E3
100
AcDbEntity
  8
FORMAT
100
AcDbLine
 10
582.4434482695
 20
759.9339350028
 30
0.0
 11
582.4434482695
 21
617.4503711674
 31
0.0
  0
LINE
  5
2E9
330
2E3
100
AcDbEntity
  8
FORMAT
100
AcDbLine
 10
1215.4434482695
 20
759.9339350028
 30
0.0
 11
1215.4434482695
 21
617.4503711674
 31
0.0
  0
LINE
  5
2EA
330
2E3
100
AcDbEntity
  8
FORMAT
100
AcDbLine
 10
582.4434482695
 20
624.4503711674
 30
0.0
 11
1215.4434482695
 21
624.4503711674
 31
0.0
  0
MTEXT
  5
2EB
330
2E3
100
AcDbEntity
  8
FORMAT
100
AcDbMText
 10
870.8705322982
 20
656.0325324217
 30
0.0
 40
24.5
 41
0.0
 71
     1
 72
     1
  1
633
  7
SLDTEXTSTYLE0
 73
     1
 44
1.0
  0
ENDBLK
  5
2E5
330
2E3
100
AcDbEntity
  8
0
100
AcDbBlockEnd
  0
BLOCK
  5
2EE
330
2ED
100
AcDbEntity
  8
0
100
AcDbBlockBegin
  2
_D_6
 70
     0
 10
0.0
 20
0.0
 30
0.0
  3
_D_6
  1

  0
SOLID
  5
2F0
330
2ED
100
AcDbEntity
  8
FORMAT
100
AcDbTrace
 10
1214.3879658409
 20
827.6839350024
 30
0.0
 11
1217.9439658409
 21
850.7979350024
 31
0.0
 12
1210.8319658409
 22
850.7979350024
 32
0.0
 13
1210.8319658409
 23
850.7979350024
 33
0.0
  0
SOLID
  5
2F1
330
2ED
100
AcDbEntity
  8
FORMAT
100
AcDbTrace
 10
1214.3879658409
 20
918.6839350024
 30
0.0
 11
1210.8319658409
 21
895.5699350024
 31
0.0
 12
1217.9439658409
 22
895.5699350024
 32
0.0
 13
1217.9439658409
 23
895.5699350024
 33
0.0
  0
LINE
  5
2F2
330
2ED
100
AcDbEntity
  8
FORMAT
100
AcDbLine
 10
1180.4434482695
 20
827.6839350024
 30
0.0
 11
1221.3879658409
 21
827.6839350024
 31
0.0
  0
LINE
  5
2F3
330
2ED
100
AcDbEntity
  8
FORMAT
100
AcDbLine
 10
1180.4434482695
 20
918.6839350024
 30
0.0
 11
1221.3879658409
 21
918.6839350024
 31
0.0
  0
LINE
  5
2F4
330
2ED
100
AcDbEntity
  8
FORMAT
100
AcDbLine
 10
1214.3879658409
 20
827.6839350024
 30
0.0
 11
1214.3879658409
 21
918.6839350024
 31
0.0
  0
MTEXT
  5
2F5
330
2ED
100
AcDbEntity
  8
FORMAT
100
AcDbMText
 10
1182.8058045867
 20
854.4686576882
 30
0.0
 40
24.5
 41
0.0
 71
     1
 72
     1
  1
91
  7
SLDTEXTSTYLE0
 11
6.123233995736766E-17
 21
1.0
 31
0.0
 73
     1
 44
1.0
  0
ENDBLK
  5
2EF
330
2ED
100
AcDbEntity
  8
0
100
AcDbBlockEnd
  0
BLOCK
  5
2F8
330
2F7
100
AcDbEntity
  8
0
100
AcDbBlockBegin
  2
_D_7
 70
     0
 10
0.0
 20
0.0
 30
0.0
  3
_D_7
  1

  0
SOLID
  5
2FA
330
2F7
100
AcDbEntity
  8
FORMAT
100
AcDbTrace
 10
493.4434482695
 20
624.4503711674
 30
0.0
 11
516.5574482695
 21
620.8943711674
 31
0.0
 12
516.5574482695
 22
628.0063711674
 32
0.0
 13
516.5574482695
 23
628.0063711674
 33
0.0
  0
SOLID
  5
2FB
330
2F7
100
AcDbEntity
  8
FORMAT
100
AcDbTrace
 10
582.4434482695
 20
624.4503711674
 30
0.0
 11
559.3294482695
 21
628.0063711674
 31
0.0
 12
559.3294482695
 22
620.8943711674
 32
0.0
 13
559.3294482695
 23
620.8943711674
 33
0.0
  0
LINE
  5
2FC
330
2F7
100
AcDbEntity
  8
FORMAT
100
AcDbLine
 10
582.4434482695
 20
759.9339350028
 30
0.0
 11
582.4434482695
 21
617.4503711674
 31
0.0
  0
LINE
  5
2FD
330
2F7
100
AcDbEntity
  8
FORMAT
100
AcDbLine
 10
493.4434482695
 20
624.4503711674
 30
0.0
 11
582.4434482695
 21
624.4503711674
 31
0.0
  0
MTEXT
  5
2FE
330
2F7
100
AcDbEntity
  8
FORMAT
100
AcDbMText
 10
525.7955313229
 20
656.0325324217
 30
0.0
 40
24.5
 41
0.0
 71
     1
 72
     1
  1
D
  7
SLDTEXTSTYLE0
 73
     1
 44
1.0
  0
ENDBLK
  5
2F9
330
2F7
100
AcDbEntity
  8
0
100
AcDbBlockEnd
  0
BLOCK
  5
302
330
301
100
AcDbEntity
  8
0
100
AcDbBlockBegin
  2
_D_8
 70
     0
 10
0.0
 20
0.0
 30
0.0
  3
_D_8
  1

  0
SOLID
  5
304
330
301
100
AcDbEntity
  8
FORMAT
100
AcDbTrace
 10
1256.9028136912
 20
794.1839350028
 30
0.0
 11
1260.4588136912
 21
817.2979350028
 31
0.0
 12
1253.3468136912
 22
817.2979350028
 32
0.0
 13
1253.3468136912
 23
817.2979350028
 33
0.0
  0
SOLID
  5
305
330
301
100
AcDbEntity
  8
FORMAT
100
AcDbTrace
 10
1256.9028136912
 20
771.9339350028
 30
0.0
 11
1253.3468136912
 21
748.8199350028
 31
0.0
 12
1260.4588136912
 22
748.8199350028
 32
0.0
 13
1260.4588136912
 23
748.8199350028
 33
0.0
  0
LINE
  5
306
330
301
100
AcDbEntity
  8
FORMAT
100
AcDbLine
 10
1227.4434482695
 20
771.9339350028
 30
0.0
 11
1263.9028136912
 21
771.9339350028
 31
0.0
  0
LINE
  5
307
330
301
100
AcDbEntity
  8
FORMAT
100
AcDbLine
 10
1256.9028136912
 20
794.1839350028
 30
0.0
 11
1256.9028136912
 21
838.6339350028
 31
0.0
  0
LINE
  5
308
330
301
100
AcDbEntity
  8
FORMAT
100
AcDbLine
 10
1256.9028136912
 20
794.1839350028
 30
0.0
 11
1256.9028136912
 21
771.9339350028
 31
0.0
  0
LINE
  5
309
330
301
100
AcDbEntity
  8
FORMAT
100
AcDbLine
 10
1256.9028136912
 20
771.9339350028
 30
0.0
 11
1256.9028136912
 21
681.5413774138
 31
0.0
  0
MTEXT
  5
30A
330
301
100
AcDbEntity
  8
FORMAT
100
AcDbMText
 10
1225.320652437
 20
681.5413774138
 30
0.0
 40
24.5
 41
0.0
 71
     1
 72
     1
  1
22
  7
SLDTEXTSTYLE0
 11
-7.044195017643634E-15
 21
1.0
 31
0.0
 73
     1
 44
1.0
  0
ENDBLK
  5
303
330
301
100
AcDbEntity
  8
0
100
AcDbBlockEnd
  0
BLOCK
  5
30D
330
30C
100
AcDbEntity
  8
0
100
AcDbBlockBegin
  2
_D_9
 70
     0
 10
0.0
 20
0.0
 30
0.0
  3
_D_9
  1

  0
SOLID
  5
30F
330
30C
100
AcDbEntity
  8
FORMAT
100
AcDbTrace
 10
693.4419785993
 20
794.1839350028
 30
0.0
 11
689.8859785993
 21
771.0699350028
 31
0.0
 12
696.9979785993
 22
771.0699350028
 32
0.0
 13
696.9979785993
 23
771.0699350028
 33
0.0
  0
SOLID
  5
310
330
30C
100
AcDbEntity
  8
FORMAT
100
AcDbTrace
 10
693.4419785993
 20
835.1839350024
 30
0.0
 11
696.9979785993
 21
858.2979350024
 31
0.0
 12
689.8859785993
 22
858.2979350024
 32
0.0
 13
689.8859785993
 23
858.2979350024
 33
0.0
  0
LINE
  5
311
330
30C
100
AcDbEntity
  8
FORMAT
100
AcDbLine
 10
703.4434482695
 20
835.1839350024
 30
0.0
 11
686.4419785993
 21
835.1839350024
 31
0.0
  0
LINE
  5
312
330
30C
100
AcDbEntity
  8
FORMAT
100
AcDbLine
 10
693.4419785993
 20
794.1839350028
 30
0.0
 11
693.4419785993
 21
727.0564180139
 31
0.0
  0
LINE
  5
313
330
30C
100
AcDbEntity
  8
FORMAT
100
AcDbLine
 10
693.4419785993
 20
794.1839350028
 30
0.0
 11
693.4419785993
 21
835.1839350024
 31
0.0
  0
LINE
  5
314
330
30C
100
AcDbEntity
  8
FORMAT
100
AcDbLine
 10
693.4419785993
 20
835.1839350024
 30
0.0
 11
693.4419785993
 21
879.6339350024
 31
0.0
  0
MTEXT
  5
315
330
30C
100
AcDbEntity
  8
FORMAT
100
AcDbMText
 10
661.859817345
 20
727.0564180139
 30
0.0
 40
24.5
 41
0.0
 71
     1
 72
     1
  1
41
  7
SLDTEXTSTYLE0
 11
6.123233995736766E-17
 21
1.0
 31
0.0
 73
     1
 44
1.0
  0
ENDBLK
  5
30E
330
30C
100
AcDbEntity
  8
0
100
AcDbBlockEnd
  0
BLOCK
  5
318
330
317
100
AcDbEntity
  8
0
100
AcDbBlockBegin
  2
_D_10
 70
     0
 10
0.0
 20
0.0
 30
0.0
  3
_D_10
  1

  0
SOLID
  5
31A
330
317
100
AcDbEntity
  8
FORMAT
100
AcDbTrace
 10
362.2733481623
 20
794.1839350028
 30
0.0
 11
358.7173481623
 21
771.0699350028
 31
0.0
 12
365.8293481623
 22
771.0699350028
 32
0.0
 13
365.8293481623
 23
771.0699350028
 33
0.0
  0
SOLID
  5
31B
330
317
100
AcDbEntity
  8
FORMAT
100
AcDbTrace
 10
362.2733481623
 20
827.6839350024
 30
0.0
 11
365.8293481623
 21
850.7979350024
 31
0.0
 12
358.7173481623
 22
850.7979350024
 32
0.0
 13
358.7173481623
 23
850.7979350024
 33
0.0
  0
LINE
  5
31C
330
317
100
AcDbEntity
  8
FORMAT
100
AcDbLine
 10
506.4434482695
 20
794.1839350028
 30
0.0
 11
355.2733481623
 21
794.1839350028
 31
0.0
  0
LINE
  5
31D
330
317
100
AcDbEntity
  8
FORMAT
100
AcDbLine
 10
496.4434482695
 20
827.6839350024
 30
0.0
 11
355.2733481623
 21
827.6839350024
 31
0.0
  0
LINE
  5
31E
330
317
100
AcDbEntity
  8
FORMAT
100
AcDbLine
 10
362.2733481623
 20
794.1839350028
 30
0.0
 11
362.2733481623
 21
714.2076851111
 31
0.0
  0
LINE
  5
31F
330
317
100
AcDbEntity
  8
FORMAT
100
AcDbLine
 10
362.2733481623
 20
794.1839350028
 30
0.0
 11
362.2733481623
 21
827.6839350024
 31
0.0
  0
LINE
  5
320
330
317
100
AcDbEntity
  8
FORMAT
100
AcDbLine
 10
362.2733481623
 20
827.6839350024
 30
0.0
 11
362.2733481623
 21
872.1339350024
 31
0.0
  0
MTEXT
  5
321
330
317
100
AcDbEntity
  8
FORMAT
100
AcDbMText
 10
330.691186908
 20
714.2076851111
 30
0.0
 40
24.5
 41
0.0
 71
     1
 72
     1
  1
34
  7
SLDTEXTSTYLE0
 11
6.123233995736766E-17
 21
1.0
 31
0.0
 73
     1
 44
1.0
  0
ENDBLK
  5
319
330
317
100
AcDbEntity
  8
0
100
AcDbBlockEnd
  0
BLOCK
  5
324
330
323
100
AcDbEntity
  8
0
100
AcDbBlockBegin
  2
_D_11
 70
     0
 10
0.0
 20
0.0
 30
0.0
  3
_D_11
  1

  0
SOLID
  5
326
330
323
100
AcDbEntity
  8
FORMAT
100
AcDbTrace
 10
323.4434482695
 20
827.6839350024
 30
0.0
 11
319.8874482695
 21
804.5699350024
 31
0.0
 12
326.9994482695
 22
804.5699350024
 32
0.0
 13
326.9994482695
 23
804.5699350024
 33
0.0
  0
SOLID
  5
327
330
323
100
AcDbEntity
  8
FORMAT
100
AcDbTrace
 10
323.4434482695
 20
862.1839350028
 30
0.0
 11
326.9994482695
 21
885.2979350028
 31
0.0
 12
319.8874482695
 22
885.2979350028
 32
0.0
 13
319.8874482695
 23
885.2979350028
 33
0.0
  0
LINE
  5
328
330
323
100
AcDbEntity
  8
FORMAT
100
AcDbLine
 10
496.4434482695
 20
827.6839350024
 30
0.0
 11
316.4434482695
 21
827.6839350024
 31
0.0
  0
LINE
  5
329
330
323
100
AcDbEntity
  8
FORMAT
100
AcDbLine
 10
497.9434482695
 20
862.1839350028
 30
0.0
 11
372.7733481623
 21
862.1839350028
 31
0.0
  0
LINE
  5
32A
330
323
100
AcDbEntity
  8
FORMAT
100
AcDbLine
 10
351.7733481623
 20
862.1839350028
 30
0.0
 11
316.4434482695
 21
862.1839350028
 31
0.0
  0
LINE
  5
32B
330
323
100
AcDbEntity
  8
FORMAT
100
AcDbLine
 10
323.4434482695
 20
827.6839350024
 30
0.0
 11
323.4434482695
 21
714.2076851111
 31
0.0
  0
LINE
  5
32C
330
323
100
AcDbEntity
  8
FORMAT
100
AcDbLine
 10
323.4434482695
 20
827.6839350024
 30
0.0
 11
323.4434482695
 21
862.1839350028
 31
0.0
  0
LINE
  5
32D
330
323
100
AcDbEntity
  8
FORMAT
100
AcDbLine
 10
323.4434482695
 20
862.1839350028
 30
0.0
 11
323.4434482695
 21
906.6339350028
 31
0.0
  0
MTEXT
  5
32E
330
323
100
AcDbEntity
  8
FORMAT
100
AcDbMText
 10
291.8612870153
 20
714.2076851111
 30
0.0
 40
24.5
 41
0.0
 71
     1
 72
     1
  1
35
  7
SLDTEXTSTYLE0
 11
2.832769448823990E-16
 21
1.0
 31
0.0
 73
     1
 44
1.0
  0
ENDBLK
  5
325
330
323
100
AcDbEntity
  8
0
100
AcDbBlockEnd
  0
BLOCK
  5
331
330
330
100
AcDbEntity
  8
0
100
AcDbBlockBegin
  2
_D_12
 70
     0
 10
0.0
 20
0.0
 30
0.0
  3
_D_12
  1

  0
SOLID
  5
333
330
330
100
AcDbEntity
  8
FORMAT
100
AcDbTrace
 10
281.4434482695
 20
862.1839350028
 30
0.0
 11
277.8874482695
 21
839.0699350028
 31
0.0
 12
284.9994482695
 22
839.0699350028
 32
0.0
 13
284.9994482695
 23
839.0699350028
 33
0.0
  0
SOLID
  5
334
330
330
100
AcDbEntity
  8
FORMAT
100
AcDbTrace
 10
281.4434482695
 20
886.1839350028
 30
0.0
 11
284.9994482695
 21
909.2979350028
 31
0.0
 12
277.8874482695
 22
909.2979350028
 32
0.0
 13
277.8874482695
 23
909.2979350028
 33
0.0
  0
LINE
  5
335
330
330
100
AcDbEntity
  8
FORMAT
100
AcDbLine
 10
497.9434482695
 20
862.1839350028
 30
0.0
 11
372.7733481623
 21
862.1839350028
 31
0.0
  0
LINE
  5
336
330
330
100
AcDbEntity
  8
FORMAT
100
AcDbLine
 10
351.7733481623
 20
862.1839350028
 30
0.0
 11
274.4434482695
 21
862.1839350028
 31
0.0
  0
LINE
  5
337
330
330
100
AcDbEntity
  8
FORMAT
100
AcDbLine
 10
497.9434482695
 20
886.1839350028
 30
0.0
 11
333.9434482695
 21
886.1839350028
 31
0.0
  0
LINE
  5
338
330
330
100
AcDbEntity
  8
FORMAT
100
AcDbLine
 10
312.9434482695
 20
886.1839350028
 30
0.0
 11
274.4434482695
 21
886.1839350028
 31
0.0
  0
LINE
  5
339
330
330
100
AcDbEntity
  8
FORMAT
100
AcDbLine
 10
281.4434482695
 20
862.1839350028
 30
0.0
 11
281.4434482695
 21
714.2076851111
 31
0.0
  0
LINE
  5
33A
330
330
100
AcDbEntity
  8
FORMAT
100
AcDbLine
 10
281.4434482695
 20
862.1839350028
 30
0.0
 11
281.4434482695
 21
886.1839350028
 31
0.0
  0
LINE
  5
33B
330
330
100
AcDbEntity
  8
FORMAT
100
AcDbLine
 10
281.4434482695
 20
886.1839350028
 30
0.0
 11
281.4434482695
 21
930.6339350028
 31
0.0
  0
MTEXT
  5
33C
330
330
100
AcDbEntity
  8
FORMAT
100
AcDbMText
 10
249.8612870153
 20
714.2076851111
 30
0.0
 40
24.5
 41
0.0
 71
     1
 72
     1
  1
24
  7
SLDTEXTSTYLE0
 11
6.123233995736766E-17
 21
1.0
 31
0.0
 73
     1
 44
1.0
  0
ENDBLK
  5
332
330
330
100
AcDbEntity
  8
0
100
AcDbBlockEnd
  0
BLOCK
  5
33F
330
33E
100
AcDbEntity
  8
0
100
AcDbBlockBegin
  2
_D_13
 70
     0
 10
0.0
 20
0.0
 30
0.0
  3
_D_13
  1

  0
SOLID
  5
341
330
33E
100
AcDbEntity
  8
FORMAT
100
AcDbTrace
 10
493.4434482695
 20
1009.4441018834
 30
0.0
 11
470.3294482695
 21
1013.0001018834
 31
0.0
 12
470.3294482695
 22
1005.8881018834
 32
0.0
 13
470.3294482695
 23
1005.8881018834
 33
0.0
  0
SOLID
  5
342
330
33E
100
AcDbEntity
  8
FORMAT
100
AcDbTrace
 10
503.4434482695
 20
1009.4441018834
 30
0.0
 11
526.5574482695
 21
1005.8881018834
 31
0.0
 12
526.5574482695
 22
1013.0001018834
 32
0.0
 13
526.5574482695
 23
1013.0001018834
 33
0.0
  0
LINE
  5
343
330
33E
100
AcDbEntity
  8
FORMAT
100
AcDbLine
 10
493.4434482695
 20
670.1839350028
 30
0.0
 11
493.4434482695
 21
1016.4441018834
 31
0.0
  0
LINE
  5
344
330
33E
100
AcDbEntity
  8
FORMAT
100
AcDbLine
 10
503.4434482695
 20
852.6839350024
 30
0.0
 11
503.4434482695
 21
1016.4441018834
 31
0.0
  0
LINE
  5
345
330
33E
100
AcDbEntity
  8
FORMAT
100
AcDbLine
 10
493.4434482695
 20
1009.4441018834
 30
0.0
 11
426.2399484534
 21
1009.4441018834
 31
0.0
  0
LINE
  5
346
330
33E
100
AcDbEntity
  8
FORMAT
100
AcDbLine
 10
493.4434482695
 20
1009.4441018834
 30
0.0
 11
503.4434482695
 21
1009.4441018834
 31
0.0
  0
LINE
  5
347
330
33E
100
AcDbEntity
  8
FORMAT
100
AcDbLine
 10
503.4434482695
 20
1009.4441018834
 30
0.0
 11
547.8934482695
 21
1009.4441018834
 31
0.0
  0
MTEXT
  5
348
330
33E
100
AcDbEntity
  8
FORMAT
100
AcDbMText
 10
426.2399484534
 20
1041.0262631377
 30
0.0
 40
24.5
 41
0.0
 71
     1
 72
     1
  1
10
  7
SLDTEXTSTYLE0
 73
     1
 44
1.0
  0
ENDBLK
  5
340
330
33E
100
AcDbEntity
  8
0
100
AcDbBlockEnd
  0
BLOCK
  5
34B
330
34A
100
AcDbEntity
  8
0
100
AcDbBlockBegin
  2
_D_14
 70
     0
 10
0.0
 20
0.0
 30
0.0
  3
_D_14
  1

  0
SOLID
  5
34D
330
34A
100
AcDbEntity
  8
FORMAT
100
AcDbTrace
 10
493.4434482695
 20
1052.2647507399
 30
0.0
 11
470.3294482695
 21
1055.8207507399
 31
0.0
 12
470.3294482695
 22
1048.7087507399
 32
0.0
 13
470.3294482695
 23
1048.7087507399
 33
0.0
  0
SOLID
  5
34E
330
34A
100
AcDbEntity
  8
FORMAT
100
AcDbTrace
 10
517.4434482695
 20
1052.2647507399
 30
0.0
 11
540.5574482695
 21
1048.7087507399
 31
0.0
 12
540.5574482695
 22
1055.8207507399
 32
0.0
 13
540.5574482695
 23
1055.8207507399
 33
0.0
  0
LINE
  5
34F
330
34A
100
AcDbEntity
  8
FORMAT
100
AcDbLine
 10
493.4434482695
 20
670.1839350028
 30
0.0
 11
493.4434482695
 21
1059.2647507399
 31
0.0
  0
LINE
  5
350
330
34A
100
AcDbEntity
  8
FORMAT
100
AcDbLine
 10
517.4434482695
 20
881.6839350028
 30
0.0
 11
517.4434482695
 21
1059.2647507399
 31
0.0
  0
LINE
  5
351
330
34A
100
AcDbEntity
  8
FORMAT
100
AcDbLine
 10
493.4434482695
 20
1052.2647507399
 30
0.0
 11
426.2399484534
 21
1052.2647507399
 31
0.0
  0
LINE
  5
352
330
34A
100
AcDbEntity
  8
FORMAT
100
AcDbLine
 10
493.4434482695
 20
1052.2647507399
 30
0.0
 11
517.4434482695
 21
1052.2647507399
 31
0.0
  0
LINE
  5
353
330
34A
100
AcDbEntity
  8
FORMAT
100
AcDbLine
 10
517.4434482695
 20
1052.2647507399
 30
0.0
 11
561.8934482695
 21
1052.2647507399
 31
0.0
  0
MTEXT
  5
354
330
34A
100
AcDbEntity
  8
FORMAT
100
AcDbMText
 10
426.2399484534
 20
1083.8469119941
 30
0.0
 40
24.5
 41
0.0
 71
     1
 72
     1
  1
24
  7
SLDTEXTSTYLE0
 73
     1
 44
1.0
  0
ENDBLK
  5
34C
330
34A
100
AcDbEntity
  8
0
100
AcDbBlockEnd
  0
BLOCK
  5
357
330
356
100
AcDbEntity
  8
0
100
AcDbBlockBegin
  2
_D_15
 70
     0
 10
0.0
 20
0.0
 30
0.0
  3
_D_15
  1

  0
SOLID
  5
359
330
356
100
AcDbEntity
  8
FORMAT
100
AcDbTrace
 10
493.4434482695
 20
1081.8962211904
 30
0.0
 11
516.5574482695
 21
1078.3402211904
 31
0.0
 12
516.5574482695
 22
1085.4522211904
 32
0.0
 13
516.5574482695
 23
1085.4522211904
 33
0.0
  0
SOLID
  5
35A
330
356
100
AcDbEntity
  8
FORMAT
100
AcDbTrace
 10
710.4434482695
 20
1081.8962211904
 30
0.0
 11
687.3294482695
 21
1085.4522211904
 31
0.0
 12
687.3294482695
 22
1078.3402211904
 32
0.0
 13
687.3294482695
 23
1078.3402211904
 33
0.0
  0
LINE
  5
35B
330
356
100
AcDbEntity
  8
FORMAT
100
AcDbLine
 10
493.4434482695
 20
670.1839350028
 30
0.0
 11
493.4434482695
 21
1088.8962211904
 31
0.0
  0
LINE
  5
35C
330
356
100
AcDbEntity
  8
FORMAT
100
AcDbLine
 10
710.4434482695
 20
923.9339350024
 30
0.0
 11
710.4434482695
 21
1088.8962211904
 31
0.0
  0
LINE
  5
35D
330
356
100
AcDbEntity
  8
FORMAT
100
AcDbLine
 10
493.4434482695
 20
1081.8962211904
 30
0.0
 11
710.4434482695
 21
1081.8962211904
 31
0.0
  0
MTEXT
  5
35E
330
356
100
AcDbEntity
  8
FORMAT
100
AcDbMText
 10
573.8705322982
 20
1113.4783824446
 30
0.0
 40
24.5
 41
0.0
 71
     1
 72
     1
  1
217
  7
SLDTEXTSTYLE0
 73
     1
 44
1.0
  0
ENDBLK
  5
358
330
356
100
AcDbEntity
  8
0
100
AcDbBlockEnd
  0
BLOCK
  5
361
330
360
100
AcDbEntity
  8
0
100
AcDbBlockBegin
  2
_D_16
 70
     0
 10
0.0
 20
0.0
 30
0.0
  3
_D_16
  1

  0
SOLID
  5
363
330
360
100
AcDbEntity
  8
FORMAT
100
AcDbTrace
 10
710.4434482695
 20
1081.8962211904
 30
0.0
 11
733.5574482695
 21
1078.3402211904
 31
0.0
 12
733.5574482695
 22
1085.4522211904
 32
0.0
 13
733.5574482695
 23
1085.4522211904
 33
0.0
  0
SOLID
  5
364
330
360
100
AcDbEntity
  8
FORMAT
100
AcDbTrace
 10
917.4434482695
 20
1081.8962211904
 30
0.0
 11
894.3294482695
 21
1085.4522211904
 31
0.0
 12
894.3294482695
 22
1078.3402211904
 32
0.0
 13
894.3294482695
 23
1078.3402211904
 33
0.0
  0
LINE
  5
365
330
360
100
AcDbEntity
  8
FORMAT
100
AcDbLine
 10
710.4434482695
 20
923.9339350024
 30
0.0
 11
710.4434482695
 21
1088.8962211904
 31
0.0
  0
LINE
  5
366
330
360
100
AcDbEntity
  8
FORMAT
100
AcDbLine
 10
917.4434482695
 20
923.9339350024
 30
0.0
 11
917.4434482695
 21
1088.8962211904
 31
0.0
  0
LINE
  5
367
330
360
100
AcDbEntity
  8
FORMAT
100
AcDbLine
 10
710.4434482695
 20
1081.8962211904
 30
0.0
 11
917.4434482695
 21
1081.8962211904
 31
0.0
  0
MTEXT
  5
368
330
360
100
AcDbEntity
  8
FORMAT
100
AcDbMText
 10
785.8705322982
 20
1113.4783824446
 30
0.0
 40
24.5
 41
0.0
 71
     1
 72
     1
  1
207
  7
SLDTEXTSTYLE0
 73
     1
 44
1.0
  0
ENDBLK
  5
362
330
360
100
AcDbEntity
  8
0
100
AcDbBlockEnd
  0
BLOCK
  5
36B
330
36A
100
AcDbEntity
  8
0
100
AcDbBlockBegin
  2
_D_17
 70
     0
 10
0.0
 20
0.0
 30
0.0
  3
_D_17
  1

  0
SOLID
  5
36D
330
36A
100
AcDbEntity
  8
FORMAT
100
AcDbTrace
 10
917.4434482695
 20
1081.8962211904
 30
0.0
 11
940.5574482695
 21
1078.3402211904
 31
0.0
 12
940.5574482695
 22
1085.4522211904
 32
0.0
 13
940.5574482695
 23
1085.4522211904
 33
0.0
  0
SOLID
  5
36E
330
36A
100
AcDbEntity
  8
FORMAT
100
AcDbTrace
 10
1143.4434482695
 20
1081.8962211904
 30
0.0
 11
1120.3294482695
 21
1085.4522211904
 31
0.0
 12
1120.3294482695
 22
1078.3402211904
 32
0.0
 13
1120.3294482695
 23
1078.3402211904
 33
0.0
  0
LINE
  5
36F
330
36A
100
AcDbEntity
  8
FORMAT
100
AcDbLine
 10
917.4434482695
 20
923.9339350024
 30
0.0
 11
917.4434482695
 21
1088.8962211904
 31
0.0
  0
LINE
  5
370
330
36A
100
AcDbEntity
  8
FORMAT
100
AcDbLine
 10
1143.4434482695
 20
923.9339350023
 30
0.0
 11
1143.4434482695
 21
1088.8962211904
 31
0.0
  0
LINE
  5
371
330
36A
100
AcDbEntity
  8
FORMAT
100
AcDbLine
 10
917.4434482695
 20
1081.8962211904
 30
0.0
 11
1143.4434482695
 21
1081.8962211904
 31
0.0
  0
MTEXT
  5
372
330
36A
100
AcDbEntity
  8
FORMAT
100
AcDbMText
 10
1002.3705322982
 20
1113.4783824446
 30
0.0
 40
24.5
 41
0.0
 71
     1
 72
     1
  1
226
  7
SLDTEXTSTYLE0
 73
     1
 44
1.0
  0
ENDBLK
  5
36C
330
36A
100
AcDbEntity
  8
0
100
AcDbBlockEnd
  0
BLOCK
  5
375
330
374
100
AcDbEntity
  8
0
100
AcDbBlockBegin
  2
_D_18
 70
     0
 10
0.0
 20
0.0
 30
0.0
  3
_D_18
  1

  0
SOLID
  5
377
330
374
100
AcDbEntity
  8
FORMAT
100
AcDbTrace
 10
493.4434482695
 20
1133.1569186195
 30
0.0
 11
516.5574482695
 21
1129.6009186195
 31
0.0
 12
516.5574482695
 22
1136.7129186195
 32
0.0
 13
516.5574482695
 23
1136.7129186195
 33
0.0
  0
SOLID
  5
378
330
374
100
AcDbEntity
  8
FORMAT
100
AcDbTrace
 10
1159.4434482695
 20
1133.1569186195
 30
0.0
 11
1136.3294482695
 21
1136.7129186195
 31
0.0
 12
1136.3294482695
 22
1129.6009186195
 32
0.0
 13
1136.3294482695
 23
1129.6009186195
 33
0.0
  0
LINE
  5
379
330
374
100
AcDbEntity
  8
FORMAT
100
AcDbLine
 10
493.4434482695
 20
670.1839350028
 30
0.0
 11
493.4434482695
 21
1140.1569186195
 31
0.0
  0
LINE
  5
37A
330
374
100
AcDbEntity
  8
FORMAT
100
AcDbLine
 10
1159.4434482695
 20
905.6839350028
 30
0.0
 11
1159.4434482695
 21
1140.1569186195
 31
0.0
  0
LINE
  5
37B
330
374
100
AcDbEntity
  8
FORMAT
100
AcDbLine
 10
493.4434482695
 20
1133.1569186195
 30
0.0
 11
1159.4434482695
 21
1133.1569186195
 31
0.0
  0
MTEXT
  5
37C
330
374
100
AcDbEntity
  8
FORMAT
100
AcDbMText
 10
798.3705322982
 20
1164.7390798737
 30
0.0
 40
24.5
 41
0.0
 71
     1
 72
     1
  1
666
  7
SLDTEXTSTYLE0
 73
     1
 44
1.0
  0
ENDBLK
  5
376
330
374
100
AcDbEntity
  8
0
100
AcDbBlockEnd
  0
BLOCK
  5
37F
330
37E
100
AcDbEntity
  8
0
100
AcDbBlockBegin
  2
_D_19
 70
     0
 10
0.0
 20
0.0
 30
0.0
  3
_D_19
  1

  0
SOLID
  5
381
330
37E
100
AcDbEntity
  8
FORMAT
100
AcDbTrace
 10
493.4434482695
 20
1176.8979497524
 30
0.0
 11
516.5574482695
 21
1173.3419497524
 31
0.0
 12
516.5574482695
 22
1180.4539497524
 32
0.0
 13
516.5574482695
 23
1180.4539497524
 33
0.0
  0
SOLID
  5
382
330
37E
100
AcDbEntity
  8
FORMAT
100
AcDbTrace
 10
1173.4434482695
 20
1176.8979497524
 30
0.0
 11
1150.3294482695
 21
1180.4539497524
 31
0.0
 12
1150.3294482695
 22
1173.3419497524
 32
0.0
 13
1150.3294482695
 23
1173.3419497524
 33
0.0
  0
LINE
  5
383
330
37E
100
AcDbEntity
  8
FORMAT
100
AcDbLine
 10
493.4434482695
 20
670.1839350028
 30
0.0
 11
493.4434482695
 21
1183.8979497524
 31
0.0
  0
LINE
  5
384
330
37E
100
AcDbEntity
  8
FORMAT
100
AcDbLine
 10
1173.4434482695
 20
918.1839350024
 30
0.0
 11
1173.4434482695
 21
1183.8979497524
 31
0.0
  0
LINE
  5
385
330
37E
100
AcDbEntity
  8
FORMAT
100
AcDbLine
 10
493.4434482695
 20
1176.8979497524
 30
0.0
 11
1173.4434482695
 21
1176.8979497524
 31
0.0
  0
MTEXT
  5
386
330
37E
100
AcDbEntity
  8
FORMAT
100
AcDbMText
 10
805.3705322982
 20
1208.4801110066
 30
0.0
 40
24.5
 41
0.0
 71
     1
 72
     1
  1
680
  7
SLDTEXTSTYLE0
 73
     1
 44
1.0
  0
ENDBLK
  5
380
330
37E
100
AcDbEntity
  8
0
100
AcDbBlockEnd
  0
BLOCK
  5
38D
330
38C
100
AcDbEntity
  8
0
100
AcDbBlockBegin
  2
SW_NOTE_0_5
 70
     0
 10
0.0
 20
0.0
 30
0.0
  3
SW_NOTE_0_5
  1

  0
MTEXT
  5
38F
330
38C
100
AcDbEntity
  8
FORMAT
 62
     0
100
AcDbMText
 10
-306.1732419586
 20
37.5724959179
 30
0.0
 40
18.5208333333
 41
0.0
 71
     1
 72
     1
  1
ø20
  7
SLDTEXTSTYLE0
 73
     1
 44
1.0
  0
MTEXT
  5
390
330
38C
100
AcDbEntity
  8
FORMAT
 62
     0
100
AcDbMText
 10
-306.1732419586
 20
5.8780506245
 30
0.0
 40
18.5208333333
 41
0.0
 71
     1
 72
     1
  1
(verdeckte Kabelzuführung)
  7
SLDTEXTSTYLE0
 73
     1
 44
1.0
  0
ENDBLK
  5
38E
330
38C
100
AcDbEntity
  8
0
100
AcDbBlockEnd
  0
BLOCK
  5
394
330
393
100
AcDbEntity
  8
0
100
AcDbBlockBegin
  2
SW_CENTERMARKSYMBOL_0
 70
     0
 10
0.0
 20
0.0
 30
0.0
  3
SW_CENTERMARKSYMBOL_0
  1

  0
LINE
  5
396
330
393
100
AcDbEntity
  8
FORMAT
 62
     0
100
AcDbLine
 10
0.0
 20
0.0
 30
0.0
 11
0.0
 21
2.5
 31
0.0
  0
LINE
  5
397
330
393
100
AcDbEntity
  8
FORMAT
 62
     0
100
AcDbLine
 10
0.0
 20
0.0
 30
0.0
 11
-2.5
 21
0.0
 31
0.0
  0
LINE
  5
398
330
393
100
AcDbEntity
  8
FORMAT
 62
     0
100
AcDbLine
 10
0.0
 20
0.0
 30
0.0
 11
0.0
 21
-2.5
 31
0.0
  0
LINE
  5
399
330
393
100
AcDbEntity
  8
FORMAT
 62
     0
100
AcDbLine
 10
0.0
 20
0.0
 30
0.0
 11
2.5
 21
0.0
 31
0.0
  0
LINE
  5
39A
330
393
100
AcDbEntity
  8
FORMAT
 62
     0
100
AcDbLine
 10
0.0
 20
2.5
 30
0.0
 11
0.0
 21
5.0
 31
0.0
  0
LINE
  5
39B
330
393
100
AcDbEntity
  8
FORMAT
 62
     0
100
AcDbLine
 10
-2.5
 20
0.0
 30
0.0
 11
-5.0
 21
0.0
 31
0.0
  0
LINE
  5
39C
330
393
100
AcDbEntity
  8
FORMAT
 62
     0
100
AcDbLine
 10
0.0
 20
-2.5
 30
0.0
 11
0.0
 21
-5.0
 31
0.0
  0
LINE
  5
39D
330
393
100
AcDbEntity
  8
FORMAT
 62
     0
100
AcDbLine
 10
2.5
 20
0.0
 30
0.0
 11
5.0
 21
0.0
 31
0.0
  0
ENDBLK
  5
395
330
393
100
AcDbEntity
  8
0
100
AcDbBlockEnd
  0
BLOCK
  5
3A0
330
39F
100
AcDbEntity
  8
0
100
AcDbBlockBegin
  2
SW_CENTERMARKSYMBOL_1
 70
     0
 10
0.0
 20
0.0
 30
0.0
  3
SW_CENTERMARKSYMBOL_1
  1

  0
LINE
  5
3A2
330
39F
100
AcDbEntity
  8
FORMAT
 62
     0
100
AcDbLine
 10
0.0
 20
0.0
 30
0.0
 11
0.0
 21
2.5
 31
0.0
  0
LINE
  5
3A3
330
39F
100
AcDbEntity
  8
FORMAT
 62
     0
100
AcDbLine
 10
0.0
 20
0.0
 30
0.0
 11
-2.5
 21
0.0
 31
0.0
  0
LINE
  5
3A4
330
39F
100
AcDbEntity
  8
FORMAT
 62
     0
100
AcDbLine
 10
0.0
 20
0.0
 30
0.0
 11
0.0
 21
-2.5
 31
0.0
  0
LINE
  5
3A5
330
39F
100
AcDbEntity
  8
FORMAT
 62
     0
100
AcDbLine
 10
0.0
 20
0.0
 30
0.0
 11
2.5
 21
0.0
 31
0.0
  0
LINE
  5
3A6
330
39F
100
AcDbEntity
  8
FORMAT
 62
     0
100
AcDbLine
 10
0.0
 20
2.5
 30
0.0
 11
0.0
 21
5.0
 31
0.0
  0
LINE
  5
3A7
330
39F
100
AcDbEntity
  8
FORMAT
 62
     0
100
AcDbLine
 10
-2.5
 20
0.0
 30
0.0
 11
-5.0
 21
0.0
 31
0.0
  0
LINE
  5
3A8
330
39F
100
AcDbEntity
  8
FORMAT
 62
     0
100
AcDbLine
 10
0.0
 20
-2.5
 30
0.0
 11
0.0
 21
-5.0
 31
0.0
  0
LINE
  5
3A9
330
39F
100
AcDbEntity
  8
FORMAT
 62
     0
100
AcDbLine
 10
2.5
 20
0.0
 30
0.0
 11
5.0
 21
0.0
 31
0.0
  0
ENDBLK
  5
3A1
330
39F
100
AcDbEntity
  8
0
100
AcDbBlockEnd
  0
BLOCK
  5
3AC
330
3AB
100
AcDbEntity
  8
0
100
AcDbBlockBegin
  2
SW_CENTERMARKSYMBOL_2
 70
     0
 10
0.0
 20
0.0
 30
0.0
  3
SW_CENTERMARKSYMBOL_2
  1

  0
LINE
  5
3AE
330
3AB
100
AcDbEntity
  8
FORMAT
 62
     0
100
AcDbLine
 10
0.0
 20
0.0
 30
0.0
 11
0.0
 21
2.5
 31
0.0
  0
LINE
  5
3AF
330
3AB
100
AcDbEntity
  8
FORMAT
 62
     0
100
AcDbLine
 10
0.0
 20
0.0
 30
0.0
 11
-2.5
 21
0.0
 31
0.0
  0
LINE
  5
3B0
330
3AB
100
AcDbEntity
  8
FORMAT
 62
     0
100
AcDbLine
 10
0.0
 20
0.0
 30
0.0
 11
0.0
 21
-2.5
 31
0.0
  0
LINE
  5
3B1
330
3AB
100
AcDbEntity
  8
FORMAT
 62
     0
100
AcDbLine
 10
0.0
 20
0.0
 30
0.0
 11
2.5
 21
0.0
 31
0.0
  0
LINE
  5
3B2
330
3AB
100
AcDbEntity
  8
FORMAT
 62
     0
100
AcDbLine
 10
0.0
 20
5.0
 30
0.0
 11
0.0
 21
5.75
 31
0.0
  0
LINE
  5
3B3
330
3AB
100
AcDbEntity
  8
FORMAT
 62
     0
100
AcDbLine
 10
-5.0
 20
0.0
 30
0.0
 11
-5.75
 21
0.0
 31
0.0
  0
LINE
  5
3B4
330
3AB
100
AcDbEntity
  8
FORMAT
 62
     0
100
AcDbLine
 10
0.0
 20
-5.0
 30
0.0
 11
0.0
 21
-5.75
 31
0.0
  0
LINE
  5
3B5
330
3AB
100
AcDbEntity
  8
FORMAT
 62
     0
100
AcDbLine
 10
5.0
 20
0.0
 30
0.0
 11
5.75
 21
0.0
 31
0.0
  0
ENDBLK
  5
3AD
330
3AB
100
AcDbEntity
  8
0
100
AcDbBlockEnd
  0
BLOCK
  5
3B8
330
3B7
100
AcDbEntity
  8
0
100
AcDbBlockBegin
  2
SW_CENTERMARKSYMBOL_3
 70
     0
 10
0.0
 20
0.0
 30
0.0
  3
SW_CENTERMARKSYMBOL_3
  1

  0
LINE
  5
3BA
330
3B7
100
AcDbEntity
  8
FORMAT
 62
     0
100
AcDbLine
 10
0.0
 20
0.0
 30
0.0
 11
0.0
 21
2.5
 31
0.0
  0
LINE
  5
3BB
330
3B7
100
AcDbEntity
  8
FORMAT
 62
     0
100
AcDbLine
 10
0.0
 20
0.0
 30
0.0
 11
-2.5
 21
0.0
 31
0.0
  0
LINE
  5
3BC
330
3B7
100
AcDbEntity
  8
FORMAT
 62
     0
100
AcDbLine
 10
0.0
 20
0.0
 30
0.0
 11
0.0
 21
-2.5
 31
0.0
  0
LINE
  5
3BD
330
3B7
100
AcDbEntity
  8
FORMAT
 62
     0
100
AcDbLine
 10
0.0
 20
0.0
 30
0.0
 11
2.5
 21
0.0
 31
0.0
  0
LINE
  5
3BE
330
3B7
100
AcDbEntity
  8
FORMAT
 62
     0
100
AcDbLine
 10
0.0
 20
5.0
 30
0.0
 11
0.0
 21
5.75
 31
0.0
  0
LINE
  5
3BF
330
3B7
100
AcDbEntity
  8
FORMAT
 62
     0
100
AcDbLine
 10
-5.0
 20
0.0
 30
0.0
 11
-5.75
 21
0.0
 31
0.0
  0
LINE
  5
3C0
330
3B7
100
AcDbEntity
  8
FORMAT
 62
     0
100
AcDbLine
 10
0.0
 20
-5.0
 30
0.0
 11
0.0
 21
-5.75
 31
0.0
  0
LINE
  5
3C1
330
3B7
100
AcDbEntity
  8
FORMAT
 62
     0
100
AcDbLine
 10
5.0
 20
0.0
 30
0.0
 11
5.75
 21
0.0
 31
0.0
  0
ENDBLK
  5
3B9
330
3B7
100
AcDbEntity
  8
0
100
AcDbBlockEnd
  0
BLOCK
  5
3C4
330
3C3
100
AcDbEntity
  8
0
100
AcDbBlockBegin
  2
SW_CENTERMARKSYMBOL_4
 70
     0
 10
0.0
 20
0.0
 30
0.0
  3
SW_CENTERMARKSYMBOL_4
  1

  0
LINE
  5
3C6
330
3C3
100
AcDbEntity
  8
FORMAT
 62
     0
100
AcDbLine
 10
0.0
 20
0.0
 30
0.0
 11
0.0
 21
2.5
 31
0.0
  0
LINE
  5
3C7
330
3C3
100
AcDbEntity
  8
FORMAT
 62
     0
100
AcDbLine
 10
0.0
 20
0.0
 30
0.0
 11
-2.5
 21
0.0
 31
0.0
  0
LINE
  5
3C8
330
3C3
100
AcDbEntity
  8
FORMAT
 62
     0
100
AcDbLine
 10
0.0
 20
0.0
 30
0.0
 11
0.0
 21
-2.5
 31
0.0
  0
LINE
  5
3C9
330
3C3
100
AcDbEntity
  8
FORMAT
 62
     0
100
AcDbLine
 10
0.0
 20
0.0
 30
0.0
 11
2.5
 21
0.0
 31
0.0
  0
LINE
  5
3CA
330
3C3
100
AcDbEntity
  8
FORMAT
 62
     0
100
AcDbLine
 10
0.0
 20
5.0
 30
0.0
 11
0.0
 21
5.75
 31
0.0
  0
LINE
  5
3CB
330
3C3
100
AcDbEntity
  8
FORMAT
 62
     0
100
AcDbLine
 10
-5.0
 20
0.0
 30
0.0
 11
-5.75
 21
0.0
 31
0.0
  0
LINE
  5
3CC
330
3C3
100
AcDbEntity
  8
FORMAT
 62
     0
100
AcDbLine
 10
0.0
 20
-5.0
 30
0.0
 11
0.0
 21
-5.75
 31
0.0
  0
LINE
  5
3CD
330
3C3
100
AcDbEntity
  8
FORMAT
 62
     0
100
AcDbLine
 10
5.0
 20
0.0
 30
0.0
 11
5.75
 21
0.0
 31
0.0
  0
ENDBLK
  5
3C5
330
3C3
100
AcDbEntity
  8
0
100
AcDbBlockEnd
  0
BLOCK
  5
3D0
330
3CF
100
AcDbEntity
  8
0
100
AcDbBlockBegin
  2
SW_CENTERMARKSYMBOL_5
 70
     0
 10
0.0
 20
0.0
 30
0.0
  3
SW_CENTERMARKSYMBOL_5
  1

  0
LINE
  5
3D2
330
3CF
100
AcDbEntity
  8
FORMAT
 62
     0
100
AcDbLine
 10
0.0
 20
0.0
 30
0.0
 11
0.0
 21
2.5
 31
0.0
  0
LINE
  5
3D3
330
3CF
100
AcDbEntity
  8
FORMAT
 62
     0
100
AcDbLine
 10
0.0
 20
0.0
 30
0.0
 11
-2.5
 21
0.0
 31
0.0
  0
LINE
  5
3D4
330
3CF
100
AcDbEntity
  8
FORMAT
 62
     0
100
AcDbLine
 10
0.0
 20
0.0
 30
0.0
 11
0.0
 21
-2.5
 31
0.0
  0
LINE
  5
3D5
330
3CF
100
AcDbEntity
  8
FORMAT
 62
     0
100
AcDbLine
 10
0.0
 20
0.0
 30
0.0
 11
2.5
 21
0.0
 31
0.0
  0
LINE
  5
3D6
330
3CF
100
AcDbEntity
  8
FORMAT
 62
     0
100
AcDbLine
 10
0.0
 20
5.0
 30
0.0
 11
0.0
 21
5.75
 31
0.0
  0
LINE
  5
3D7
330
3CF
100
AcDbEntity
  8
FORMAT
 62
     0
100
AcDbLine
 10
-5.0
 20
0.0
 30
0.0
 11
-5.75
 21
0.0
 31
0.0
  0
LINE
  5
3D8
330
3CF
100
AcDbEntity
  8
FORMAT
 62
     0
100
AcDbLine
 10
0.0
 20
-5.0
 30
0.0
 11
0.0
 21
-5.75
 31
0.0
  0
LINE
  5
3D9
330
3CF
100
AcDbEntity
  8
FORMAT
 62
     0
100
AcDbLine
 10
5.0
 20
0.0
 30
0.0
 11
5.75
 21
0.0
 31
0.0
  0
ENDBLK
  5
3D1
330
3CF
100
AcDbEntity
  8
0
100
AcDbBlockEnd
  0
BLOCK
  5
3DC
330
3DB
100
AcDbEntity
  8
0
100
AcDbBlockBegin
  2
SW_CENTERMARKSYMBOL_6
 70
     0
 10
0.0
 20
0.0
 30
0.0
  3
SW_CENTERMARKSYMBOL_6
  1

  0
LINE
  5
3DE
330
3DB
100
AcDbEntity
  8
FORMAT
 62
     0
100
AcDbLine
 10
0.0
 20
0.0
 30
0.0
 11
0.0
 21
2.5
 31
0.0
  0
LINE
  5
3DF
330
3DB
100
AcDbEntity
  8
FORMAT
 62
     0
100
AcDbLine
 10
0.0
 20
0.0
 30
0.0
 11
-2.5
 21
0.0
 31
0.0
  0
LINE
  5
3E0
330
3DB
100
AcDbEntity
  8
FORMAT
 62
     0
100
AcDbLine
 10
0.0
 20
0.0
 30
0.0
 11
0.0
 21
-2.5
 31
0.0
  0
LINE
  5
3E1
330
3DB
100
AcDbEntity
  8
FORMAT
 62
     0
100
AcDbLine
 10
0.0
 20
0.0
 30
0.0
 11
2.5
 21
0.0
 31
0.0
  0
LINE
  5
3E2
330
3DB
100
AcDbEntity
  8
FORMAT
 62
     0
100
AcDbLine
 10
0.0
 20
5.0
 30
0.0
 11
0.0
 21
5.75
 31
0.0
  0
LINE
  5
3E3
330
3DB
100
AcDbEntity
  8
FORMAT
 62
     0
100
AcDbLine
 10
-5.0
 20
0.0
 30
0.0
 11
-5.75
 21
0.0
 31
0.0
  0
LINE
  5
3E4
330
3DB
100
AcDbEntity
  8
FORMAT
 62
     0
100
AcDbLine
 10
0.0
 20
-5.0
 30
0.0
 11
0.0
 21
-5.75
 31
0.0
  0
LINE
  5
3E5
330
3DB
100
AcDbEntity
  8
FORMAT
 62
     0
100
AcDbLine
 10
5.0
 20
0.0
 30
0.0
 11
5.75
 21
0.0
 31
0.0
  0
ENDBLK
  5
3DD
330
3DB
100
AcDbEntity
  8
0
100
AcDbBlockEnd
  0
BLOCK
  5
3E8
330
3E7
100
AcDbEntity
  8
0
100
AcDbBlockBegin
  2
SW_CENTERMARKSYMBOL_7
 70
     0
 10
0.0
 20
0.0
 30
0.0
  3
SW_CENTERMARKSYMBOL_7
  1

  0
LINE
  5
3EA
330
3E7
100
AcDbEntity
  8
FORMAT
 62
     0
100
AcDbLine
 10
0.0
 20
0.0
 30
0.0
 11
0.0
 21
2.5
 31
0.0
  0
LINE
  5
3EB
330
3E7
100
AcDbEntity
  8
FORMAT
 62
     0
100
AcDbLine
 10
0.0
 20
0.0
 30
0.0
 11
-2.5
 21
0.0
 31
0.0
  0
LINE
  5
3EC
330
3E7
100
AcDbEntity
  8
FORMAT
 62
     0
100
AcDbLine
 10
0.0
 20
0.0
 30
0.0
 11
0.0
 21
-2.5
 31
0.0
  0
LINE
  5
3ED
330
3E7
100
AcDbEntity
  8
FORMAT
 62
     0
100
AcDbLine
 10
0.0
 20
0.0
 30
0.0
 11
2.5
 21
0.0
 31
0.0
  0
LINE
  5
3EE
330
3E7
100
AcDbEntity
  8
FORMAT
 62
     0
100
AcDbLine
 10
0.0
 20
5.0
 30
0.0
 11
0.0
 21
5.75
 31
0.0
  0
LINE
  5
3EF
330
3E7
100
AcDbEntity
  8
FORMAT
 62
     0
100
AcDbLine
 10
-5.0
 20
0.0
 30
0.0
 11
-5.75
 21
0.0
 31
0.0
  0
LINE
  5
3F0
330
3E7
100
AcDbEntity
  8
FORMAT
 62
     0
100
AcDbLine
 10
0.0
 20
-5.0
 30
0.0
 11
0.0
 21
-5.75
 31
0.0
  0
LINE
  5
3F1
330
3E7
100
AcDbEntity
  8
FORMAT
 62
     0
100
AcDbLine
 10
5.0
 20
0.0
 30
0.0
 11
5.75
 21
0.0
 31
0.0
  0
ENDBLK
  5
3E9
330
3E7
100
AcDbEntity
  8
0
100
AcDbBlockEnd
  0
BLOCK
  5
3F4
330
3F3
100
AcDbEntity
  8
0
100
AcDbBlockBegin
  2
SW_CENTERMARKSYMBOL_8
 70
     0
 10
0.0
 20
0.0
 30
0.0
  3
SW_CENTERMARKSYMBOL_8
  1

  0
LINE
  5
3F6
330
3F3
100
AcDbEntity
  8
FORMAT
 62
     0
100
AcDbLine
 10
0.0
 20
0.0
 30
0.0
 11
0.0
 21
2.5
 31
0.0
  0
LINE
  5
3F7
330
3F3
100
AcDbEntity
  8
FORMAT
 62
     0
100
AcDbLine
 10
0.0
 20
0.0
 30
0.0
 11
-2.5
 21
0.0
 31
0.0
  0
LINE
  5
3F8
330
3F3
100
AcDbEntity
  8
FORMAT
 62
     0
100
AcDbLine
 10
0.0
 20
0.0
 30
0.0
 11
0.0
 21
-2.5
 31
0.0
  0
LINE
  5
3F9
330
3F3
100
AcDbEntity
  8
FORMAT
 62
     0
100
AcDbLine
 10
0.0
 20
0.0
 30
0.0
 11
2.5
 21
0.0
 31
0.0
  0
LINE
  5
3FA
330
3F3
100
AcDbEntity
  8
FORMAT
 62
     0
100
AcDbLine
 10
0.0
 20
5.0
 30
0.0
 11
0.0
 21
12.5
 31
0.0
  0
LINE
  5
3FB
330
3F3
100
AcDbEntity
  8
FORMAT
 62
     0
100
AcDbLine
 10
-5.0
 20
0.0
 30
0.0
 11
-12.5
 21
0.0
 31
0.0
  0
LINE
  5
3FC
330
3F3
100
AcDbEntity
  8
FORMAT
 62
     0
100
AcDbLine
 10
0.0
 20
-5.0
 30
0.0
 11
0.0
 21
-12.5
 31
0.0
  0
LINE
  5
3FD
330
3F3
100
AcDbEntity
  8
FORMAT
 62
     0
100
AcDbLine
 10
5.0
 20
0.0
 30
0.0
 11
12.5
 21
0.0
 31
0.0
  0
ENDBLK
  5
3F5
330
3F3
100
AcDbEntity
  8
0
100
AcDbBlockEnd
  0
BLOCK
  5
400
330
3FF
100
AcDbEntity
  8
0
100
AcDbBlockBegin
  2
SW_CENTERMARKSYMBOL_9
 70
     0
 10
0.0
 20
0.0
 30
0.0
  3
SW_CENTERMARKSYMBOL_9
  1

  0
LINE
  5
402
330
3FF
100
AcDbEntity
  8
FORMAT
 62
     0
100
AcDbLine
 10
0.0
 20
0.0
 30
0.0
 11
0.0
 21
2.5
 31
0.0
  0
LINE
  5
403
330
3FF
100
AcDbEntity
  8
FORMAT
 62
     0
100
AcDbLine
 10
0.0
 20
0.0
 30
0.0
 11
-2.5
 21
0.0
 31
0.0
  0
LINE
  5
404
330
3FF
100
AcDbEntity
  8
FORMAT
 62
     0
100
AcDbLine
 10
0.0
 20
0.0
 30
0.0
 11
0.0
 21
-2.5
 31
0.0
  0
LINE
  5
405
330
3FF
100
AcDbEntity
  8
FORMAT
 62
     0
100
AcDbLine
 10
0.0
 20
0.0
 30
0.0
 11
2.5
 21
0.0
 31
0.0
  0
LINE
  5
406
330
3FF
100
AcDbEntity
  8
FORMAT
 62
     0
100
AcDbLine
 10
0.0
 20
5.0
 30
0.0
 11
0.0
 21
12.5
 31
0.0
  0
LINE
  5
407
330
3FF
100
AcDbEntity
  8
FORMAT
 62
     0
100
AcDbLine
 10
-5.0
 20
0.0
 30
0.0
 11
-12.5
 21
0.0
 31
0.0
  0
LINE
  5
408
330
3FF
100
AcDbEntity
  8
FORMAT
 62
     0
100
AcDbLine
 10
0.0
 20
-5.0
 30
0.0
 11
0.0
 21
-12.5
 31
0.0
  0
LINE
  5
409
330
3FF
100
AcDbEntity
  8
FORMAT
 62
     0
100
AcDbLine
 10
5.0
 20
0.0
 30
0.0
 11
12.5
 21
0.0
 31
0.0
  0
ENDBLK
  5
401
330
3FF
100
AcDbEntity
  8
0
100
AcDbBlockEnd
  0
BLOCK
  5
40C
330
40B
100
AcDbEntity
  8
0
100
AcDbBlockBegin
  2
SW_CENTERMARKSYMBOL_10
 70
     0
 10
0.0
 20
0.0
 30
0.0
  3
SW_CENTERMARKSYMBOL_10
  1

  0
LINE
  5
40E
330
40B
100
AcDbEntity
  8
FORMAT
 62
     0
100
AcDbLine
 10
0.0
 20
0.0
 30
0.0
 11
0.0
 21
2.5
 31
0.0
  0
LINE
  5
40F
330
40B
100
AcDbEntity
  8
FORMAT
 62
     0
100
AcDbLine
 10
0.0
 20
0.0
 30
0.0
 11
-2.5
 21
0.0
 31
0.0
  0
LINE
  5
410
330
40B
100
AcDbEntity
  8
FORMAT
 62
     0
100
AcDbLine
 10
0.0
 20
0.0
 30
0.0
 11
0.0
 21
-2.5
 31
0.0
  0
LINE
  5
411
330
40B
100
AcDbEntity
  8
FORMAT
 62
     0
100
AcDbLine
 10
0.0
 20
0.0
 30
0.0
 11
2.5
 21
0.0
 31
0.0
  0
LINE
  5
412
330
40B
100
AcDbEntity
  8
FORMAT
 62
     0
100
AcDbLine
 10
0.0
 20
5.0
 30
0.0
 11
0.0
 21
12.5
 31
0.0
  0
LINE
  5
413
330
40B
100
AcDbEntity
  8
FORMAT
 62
     0
100
AcDbLine
 10
-5.0
 20
0.0
 30
0.0
 11
-12.5
 21
0.0
 31
0.0
  0
LINE
  5
414
330
40B
100
AcDbEntity
  8
FORMAT
 62
     0
100
AcDbLine
 10
0.0
 20
-5.0
 30
0.0
 11
0.0
 21
-12.5
 31
0.0
  0
LINE
  5
415
330
40B
100
AcDbEntity
  8
FORMAT
 62
     0
100
AcDbLine
 10
5.0
 20
0.0
 30
0.0
 11
12.5
 21
0.0
 31
0.0
  0
ENDBLK
  5
40D
330
40B
100
AcDbEntity
  8
0
100
AcDbBlockEnd
  0
BLOCK
  5
418
330
417
100
AcDbEntity
  8
0
100
AcDbBlockBegin
  2
SW_CENTERMARKSYMBOL_11
 70
     0
 10
0.0
 20
0.0
 30
0.0
  3
SW_CENTERMARKSYMBOL_11
  1

  0
LINE
  5
41A
330
417
100
AcDbEntity
  8
FORMAT
 62
     0
100
AcDbLine
 10
0.0
 20
0.0
 30
0.0
 11
0.0
 21
2.5
 31
0.0
  0
LINE
  5
41B
330
417
100
AcDbEntity
  8
FORMAT
 62
     0
100
AcDbLine
 10
0.0
 20
0.0
 30
0.0
 11
-2.5
 21
0.0
 31
0.0
  0
LINE
  5
41C
330
417
100
AcDbEntity
  8
FORMAT
 62
     0
100
AcDbLine
 10
0.0
 20
0.0
 30
0.0
 11
0.0
 21
-2.5
 31
0.0
  0
LINE
  5
41D
330
417
100
AcDbEntity
  8
FORMAT
 62
     0
100
AcDbLine
 10
0.0
 20
0.0
 30
0.0
 11
2.5
 21
0.0
 31
0.0
  0
LINE
  5
41E
330
417
100
AcDbEntity
  8
FORMAT
 62
     0
100
AcDbLine
 10
0.0
 20
5.0
 30
0.0
 11
0.0
 21
12.5
 31
0.0
  0
LINE
  5
41F
330
417
100
AcDbEntity
  8
FORMAT
 62
     0
100
AcDbLine
 10
-5.0
 20
0.0
 30
0.0
 11
-12.5
 21
0.0
 31
0.0
  0
LINE
  5
420
330
417
100
AcDbEntity
  8
FORMAT
 62
     0
100
AcDbLine
 10
0.0
 20
-5.0
 30
0.0
 11
0.0
 21
-12.5
 31
0.0
  0
LINE
  5
421
330
417
100
AcDbEntity
  8
FORMAT
 62
     0
100
AcDbLine
 10
5.0
 20
0.0
 30
0.0
 11
12.5
 21
0.0
 31
0.0
  0
ENDBLK
  5
419
330
417
100
AcDbEntity
  8
0
100
AcDbBlockEnd
  0
BLOCK
  5
4F2
330
4F1
100
AcDbEntity
  8
0
100
AcDbBlockBegin
  2
_Dot
 70
     0
 10
0.0
 20
0.0
 30
0.0
  3
_Dot
  1

  0
LWPOLYLINE
  5
4F4
330
4F1
100
AcDbEntity
  8
0
  6
ByBlock
 62
     0
100
AcDbPolyline
 90
        2
 70
     1
 43
0.5
 10
-0.25
 20
0.0
 42
1.0
 10
0.25
 20
0.0
 42
1.0
  0
LINE
  5
4F5
330
4F1
100
AcDbEntity
  8
0
  6
ByBlock
 62
     0
370
    -2
100
AcDbLine
 10
-0.5
 20
0.0
 30
0.0
 11
-1.0
 21
0.0
 31
0.0
  0
ENDBLK
  5
4F3
330
4F1
100
AcDbEntity
  8
0
100
AcDbBlockEnd
  0
BLOCK
  5
4F7
330
4F6
100
AcDbEntity
  8
0
100
AcDbBlockBegin
  2
_D_20
 70
     0
 10
0.0
 20
0.0
 30
0.0
  3
_D_20
  1

  0
INSERT
  5
4F9
330
4F6
100
AcDbEntity
  8
FORMAT
100
AcDbBlockReference
  2
_Dot
 10
2260.9769798295
 20
1885.5828143801
 30
0.0
 41
7.112
 42
7.112
 50
180.0
  0
SOLID
  5
4FA
330
4F6
100
AcDbEntity
  8
FORMAT
100
AcDbTrace
 10
2310.9769798295
 20
1885.5828143801
 30
0.0
 11
2287.8629798295
 21
1889.1388143801
 31
0.0
 12
2287.8629798295
 22
1882.0268143801
 32
0.0
 13
2287.8629798295
 23
1882.0268143801
 33
0.0
  0
LINE
  5
4FB
330
4F6
100
AcDbEntity
  8
FORMAT
100
AcDbLine
 10
2260.9769798295
 20
1833.1943387039
 30
0.0
 11
2260.9769798295
 21
1892.5828143801
 31
0.0
  0
LINE
  5
4FC
330
4F6
100
AcDbEntity
  8
FORMAT
100
AcDbLine
 10
2260.9769798295
 20
1885.5828143801
 30
0.0
 11
2310.9769798295
 21
1885.5828143801
 31
0.0
  0
LINE
  5
4FD
330
4F6
100
AcDbEntity
  8
FORMAT
100
AcDbLine
 10
2310.9769798295
 20
1885.5828143801
 30
0.0
 11
2428.7426005735
 21
1885.5828143801
 31
0.0
  0
MTEXT
  5
4FE
330
4F6
100
AcDbEntity
  8
FORMAT
100
AcDbMText
 10
2326.5350293054
 20
1909.4574243662
 30
0.0
 40
18.5208333333
 41
0.0
 71
     1
 72
     1
  1
max. +
  7
SLDTEXTSTYLE0
 73
     1
 44
1.0
  0
MTEXT
  5
4FF
330
4F6
100
AcDbEntity
  8
FORMAT
100
AcDbMText
 10
2401.3043213322
 20
1909.4574243662
 30
0.0
 40
18.5208333333
 41
0.0
 71
     1
 72
     1
  1
50
  7
SLDTEXTSTYLE0
 73
     1
 44
1.0
  0
ENDBLK
  5
4F8
330
4F6
100
AcDbEntity
  8
0
100
AcDbBlockEnd
  0
BLOCK
  5
502
330
501
100
AcDbEntity
  8
0
100
AcDbBlockBegin
  2
_D_21
 70
     0
 10
0.0
 20
0.0
 30
0.0
  3
_D_21
  1

  0
INSERT
  5
504
330
501
100
AcDbEntity
  8
FORMAT
100
AcDbBlockReference
  2
_Dot
 10
2260.9769798295
 20
1885.5828143802
 30
0.0
 41
7.112
 42
7.112
 50
0.0
  0
SOLID
  5
505
330
501
100
AcDbEntity
  8
FORMAT
100
AcDbTrace
 10
2230.9769798295
 20
1885.5828143802
 30
0.0
 11
2254.0909798295
 21
1882.0268143802
 31
0.0
 12
2254.0909798295
 22
1889.1388143802
 32
0.0
 13
2254.0909798295
 23
1889.1388143802
 33
0.0
  0
LINE
  5
506
330
501
100
AcDbEntity
  8
FORMAT
100
AcDbLine
 10
2260.9769798295
 20
1833.1943387039
 30
0.0
 11
2260.9769798295
 21
1892.5828143802
 31
0.0
  0
LINE
  5
507
330
501
100
AcDbEntity
  8
FORMAT
100
AcDbLine
 10
2260.9769798295
 20
1885.5828143802
 30
0.0
 11
2230.9769798295
 21
1885.5828143802
 31
0.0
  0
LINE
  5
508
330
501
100
AcDbEntity
  8
FORMAT
100
AcDbLine
 10
2230.9769798295
 20
1885.5828143802
 30
0.0
 11
2125.6638749374
 21
1885.5828143802
 31
0.0
  0
MTEXT
  5
509
330
501
100
AcDbEntity
  8
FORMAT
100
AcDbMText
 10
2125.6638749374
 20
1909.4574243662
 30
0.0
 40
18.5208333333
 41
0.0
 71
     1
 72
     1
  1
max. -
  7
SLDTEXTSTYLE0
 73
     1
 44
1.0
  0
MTEXT
  5
50A
330
501
100
AcDbEntity
  8
FORMAT
100
AcDbMText
 10
2194.2595534829
 20
1909.4574243662
 30
0.0
 40
18.5208333333
 41
0.0
 71
     1
 72
     1
  1
30
  7
SLDTEXTSTYLE0
 73
     1
 44
1.0
  0
ENDBLK
  5
503
330
501
100
AcDbEntity
  8
0
100
AcDbBlockEnd
  0
BLOCK
  5
50D
330
50C
100
AcDbEntity
  8
0
100
AcDbBlockBegin
  2
_D_22
 70
     0
 10
0.0
 20
0.0
 30
0.0
  3
_D_22
  1

  0
SOLID
  5
50F
330
50C
100
AcDbEntity
  8
FORMAT
100
AcDbTrace
 10
2260.9769798295
 20
1507.4702603733
 30
0.0
 11
2237.8629798295
 21
1511.0262603733
 31
0.0
 12
2237.8629798295
 22
1503.9142603733
 32
0.0
 13
2237.8629798295
 23
1503.9142603733
 33
0.0
  0
SOLID
  5
510
330
50C
100
AcDbEntity
  8
FORMAT
100
AcDbTrace
 10
2288.9769798272
 20
1507.4702603733
 30
0.0
 11
2312.0909798272
 21
1503.9142603733
 31
0.0
 12
2312.0909798272
 22
1511.0262603733
 32
0.0
 13
2312.0909798272
 23
1511.0262603733
 33
0.0
  0
LINE
  5
511
330
50C
100
AcDbEntity
  8
FORMAT
100
AcDbLine
 10
2288.9769798272
 20
1589.1943387057
 30
0.0
 11
2288.9769798272
 21
1500.4702603733
 31
0.0
  0
LINE
  5
512
330
50C
100
AcDbEntity
  8
FORMAT
100
AcDbLine
 10
2260.9769798295
 20
1507.4702603733
 30
0.0
 11
2216.5269798295
 21
1507.4702603733
 31
0.0
  0
LINE
  5
513
330
50C
100
AcDbEntity
  8
FORMAT
100
AcDbLine
 10
2260.9769798295
 20
1507.4702603733
 30
0.0
 11
2288.9769798272
 21
1507.4702603733
 31
0.0
  0
LINE
  5
514
330
50C
100
AcDbEntity
  8
FORMAT
100
AcDbLine
 10
2288.9769798272
 20
1507.4702603733
 30
0.0
 11
2361.8975544684
 21
1507.4702603733
 31
0.0
  0
MTEXT
  5
515
330
50C
100
AcDbEntity
  8
FORMAT
100
AcDbMText
 10
2324.46699984
 20
1539.0524216276
 30
0.0
 40
24.5
 41
0.0
 71
     1
 72
     1
  1
28
  7
SLDTEXTSTYLE0
 73
     1
 44
1.0
  0
ENDBLK
  5
50E
330
50C
100
AcDbEntity
  8
0
100
AcDbBlockEnd
  0
BLOCK
  5
518
330
517
100
AcDbEntity
  8
0
100
AcDbBlockBegin
  2
_D_23
 70
     0
 10
0.0
 20
0.0
 30
0.0
  3
_D_23
  1

  0
SOLID
  5
51A
330
517
100
AcDbEntity
  8
FORMAT
100
AcDbTrace
 10
2260.9769798295
 20
1455.6072862485
 30
0.0
 11
2284.0909798295
 21
1452.0512862485
 31
0.0
 12
2284.0909798295
 22
1459.1632862485
 32
0.0
 13
2284.0909798295
 23
1459.1632862485
 33
0.0
  0
SOLID
  5
51B
330
517
100
AcDbEntity
  8
FORMAT
100
AcDbTrace
 10
2380.9769798292
 20
1455.6072862485
 30
0.0
 11
2357.8629798292
 21
1459.1632862485
 31
0.0
 12
2357.8629798292
 22
1452.0512862485
 32
0.0
 13
2357.8629798292
 23
1452.0512862485
 33
0.0
  0
LINE
  5
51C
330
517
100
AcDbEntity
  8
FORMAT
100
AcDbLine
 10
2380.9769798292
 20
1655.6943387039
 30
0.0
 11
2380.9769798292
 21
1448.6072862485
 31
0.0
  0
LINE
  5
51D
330
517
100
AcDbEntity
  8
FORMAT
100
AcDbLine
 10
2260.9769798295
 20
1455.6072862485
 30
0.0
 11
2380.9769798292
 21
1455.6072862485
 31
0.0
  0
MTEXT
  5
51E
330
517
100
AcDbEntity
  8
FORMAT
100
AcDbMText
 10
2292.9040638581
 20
1487.1894475027
 30
0.0
 40
24.5
 41
0.0
 71
     1
 72
     1
  1
120
  7
SLDTEXTSTYLE0
 73
     1
 44
1.0
  0
ENDBLK
  5
519
330
517
100
AcDbEntity
  8
0
100
AcDbBlockEnd
  0
BLOCK
  5
521
330
520
100
AcDbEntity
  8
0
100
AcDbBlockBegin
  2
_D_24
 70
     0
 10
0.0
 20
0.0
 30
0.0
  3
_D_24
  1

  0
SOLID
  5
523
330
520
100
AcDbEntity
  8
FORMAT
100
AcDbTrace
 10
2446.0378101699
 20
1595.6943387057
 30
0.0
 11
2449.5938101699
 21
1618.8083387057
 31
0.0
 12
2442.4818101699
 22
1618.8083387057
 32
0.0
 13
2442.4818101699
 23
1618.8083387057
 33
0.0
  0
SOLID
  5
524
330
520
100
AcDbEntity
  8
FORMAT
100
AcDbTrace
 10
2446.0378101699
 20
1752.6943387039
 30
0.0
 11
2442.4818101699
 21
1729.5803387039
 31
0.0
 12
2449.5938101699
 22
1729.5803387039
 32
0.0
 13
2449.5938101699
 23
1729.5803387039
 33
0.0
  0
LINE
  5
525
330
520
100
AcDbEntity
  8
FORMAT
100
AcDbLine
 10
2295.4769798272
 20
1595.6943387057
 30
0.0
 11
2453.0378101699
 21
1595.6943387057
 31
0.0
  0
LINE
  5
526
330
520
100
AcDbEntity
  8
FORMAT
100
AcDbLine
 10
2382.9769798292
 20
1752.6943387039
 30
0.0
 11
2453.0378101699
 21
1752.6943387039
 31
0.0
  0
LINE
  5
527
330
520
100
AcDbEntity
  8
FORMAT
100
AcDbLine
 10
2446.0378101699
 20
1595.6943387057
 30
0.0
 11
2446.0378101699
 21
1752.6943387039
 31
0.0
  0
MTEXT
  5
528
330
520
100
AcDbEntity
  8
FORMAT
100
AcDbMText
 10
2414.4556489157
 20
1646.1214227335
 30
0.0
 40
24.5
 41
0.0
 71
     1
 72
     1
  1
157
  7
SLDTEXTSTYLE0
 11
1.837589179357618E-15
 21
1.0
 31
0.0
 73
     1
 44
1.0
  0
ENDBLK
  5
522
330
520
100
AcDbEntity
  8
0
100
AcDbBlockEnd
  0
BLOCK
  5
52B
330
52A
100
AcDbEntity
  8
0
100
AcDbBlockBegin
  2
_D_25
 70
     0
 10
0.0
 20
0.0
 30
0.0
  3
_D_25
  1

  0
SOLID
  5
52D
330
52A
100
AcDbEntity
  8
FORMAT
100
AcDbTrace
 10
2150.8504735441
 20
1626.1943387039
 30
0.0
 11
2154.4064735441
 21
1649.3083387039
 31
0.0
 12
2147.2944735441
 22
1649.3083387039
 32
0.0
 13
2147.2944735441
 23
1649.3083387039
 33
0.0
  0
SOLID
  5
52E
330
52A
100
AcDbEntity
  8
FORMAT
100
AcDbTrace
 10
2150.8504735441
 20
1753.6943387039
 30
0.0
 11
2147.2944735441
 21
1730.5803387039
 31
0.0
 12
2154.4064735441
 22
1730.5803387039
 32
0.0
 13
2154.4064735441
 23
1730.5803387039
 33
0.0
  0
LINE
  5
52F
330
52A
100
AcDbEntity
  8
FORMAT
100
AcDbLine
 10
2223.9769798295
 20
1626.1943387039
 30
0.0
 11
2143.8504735441
 21
1626.1943387039
 31
0.0
  0
LINE
  5
530
330
52A
100
AcDbEntity
  8
FORMAT
100
AcDbLine
 10
2254.9769798292
 20
1753.6943387039
 30
0.0
 11
2143.8504735441
 21
1753.6943387039
 31
0.0
  0
LINE
  5
531
330
52A
100
AcDbEntity
  8
FORMAT
100
AcDbLine
 10
2150.8504735441
 20
1626.1943387039
 30
0.0
 11
2150.8504735441
 21
1753.6943387039
 31
0.0
  0
MTEXT
  5
532
330
52A
100
AcDbEntity
  8
FORMAT
100
AcDbMText
 10
2119.2683122899
 20
1647.8349647469
 30
0.0
 40
24.5
 41
0.0
 71
     1
 72
     1
  1
127,5
  7
SLDTEXTSTYLE0
 11
-5.489882783168415E-15
 21
1.0
 31
0.0
 73
     1
 44
1.0
  0
ENDBLK
  5
52C
330
52A
100
AcDbEntity
  8
0
100
AcDbBlockEnd
  0
BLOCK
  5
617
330
616
100
AcDbEntity
  8
0
100
AcDbBlockBegin
  2
_D_26
 70
     0
 10
0.0
 20
0.0
 30
0.0
  3
_D_26
  1

  0
ARC
  5
619
330
616
100
AcDbEntity
  8
FORMAT
100
AcDbCircle
 10
2354.2557614427
 20
578.918471894
 30
0.0
 40
42.03885414329039
100
AcDbArc
 50
153.4349488229
 51
206.5650511771
  0
ARC
  5
61A
330
616
100
AcDbEntity
  8
FORMAT
100
AcDbCircle
 10
2316.4849276226
 20
578.918471894
 30
0.0
 40
42.03885414329039
100
AcDbArc
 50
333.4349488229
 51
26.5650511771
  0
SOLID
  5
61B
330
616
100
AcDbEntity
  8
FORMAT
100
AcDbTrace
 10
2240.5000658228
 20
560.1181247819
 30
0.0
 11
2217.3860658228
 21
563.6741247819
 31
0.0
 12
2217.3860658228
 22
556.5621247819
 32
0.0
 13
2217.3860658228
 23
556.5621247819
 33
0.0
  0
SOLID
  5
61C
330
616
100
AcDbEntity
  8
FORMAT
100
AcDbTrace
 10
2279.7000658195
 20
560.1181247819
 30
0.0
 11
2302.8140658195
 21
556.5621247819
 31
0.0
 12
2302.8140658195
 22
563.6741247819
 32
0.0
 13
2302.8140658195
 23
563.6741247819
 33
0.0
  0
LINE
  5
61D
330
616
100
AcDbEntity
  8
FORMAT
100
AcDbLine
 10
2240.5000658228
 20
602.7292215159
 30
0.0
 11
2240.5000658228
 21
553.1181247819
 31
0.0
  0
LINE
  5
61E
330
616
100
AcDbEntity
  8
FORMAT
100
AcDbLine
 10
2279.7000658195
 20
662.5025596128
 30
0.0
 11
2279.7000658195
 21
553.1181247819
 31
0.0
  0
LINE
  5
61F
330
616
100
AcDbEntity
  8
FORMAT
100
AcDbLine
 10
2240.5000658228
 20
560.1181247819
 30
0.0
 11
2196.0500658228
 21
560.1181247819
 31
0.0
  0
LINE
  5
620
330
616
100
AcDbEntity
  8
FORMAT
100
AcDbLine
 10
2240.5000658228
 20
560.1181247819
 30
0.0
 11
2279.7000658195
 21
560.1181247819
 31
0.0
  0
LINE
  5
621
330
616
100
AcDbEntity
  8
FORMAT
100
AcDbLine
 10
2279.7000658195
 20
560.1181247819
 30
0.0
 11
2358.5237803208
 21
560.1181247819
 31
0.0
  0
MTEXT
  5
622
330
616
100
AcDbEntity
  8
FORMAT
100
AcDbMText
 10
2316.6550672185
 20
591.7002860361
 30
0.0
 40
24.5
 41
0.0
 71
     1
 72
     1
  1
28
  7
SLDTEXTSTYLE0
 73
     1
 44
1.0
  0
ENDBLK
  5
618
330
616
100
AcDbEntity
  8
0
100
AcDbBlockEnd
  0
BLOCK
  5
625
330
624
100
AcDbEntity
  8
0
100
AcDbBlockBegin
  2
_D_27
 70
     0
 10
0.0
 20
0.0
 30
0.0
  3
_D_27
  1

  0
ARC
  5
627
330
624
100
AcDbEntity
  8
FORMAT
100
AcDbCircle
 10
2410.8403849219
 20
606.2743197405
 30
0.0
 40
42.03885414329039
100
AcDbArc
 50
243.4349488229
 51
296.5650511771
  0
ARC
  5
628
330
624
100
AcDbEntity
  8
FORMAT
100
AcDbCircle
 10
2410.8403849219
 20
568.5034859204
 30
0.0
 40
42.03885414329039
100
AcDbArc
 50
63.4349488229
 51
116.5650511771
  0
SOLID
  5
629
330
624
100
AcDbEntity
  8
FORMAT
100
AcDbTrace
 10
2429.640732034
 20
668.8025596128
 30
0.0
 11
2426.084732034
 21
645.6885596128
 31
0.0
 12
2433.196732034
 22
645.6885596129
 32
0.0
 13
2433.196732034
 23
645.6885596129
 33
0.0
  0
SOLID
  5
62A
330
624
100
AcDbEntity
  8
FORMAT
100
AcDbTrace
 10
2429.640732034
 20
692.6025596128
 30
0.0
 11
2433.196732034
 21
715.7165596128
 31
0.0
 12
2426.084732034
 22
715.7165596128
 32
0.0
 13
2426.084732034
 23
715.7165596128
 33
0.0
  0
LINE
  5
62B
330
624
100
AcDbEntity
  8
FORMAT
100
AcDbLine
 10
2286.0000658195
 20
668.8025596128
 30
0.0
 11
2436.640732034
 21
668.8025596129
 31
0.0
  0
LINE
  5
62C
330
624
100
AcDbEntity
  8
FORMAT
100
AcDbLine
 10
2286.0000658195
 20
692.6025596128
 30
0.0
 11
2436.640732034
 21
692.6025596128
 31
0.0
  0
LINE
  5
62D
330
624
100
AcDbEntity
  8
FORMAT
100
AcDbLine
 10
2429.640732034
 20
668.8025596128
 30
0.0
 11
2429.640732034
 21
564.2354654126
 31
0.0
  0
LINE
  5
62E
330
624
100
AcDbEntity
  8
FORMAT
100
AcDbLine
 10
2429.640732034
 20
668.8025596128
 30
0.0
 11
2429.640732034
 21
692.6025596128
 31
0.0
  0
LINE
  5
62F
330
624
100
AcDbEntity
  8
FORMAT
100
AcDbLine
 10
2429.640732034
 20
692.6025596128
 30
0.0
 11
2429.640732034
 21
737.0525596128
 31
0.0
  0
MTEXT
  5
630
330
624
100
AcDbEntity
  8
FORMAT
100
AcDbMText
 10
2398.0585707798
 20
568.6736255163
 30
0.0
 40
24.5
 41
0.0
 71
     1
 72
     1
  1
17
  7
SLDTEXTSTYLE0
 11
-1.191767205047844E-13
 21
1.0
 31
0.0
 73
     1
 44
1.0
  0
ENDBLK
  5
626
330
624
100
AcDbEntity
  8
0
100
AcDbBlockEnd
  0
BLOCK
  5
633
330
632
100
AcDbEntity
  8
0
100
AcDbBlockBegin
  2
_D_28
 70
     0
 10
0.0
 20
0.0
 30
0.0
  3
_D_28
  1

  0
SOLID
  5
635
330
632
100
AcDbEntity
  8
FORMAT
100
AcDbTrace
 10
2478.5000658223
 20
692.6025596128
 30
0.0
 11
2474.9440658223
 21
669.4885596128
 31
0.0
 12
2482.0560658223
 22
669.4885596128
 32
0.0
 13
2482.0560658223
 23
669.4885596128
 33
0.0
  0
SOLID
  5
636
330
632
100
AcDbEntity
  8
FORMAT
100
AcDbTrace
 10
2478.5000658223
 20
696.1025596104
 30
0.0
 11
2482.0560658223
 21
719.2165596104
 31
0.0
 12
2474.9440658223
 22
719.2165596104
 32
0.0
 13
2474.9440658223
 23
719.2165596104
 33
0.0
  0
LINE
  5
637
330
632
100
AcDbEntity
  8
FORMAT
100
AcDbLine
 10
2286.0000658195
 20
692.6025596128
 30
0.0
 11
2485.5000658223
 21
692.6025596128
 31
0.0
  0
LINE
  5
638
330
632
100
AcDbEntity
  8
FORMAT
100
AcDbLine
 10
2312.0343918182
 20
696.1025596104
 30
0.0
 11
2485.5000658223
 21
696.1025596104
 31
0.0
  0
LINE
  5
639
330
632
100
AcDbEntity
  8
FORMAT
100
AcDbLine
 10
2478.5000658223
 20
692.6025596128
 30
0.0
 11
2478.5000658223
 21
563.994897604
 31
0.0
  0
LINE
  5
63A
330
632
100
AcDbEntity
  8
FORMAT
100
AcDbLine
 10
2478.5000658223
 20
692.6025596128
 30
0.0
 11
2478.5000658223
 21
696.1025596104
 31
0.0
  0
LINE
  5
63B
330
632
100
AcDbEntity
  8
FORMAT
100
AcDbLine
 10
2478.5000658223
 20
696.1025596104
 30
0.0
 11
2478.5000658223
 21
740.5525596104
 31
0.0
  0
MTEXT
  5
63C
330
632
100
AcDbEntity
  8
FORMAT
100
AcDbMText
 10
2446.9179045681
 20
563.994897604
 30
0.0
 40
24.5
 41
0.0
 71
     1
 72
     1
  1
2,5
  7
SLDTEXTSTYLE0
 11
-8.431571753155453E-14
 21
1.0
 31
0.0
 73
     1
 44
1.0
  0
ENDBLK
  5
634
330
632
100
AcDbEntity
  8
0
100
AcDbBlockEnd
  0
BLOCK
  5
63F
330
63E
100
AcDbEntity
  8
0
100
AcDbBlockBegin
  2
_D_29
 70
     0
 10
0.0
 20
0.0
 30
0.0
  3
_D_29
  1

  0
SOLID
  5
641
330
63E
100
AcDbEntity
  8
FORMAT
100
AcDbTrace
 10
2520.5000658223
 20
696.1025596104
 30
0.0
 11
2516.9440658223
 21
672.9885596104
 31
0.0
 12
2524.0560658223
 22
672.9885596104
 32
0.0
 13
2524.0560658223
 23
672.9885596104
 33
0.0
  0
SOLID
  5
642
330
63E
100
AcDbEntity
  8
FORMAT
100
AcDbTrace
 10
2520.5000658223
 20
755.6025596102
 30
0.0
 11
2524.0560658223
 21
778.7165596102
 31
0.0
 12
2516.9440658223
 22
778.7165596102
 32
0.0
 13
2516.9440658223
 23
778.7165596102
 33
0.0
  0
LINE
  5
643
330
63E
100
AcDbEntity
  8
FORMAT
100
AcDbLine
 10
2312.0343918182
 20
696.1025596104
 30
0.0
 11
2527.5000658223
 21
696.1025596104
 31
0.0
  0
LINE
  5
644
330
63E
100
AcDbEntity
  8
FORMAT
100
AcDbLine
 10
2408.5000658223
 20
755.6025596102
 30
0.0
 11
2527.5000658223
 21
755.6025596102
 31
0.0
  0
LINE
  5
645
330
63E
100
AcDbEntity
  8
FORMAT
100
AcDbLine
 10
2520.5000658223
 20
696.1025596104
 30
0.0
 11
2520.5000658223
 21
651.6525596104
 31
0.0
  0
LINE
  5
646
330
63E
100
AcDbEntity
  8
FORMAT
100
AcDbLine
 10
2520.5000658223
 20
696.1025596104
 30
0.0
 11
2520.5000658223
 21
755.6025596102
 31
0.0
  0
LINE
  5
647
330
63E
100
AcDbEntity
  8
FORMAT
100
AcDbLine
 10
2520.5000658223
 20
755.6025596102
 30
0.0
 11
2520.5000658223
 21
852.9910542241
 31
0.0
  0
MTEXT
  5
648
330
63E
100
AcDbEntity
  8
FORMAT
100
AcDbMText
 10
2488.9179045681
 20
787.4875836244
 30
0.0
 40
24.5
 41
0.0
 71
     1
 72
     1
  1
42,5
  7
SLDTEXTSTYLE0
 11
6.123233995736766E-17
 21
1.0
 31
0.0
 73
     1
 44
1.0
  0
ENDBLK
  5
640
330
63E
100
AcDbEntity
  8
0
100
AcDbBlockEnd
  0
BLOCK
  5
64C
330
64B
100
AcDbEntity
  8
0
100
AcDbBlockBegin
  2
_D_30
 70
     0
 10
0.0
 20
0.0
 30
0.0
  3
_D_30
  1

  0
SOLID
  5
64E
330
64B
100
AcDbEntity
  8
FORMAT
100
AcDbTrace
 10
2114.7420719228
 20
711.5025596102
 30
0.0
 11
2118.2980719228
 21
734.6165596102
 31
0.0
 12
2111.1860719228
 22
734.6165596102
 32
0.0
 13
2111.1860719228
 23
734.6165596102
 33
0.0
  0
SOLID
  5
64F
330
64B
100
AcDbEntity
  8
FORMAT
100
AcDbTrace
 10
2114.7420719228
 20
705.9025596103
 30
0.0
 11
2111.1860719228
 21
682.7885596103
 31
0.0
 12
2118.2980719228
 22
682.7885596103
 32
0.0
 13
2118.2980719228
 23
682.7885596103
 33
0.0
  0
LINE
  5
650
330
64B
100
AcDbEntity
  8
FORMAT
100
AcDbLine
 10
2191.5000658228
 20
711.5025596102
 30
0.0
 11
2107.7420719228
 21
711.5025596102
 31
0.0
  0
LINE
  5
651
330
64B
100
AcDbEntity
  8
FORMAT
100
AcDbLine
 10
2263.5960279692
 20
705.9025596103
 30
0.0
 11
2107.7420719228
 21
705.9025596103
 31
0.0
  0
LINE
  5
652
330
64B
100
AcDbEntity
  8
FORMAT
100
AcDbLine
 10
2114.7420719228
 20
711.5025596102
 30
0.0
 11
2114.7420719228
 21
755.9525596102
 31
0.0
  0
LINE
  5
653
330
64B
100
AcDbEntity
  8
FORMAT
100
AcDbLine
 10
2114.7420719228
 20
711.5025596102
 30
0.0
 11
2114.7420719228
 21
705.9025596103
 31
0.0
  0
LINE
  5
654
330
64B
100
AcDbEntity
  8
FORMAT
100
AcDbLine
 10
2114.7420719228
 20
705.9025596103
 30
0.0
 11
2114.7420719228
 21
616.6657243403
 31
0.0
  0
MTEXT
  5
655
330
64B
100
AcDbEntity
  8
FORMAT
100
AcDbMText
 10
2083.1599106685
 20
616.6657243403
 30
0.0
 40
24.5
 41
0.0
 71
     1
 72
     1
  1
4
  7
SLDTEXTSTYLE0
 11
-7.044195017643634E-15
 21
1.0
 31
0.0
 73
     1
 44
1.0
  0
MTEXT
  5
656
330
64B
100
AcDbEntity
  8
FORMAT
100
AcDbMText
 10
2083.1599106685
 20
635.3810016545
 30
0.0
 40
24.5
 41
0.0
 71
     1
 72
     1
  1
*
  7
SLDTEXTSTYLE0
 11
-7.044195017643634E-15
 21
1.0
 31
0.0
 73
     1
 44
1.0
  0
ENDBLK
  5
64D
330
64B
100
AcDbEntity
  8
0
100
AcDbBlockEnd
  0
BLOCK
  5
65A
330
659
100
AcDbEntity
  8
0
100
AcDbBlockBegin
  2
_D_31
 70
     0
 10
0.0
 20
0.0
 30
0.0
  3
_D_31
  1

  0
INSERT
  5
65C
330
659
100
AcDbEntity
  8
FORMAT
100
AcDbBlockReference
  2
_Dot
 10
2054.9644815792
 20
711.5025596102
 30
994.618388514
 41
7.112
 42
7.112
 50
270.0
  0
SOLID
  5
65D
330
659
100
AcDbEntity
  8
FORMAT
100
AcDbTrace
 10
2054.9644815792
 20
668.8025596128
 30
0.0
 11
2051.4084815792
 21
645.6885596128
 31
0.0
 12
2058.5204815792
 22
645.6885596128
 32
0.0
 13
2058.5204815792
 23
645.6885596128
 33
0.0
  0
LINE
  5
65E
330
659
100
AcDbEntity
  8
FORMAT
100
AcDbLine
 10
2191.5000658228
 20
711.5025596102
 30
0.0
 11
2047.9644815792
 21
711.5025596102
 31
0.0
  0
LINE
  5
65F
330
659
100
AcDbEntity
  8
FORMAT
100
AcDbLine
 10
2234.2000658195
 20
668.8025596128
 30
0.0
 11
2047.9644815792
 21
668.8025596128
 31
0.0
  0
LINE
  5
660
330
659
100
AcDbEntity
  8
FORMAT
100
AcDbLine
 10
2054.9644815792
 20
711.5025596102
 30
0.0
 11
2054.9644815792
 21
755.9525596102
 31
0.0
  0
LINE
  5
661
330
659
100
AcDbEntity
  8
FORMAT
100
AcDbLine
 10
2054.9644815792
 20
711.5025596102
 30
0.0
 11
2054.9644815792
 21
668.8025596128
 31
0.0
  0
LINE
  5
662
330
659
100
AcDbEntity
  8
FORMAT
100
AcDbLine
 10
2054.9644815792
 20
668.8025596128
 30
0.0
 11
2054.9644815792
 21
569.6194121047
 31
0.0
  0
MTEXT
  5
663
330
659
100
AcDbEntity
  8
FORMAT
100
AcDbMText
 10
2023.382320325
 20
569.6194121047
 30
0.0
 40
24.5
 41
0.0
 71
     1
 72
     1
  1
30,5
  7
SLDTEXTSTYLE0
 11
-7.044195017643634E-15
 21
1.0
 31
0.0
 73
     1
 44
1.0
  0
ENDBLK
  5
65B
330
659
100
AcDbEntity
  8
0
100
AcDbBlockEnd
  0
BLOCK
  5
666
330
665
100
AcDbEntity
  8
0
100
AcDbBlockBegin
  2
_D_32
 70
     0
 10
0.0
 20
0.0
 30
0.0
  3
_D_32
  1

  0
INSERT
  5
668
330
665
100
AcDbEntity
  8
FORMAT
100
AcDbBlockReference
  2
_Dot
 10
2054.9644815792
 20
711.5025596102
 30
994.618388514
 41
7.112
 42
7.112
 50
90.0
  0
SOLID
  5
669
330
665
100
AcDbEntity
  8
FORMAT
100
AcDbTrace
 10
2054.9644815792
 20
755.6025596102
 30
0.0
 11
2058.5204815792
 21
778.7165596102
 31
0.0
 12
2051.4084815792
 22
778.7165596102
 32
0.0
 13
2051.4084815792
 23
778.7165596102
 33
0.0
  0
LINE
  5
66A
330
665
100
AcDbEntity
  8
FORMAT
100
AcDbLine
 10
2191.5000658228
 20
711.5025596102
 30
0.0
 11
2047.9644815792
 21
711.5025596102
 31
0.0
  0
LINE
  5
66B
330
665
100
AcDbEntity
  8
FORMAT
100
AcDbLine
 10
2233.5000658223
 20
755.6025596102
 30
0.0
 11
2047.9644815792
 21
755.6025596102
 31
0.0
  0
LINE
  5
66C
330
665
100
AcDbEntity
  8
FORMAT
100
AcDbLine
 10
2054.9644815792
 20
711.5025596102
 30
0.0
 11
2054.9644815792
 21
667.0525596102
 31
0.0
  0
LINE
  5
66D
330
665
100
AcDbEntity
  8
FORMAT
100
AcDbLine
 10
2054.9644815792
 20
711.5025596102
 30
0.0
 11
2054.9644815792
 21
755.6025596102
 31
0.0
  0
LINE
  5
66E
330
665
100
AcDbEntity
  8
FORMAT
100
AcDbLine
 10
2054.9644815792
 20
755.6025596102
 30
0.0
 11
2054.9644815792
 21
852.9910542241
 31
0.0
  0
MTEXT
  5
66F
330
665
100
AcDbEntity
  8
FORMAT
100
AcDbMText
 10
2023.382320325
 20
787.4875836244
 30
0.0
 40
24.5
 41
0.0
 71
     1
 72
     1
  1
31,5
  7
SLDTEXTSTYLE0
 11
6.123233995736766E-17
 21
1.0
 31
0.0
 73
     1
 44
1.0
  0
ENDBLK
  5
667
330
665
100
AcDbEntity
  8
0
100
AcDbBlockEnd
  0
BLOCK
  5
696
330
695
100
AcDbEntity
  8
0
100
AcDbBlockBegin
  2
_D_33
 70
     0
 10
0.0
 20
0.0
 30
0.0
  3
_D_33
  1

  0
SOLID
  5
698
330
695
100
AcDbEntity
  8
FORMAT
100
AcDbTrace
 10
1704.7599702326
 20
217.0141219187
 30
0.0
 11
1701.2039702326
 21
193.9001219187
 31
0.0
 12
1708.3159702326
 22
193.9001219187
 32
0.0
 13
1708.3159702326
 23
193.9001219187
 33
0.0
  0
SOLID
  5
699
330
695
100
AcDbEntity
  8
FORMAT
100
AcDbTrace
 10
1704.7599702326
 20
227.5141219187
 30
0.0
 11
1708.3159702326
 21
250.6281219187
 31
0.0
 12
1701.2039702326
 22
250.6281219187
 32
0.0
 13
1701.2039702326
 23
250.6281219187
 33
0.0
  0
LINE
  5
69A
330
695
100
AcDbEntity
  8
FORMAT
100
AcDbLine
 10
1758.1393502984
 20
217.0141219187
 30
0.0
 11
1697.7599702326
 21
217.0141219187
 31
0.0
  0
LINE
  5
69B
330
695
100
AcDbEntity
  8
FORMAT
100
AcDbLine
 10
1794.2789768491
 20
227.5141219187
 30
0.0
 11
1697.7599702326
 21
227.5141219187
 31
0.0
  0
LINE
  5
69C
330
695
100
AcDbEntity
  8
FORMAT
100
AcDbLine
 10
1704.7599702326
 20
217.0141219187
 30
0.0
 11
1704.7599702326
 21
147.9823490401
 31
0.0
  0
LINE
  5
69D
330
695
100
AcDbEntity
  8
FORMAT
100
AcDbLine
 10
1704.7599702326
 20
217.0141219187
 30
0.0
 11
1704.7599702326
 21
227.5141219187
 31
0.0
  0
LINE
  5
69E
330
695
100
AcDbEntity
  8
FORMAT
100
AcDbLine
 10
1704.7599702326
 20
227.5141219187
 30
0.0
 11
1704.7599702326
 21
271.9641219187
 31
0.0
  0
MTEXT
  5
69F
330
695
100
AcDbEntity
  8
FORMAT
100
AcDbMText
 10
1673.1778089784
 20
147.9823490401
 30
0.0
 40
24.5
 41
0.0
 71
     1
 72
     1
  1
7,5
  7
SLDTEXTSTYLE0
 11
2.832769448823990E-16
 21
1.0
 31
0.0
 73
     1
 44
1.0
  0
ENDBLK
  5
697
330
695
100
AcDbEntity
  8
0
100
AcDbBlockEnd
  0
BLOCK
  5
6A3
330
6A2
100
AcDbEntity
  8
0
100
AcDbBlockBegin
  2
_D_34
 70
     0
 10
0.0
 20
0.0
 30
0.0
  3
_D_34
  1

  0
SOLID
  5
6A5
330
6A2
100
AcDbEntity
  8
FORMAT
100
AcDbTrace
 10
1658.627348598
 20
227.5141219187
 30
0.0
 11
1662.183348598
 21
250.6281219187
 31
0.0
 12
1655.071348598
 22
250.6281219187
 32
0.0
 13
1655.071348598
 23
250.6281219187
 33
0.0
  0
SOLID
  5
6A6
330
6A2
100
AcDbEntity
  8
FORMAT
100
AcDbTrace
 10
1658.627348598
 20
333.9141219187
 30
0.0
 11
1655.071348598
 21
310.8001219187
 31
0.0
 12
1662.183348598
 22
310.8001219187
 32
0.0
 13
1662.183348598
 23
310.8001219187
 33
0.0
  0
LINE
  5
6A7
330
6A2
100
AcDbEntity
  8
FORMAT
100
AcDbLine
 10
1786.2289768491
 20
227.5141219187
 30
0.0
 11
1651.627348598
 21
227.5141219187
 31
0.0
  0
LINE
  5
6A8
330
6A2
100
AcDbEntity
  8
FORMAT
100
AcDbLine
 10
1786.2289768491
 20
333.9141219187
 30
0.0
 11
1651.627348598
 21
333.9141219187
 31
0.0
  0
LINE
  5
6A9
330
6A2
100
AcDbEntity
  8
FORMAT
100
AcDbLine
 10
1658.627348598
 20
227.5141219187
 30
0.0
 11
1658.627348598
 21
333.9141219187
 31
0.0
  0
MTEXT
  5
6AA
330
6A2
100
AcDbEntity
  8
FORMAT
100
AcDbMText
 10
1627.0451873437
 20
261.9988446045
 30
0.0
 40
24.5
 41
0.0
 71
     1
 72
     1
  1
76
  7
SLDTEXTSTYLE0
 11
6.123233995736766E-17
 21
1.0
 31
0.0
 73
     1
 44
1.0
  0
ENDBLK
  5
6A4
330
6A2
100
AcDbEntity
  8
0
100
AcDbBlockEnd
  0
BLOCK
  5
6AD
330
6AC
100
AcDbEntity
  8
0
100
AcDbBlockBegin
  2
SW_CENTERMARKSYMBOL_12
 70
     0
 10
0.0
 20
0.0
 30
0.0
  3
SW_CENTERMARKSYMBOL_12
  1

  0
LINE
  5
6AF
330
6AC
100
AcDbEntity
  8
FORMAT
 62
     0
100
AcDbLine
 10
0.0
 20
0.0
 30
0.0
 11
0.0
 21
3.4999966621
 31
0.0
  0
LINE
  5
6B0
330
6AC
100
AcDbEntity
  8
FORMAT
 62
     0
100
AcDbLine
 10
0.0
 20
0.0
 30
0.0
 11
-3.4999966621
 21
0.0
 31
0.0
  0
LINE
  5
6B1
330
6AC
100
AcDbEntity
  8
FORMAT
 62
     0
100
AcDbLine
 10
0.0
 20
0.0
 30
0.0
 11
0.0
 21
-3.4999966621
 31
0.0
  0
LINE
  5
6B2
330
6AC
100
AcDbEntity
  8
FORMAT
 62
     0
100
AcDbLine
 10
0.0
 20
0.0
 30
0.0
 11
3.4999966621
 21
0.0
 31
0.0
  0
LINE
  5
6B3
330
6AC
100
AcDbEntity
  8
FORMAT
 62
     0
100
AcDbLine
 10
0.0
 20
7.0000141859
 30
0.0
 11
0.0
 21
8.0500006676
 31
0.0
  0
LINE
  5
6B4
330
6AC
100
AcDbEntity
  8
FORMAT
 62
     0
100
AcDbLine
 10
-6.9999933243
 20
0.0
 30
0.0
 11
-8.0500006676
 21
0.0
 31
0.0
  0
LINE
  5
6B5
330
6AC
100
AcDbEntity
  8
FORMAT
 62
     0
100
AcDbLine
 10
0.0
 20
-6.9999933243
 30
0.0
 11
0.0
 21
-8.0500006676
 31
0.0
  0
LINE
  5
6B6
330
6AC
100
AcDbEntity
  8
FORMAT
 62
     0
100
AcDbLine
 10
6.9999933243
 20
0.0
 30
0.0
 11
8.0500006676
 21
0.0
 31
0.0
  0
ENDBLK
  5
6AE
330
6AC
100
AcDbEntity
  8
0
100
AcDbBlockEnd
  0
BLOCK
  5
6B9
330
6B8
100
AcDbEntity
  8
0
100
AcDbBlockBegin
  2
SW_CENTERMARKSYMBOL_13
 70
     0
 10
0.0
 20
0.0
 30
0.0
  3
SW_CENTERMARKSYMBOL_13
  1

  0
LINE
  5
6BB
330
6B8
100
AcDbEntity
  8
FORMAT
 62
     0
100
AcDbLine
 10
0.0
 20
0.0
 30
0.0
 11
0.0
 21
3.500007093
 31
0.0
  0
LINE
  5
6BC
330
6B8
100
AcDbEntity
  8
FORMAT
 62
     0
100
AcDbLine
 10
0.0
 20
0.0
 30
0.0
 11
-3.4999966621
 21
0.0
 31
0.0
  0
LINE
  5
6BD
330
6B8
100
AcDbEntity
  8
FORMAT
 62
     0
100
AcDbLine
 10
0.0
 20
0.0
 30
0.0
 11
0.0
 21
-3.4999966621
 31
0.0
  0
LINE
  5
6BE
330
6B8
100
AcDbEntity
  8
FORMAT
 62
     0
100
AcDbLine
 10
0.0
 20
0.0
 30
0.0
 11
3.4999966621
 21
0.0
 31
0.0
  0
LINE
  5
6BF
330
6B8
100
AcDbEntity
  8
FORMAT
 62
     0
100
AcDbLine
 10
0.0
 20
7.0000037551
 30
0.0
 11
0.0
 21
8.0500006676
 31
0.0
  0
LINE
  5
6C0
330
6B8
100
AcDbEntity
  8
FORMAT
 62
     0
100
AcDbLine
 10
-6.9999933243
 20
0.0
 30
0.0
 11
-8.0500006676
 21
0.0
 31
0.0
  0
LINE
  5
6C1
330
6B8
100
AcDbEntity
  8
FORMAT
 62
     0
100
AcDbLine
 10
0.0
 20
-6.9999933243
 30
0.0
 11
0.0
 21
-8.0500006676
 31
0.0
  0
LINE
  5
6C2
330
6B8
100
AcDbEntity
  8
FORMAT
 62
     0
100
AcDbLine
 10
6.9999933243
 20
0.0
 30
0.0
 11
8.0500006676
 21
0.0
 31
0.0
  0
ENDBLK
  5
6BA
330
6B8
100
AcDbEntity
  8
0
100
AcDbBlockEnd
  0
ENDSEC
  0
SECTION
  2
ENTITIES
  0
LINE
  5
CA
330
1F
100
AcDbEntity
  8
FORMAT
  6
Continuous
 62
     7
370
    18
100
AcDbLine
 10
2648.7467156628
 20
249.0548071362
 30
0.0
 11
2121.8704816337
 21
249.0548071362
 31
0.0
  0
LINE
  5
CB
330
1F
100
AcDbEntity
  8
FORMAT
  6
Continuous
 62
     7
370
    18
100
AcDbLine
 10
2648.7467156628
 20
341.1944719343
 30
0.0
 11
2869.6070185003
 21
341.1944719343
 31
0.0
  0
LINE
  5
CC
330
1F
100
AcDbEntity
  8
0
  6
Continuous
 62
     7
370
    18
100
AcDbLine
 10
2552.9704263625
 20
249.0548071362
 30
0.0
 11
2552.9704263625
 21
181.3583509723
 31
0.0
  0
LINE
  5
CD
330
1F
100
AcDbEntity
  8
FORMAT
100
AcDbLine
 10
2869.6070185003
 20
2009.0
 30
0.0
 11
69.6070185003
 21
2009.0
 31
0.0
  0
LINE
  5
CE
330
1F
100
AcDbEntity
  8
FORMAT
100
AcDbLine
 10
69.6070185003
 20
2009.0
 30
0.0
 11
69.6070185003
 21
70.0
 31
0.0
  0
LINE
  5
CF
330
1F
100
AcDbEntity
  8
BEMASSUNG
  6
Continuous
 62
     7
370
    18
100
AcDbLine
 10
2648.7467156628
 20
283.9466531596
 30
0.0
 11
2869.6070185003
 21
283.9466531596
 31
0.0
  0
LINE
  5
D0
330
1F
100
AcDbEntity
  8
FORMAT
100
AcDbLine
 10
69.6070185003
 20
70.0
 30
0.0
 11
2869.6070185003
 21
70.0
 31
0.0
  0
LINE
  5
D1
330
1F
100
AcDbEntity
  8
FORMAT
100
AcDbLine
 10
2869.6070185003
 20
70.0
 30
0.0
 11
2869.6070185003
 21
2009.0
 31
0.0
  0
LINE
  5
D2
330
1F
100
AcDbEntity
  8
0
  6
Continuous
 62
     7
370
    18
100
AcDbLine
 10
2121.8704816337
 20
368.7467824209
 30
0.0
 11
2121.8704816337
 21
70.0000160588
 31
0.0
  0
LINE
  5
D3
330
1F
100
AcDbEntity
  8
0
  6
Continuous
 62
     7
370
    18
100
AcDbLine
 10
2766.39523512
 20
70.0
 30
0.0
 11
2766.39523512
 21
135.4292810523
 31
0.0
  0
LINE
  5
D4
330
1F
100
AcDbEntity
  8
0
  6
Continuous
 62
     7
370
    18
100
AcDbLine
 10
2121.8704816337
 20
181.3583509723
 30
0.0
 11
2869.6070185003
 21
181.3583509723
 31
0.0
  0
LINE
  5
D5
330
1F
100
AcDbEntity
  8
0
  6
Continuous
 62
     7
370
    18
100
AcDbLine
 10
2648.7467156628
 20
135.4292810523
 30
0.0
 11
2869.6070185003
 21
135.4292810523
 31
0.0
  0
LINE
  5
D6
330
1F
100
AcDbEntity
  8
0
  6
Continuous
 62
     7
370
    18
100
AcDbLine
 10
2121.8704816337
 20
368.7467824209
 30
0.0
 11
2869.7006917056
 21
368.7467824209
 31
0.0
  0
LINE
  5
D7
330
1F
100
AcDbEntity
  8
0
  6
Continuous
 62
     7
370
    18
100
AcDbLine
 10
2648.7467156628
 20
70.0
 30
0.0
 11
2648.7467156628
 21
368.7467824209
 31
0.0
  0
INSERT
  5
D8
330
1F
100
AcDbEntity
  8
0
  6
Continuous
 62
     7
100
AcDbBlockReference
  2
Block1_3_1
 10
2700.6135347481
 20
189.6696797211
 30
0.0
  0
INSERT
  5
D9
330
1F
100
AcDbEntity
  8
0
  6
Continuous
 62
     7
100
AcDbBlockReference
  2
Block2_3_1
 10
509.1807851128
 20
-261.5944962483
 30
0.0
  0
INSERT
  5
DA
330
1F
100
AcDbEntity
  8
FORMAT
100
AcDbBlockReference
  2
rechtlicher_Hinweis_Katalogzeichnungen_1
 10
86.2294908427
 20
31.5549972483
 30
0.0
 41
0.5
 42
0.5
 43
0.5
  0
MTEXT
  5
DB
330
1F
100
AcDbEntity
  8
FORMAT
100
AcDbMText
 10
2252.4396290018
 20
1921.4780418673
 30
0.0
 40
18.5208333333
 41
0.0
 71
     1
 72
     1
  1
**
  7
SLDTEXTSTYLE0
 73
     1
 44
1.0
  0
INSERT
  5
E2
330
1F
100
AcDbEntity
  8
FORMAT
100
AcDbBlockReference
  2
SW_NOTE_0_4
 10
96.7880769392
 20
374.8429441601
 30
0.0
  0
MTEXT
  5
E3
330
1F
100
AcDbEntity
  8
0
  6
Continuous
 62
     7
370
     0
100
AcDbMText
 10
2655.2495495755
 20
165.0094332157
 30
0.0
 40
14.0
 41
0.0
 71
     1
 72
     1
  1
Maßstab:
  7
SLDTEXTSTYLE0
 73
     1
 44
1.0
  0
MTEXT
  5
E4
330
1F
100
AcDbEntity
  8
0
  6
Continuous
 62
     7
370
     0
100
AcDbMText
 10
2785.9502817651
 20
125.2286542559
 30
0.0
 40
14.0
 41
0.0
 71
     1
 72
     1
  1
Format
  7
SLDTEXTSTYLE0
 73
     1
 44
1.0
  0
MTEXT
  5
E5
330
1F
100
AcDbEntity
  8
0
  6
Continuous
 62
     7
370
     0
100
AcDbMText
 10
2135.8123898948
 20
356.9818853041
 30
0.0
 40
14.0
 41
0.0
 71
     1
 72
     1
  1
Benennung:
  7
SLDTEXTSTYLE0
 73
     1
 44
1.0
  0
MTEXT
  5
E6
330
1F
100
AcDbEntity
  8
0
  6
Continuous
 62
     7
370
     0
100
AcDbMText
 10
2664.5005395913
 20
125.2286542559
 30
0.0
 40
14.0
 41
0.0
 71
     1
 72
     1
  1
Blatt / von
  7
SLDTEXTSTYLE0
 73
     1
 44
1.0
  0
MTEXT
  5
E7
330
1F
100
AcDbEntity
  8
0
  6
Continuous
 62
     7
370
     0
100
AcDbMText
 10
2706.4725907482
 20
100.6974422258
 30
0.0
 40
17.5
 41
0.0
 71
     2
 72
     1
  1
/
  7
SLDTEXTSTYLE0
 73
     1
 44
1.0
  0
MTEXT
  5
E9
330
1F
100
AcDbEntity
  8
0
  6
Continuous
 62
     7
370
     0
100
AcDbMText
 10
2134.2541581219
 20
214.7882486886
 30
0.0
 40
22.225
 41
0.0
 71
     1
 72
     1
  1
D052-49503
  7
SLDTEXTSTYLE3
 73
     1
 44
1.0
  0
MTEXT
  5
EA
330
1F
100
AcDbEntity
  8
0
  6
Continuous
 62
     7
370
     0
100
AcDbMText
 10
2752.495267605
 20
165.9085614452
 30
0.0
 40
14.8166666667
 41
0.0
 71
     1
 72
     1
  1
1:7
  7
SLDTEXTSTYLE0
 73
     1
 44
1.0
  0
MTEXT
  5
EB
330
1F
100
AcDbEntity
  8
0
  6
Continuous
 62
     7
370
     0
100
AcDbMText
 10
2803.7489693293
 20
99.2074950551
 30
0.0
 40
14.8166666667
 41
0.0
 71
     1
 72
     1
  1
A3
  7
SLDTEXTSTYLE0
 73
     1
 44
1.0
  0
MTEXT
  5
EC
330
1F
100
AcDbEntity
  8
0
  6
Continuous
 62
     7
370
     0
100
AcDbMText
 10
2680.0334055091
 20
99.9642475618
 30
0.0
 40
14.8166666667
 41
0.0
 71
     1
 72
     1
  1
1
  7
SLDTEXTSTYLE0
 73
     1
 44
1.0
  0
MTEXT
  5
ED
330
1F
100
AcDbEntity
  8
0
  6
Continuous
 62
     7
370
     0
100
AcDbMText
 10
2722.5410575592
 20
99.9642475618
 30
0.0
 40
14.8166666667
 41
0.0
 71
     1
 72
     1
  1
1
  7
SLDTEXTSTYLE0
 73
     1
 44
1.0
  0
MTEXT
  5
EE
330
1F
100
AcDbEntity
  8
FORMAT
100
AcDbMText
 10
2137.971220638
 20
240.9301481691
 30
0.0
 40
14.0
 41
0.0
 71
     1
 72
     1
  1
Zeichnungsnummer:
  7
SLDTEXTSTYLE0
 73
     1
 44
1.0
  0
MTEXT
  5
EF
330
1F
100
AcDbEntity
  8
FORMAT
100
AcDbMText
 10
2666.6233339517
 20
361.2067203863
 30
0.0
 40
12.6
 41
0.0
 71
     1
 72
     1
  1
KATALOGZEICHNUNG
  7
SLDTEXTSTYLE3
 73
     1
 44
1.0
  0
MTEXT
  5
F0
330
1F
100
AcDbEntity
  8
FORMAT
100
AcDbMText
 10
2573.4610565193
 20
241.0417881835
 30
0.0
 40
14.0
 41
0.0
 71
     1
 72
     1
  1
Index:
  7
SLDTEXTSTYLE0
 73
     1
 44
1.0
  0
MTEXT
  5
F1
330
1F
100
AcDbEntity
  8
BEMASSUNG
 62
     7
100
AcDbMText
 10
2654.3752871088
 20
335.5547520888
 30
0.0
 40
14.0
 41
0.0
 71
     1
 72
     1
  1
Ausführung:
  7
SLDTEXTSTYLE0
 73
     1
 44
1.0
  0
MTEXT
  5
F2
330
1F
100
AcDbEntity
  8
FORMAT
100
AcDbMText
 10
2134.4508235056
 20
277.1473496808
 30
0.0
 40
17.5
 41
0.0
 71
     1
 72
     1
  1
Bandgegenseite DIN Rechts
  7
SLDTEXTSTYLE3
 73
     1
 44
1.0
  0
MTEXT
  5
F3
330
1F
100
AcDbEntity
  8
FORMAT
100
AcDbMText
 10
2134.4508235056
 20
333.2914097385
 30
0.0
 40
24.5
 41
0.0
 71
     1
 72
     1
  1
ETS 73 (GSD - GB 18 - AV 30)
  7
SLDTEXTSTYLE3
 73
     1
 44
1.0
  0
INSERT
  5
10E
330
1F
100
AcDbEntity
  8
FORMAT
100
AcDbBlockReference
  2
SW_TABLEANNOTATION_0
 10
1662.4885026168
 20
1535.6028479497
 30
0.0
  0
LINE
  5
10F
330
1F
100
AcDbEntity
  8
0
  6
Continuous
 62
     7
370
    25
100
AcDbLine
 10
788.4434482695
 20
1637.9383227349
 30
0.0
 11
788.4434482695
 21
1657.6943387039
 31
0.0
  0
LINE
  5
110
330
1F
100
AcDbEntity
  8
0
  6
Continuous
 62
     7
370
    25
100
AcDbLine
 10
758.4434482695
 20
1657.6943387039
 30
0.0
 11
758.4434482695
 21
1637.9383227349
 31
0.0
  0
LINE
  5
111
330
1F
100
AcDbEntity
  8
0
  6
Continuous
 62
     7
370
    25
100
AcDbLine
 10
1163.7021014146
 20
1614.6943387038
 30
0.0
 11
1163.7021014146
 21
1612.6943387038
 31
0.0
  0
LINE
  5
112
330
1F
100
AcDbEntity
  8
0
  6
Continuous
 62
     7
370
    25
100
AcDbLine
 10
1177.7021014146
 20
1612.6943387038
 30
0.0
 11
1177.7021014146
 21
1614.6943387038
 31
0.0
  0
LINE
  5
113
330
1F
100
AcDbEntity
  8
0
  6
Continuous
 62
     7
370
    25
100
AcDbLine
 10
1175.7021014146
 20
1614.6943387038
 30
0.0
 11
1175.7021014146
 21
1615.1943387038
 31
0.0
  0
LINE
  5
114
330
1F
100
AcDbEntity
  8
0
  6
Continuous
 62
     7
370
    25
100
AcDbLine
 10
1165.7021014146
 20
1615.1943387038
 30
0.0
 11
1165.7021014146
 21
1614.6943387038
 31
0.0
  0
ARC
  5
115
330
1F
100
AcDbEntity
  8
0
  6
Continuous
 62
     7
370
    25
100
AcDbCircle
 10
791.4434482694
 20
1625.194338704
 30
0.0
 40
3.0
100
AcDbArc
 50
179.9999999999
 51
270.0
  0
LINE
  5
116
330
1F
100
AcDbEntity
  8
0
  6
Continuous
 62
     7
370
    25
100
AcDbLine
 10
758.4434482696
 20
1635.994338704
 30
0.0
 11
758.4434482696
 21
1616.194338704
 31
0.0
  0
LINE
  5
117
330
1F
100
AcDbEntity
  8
0
  6
Continuous
 62
     7
370
    25
100
AcDbLine
 10
788.4434482694
 20
1625.194338704
 30
0.0
 11
788.4434482694
 21
1635.994338704
 31
0.0
  0
LINE
  5
118
330
1F
100
AcDbEntity
  8
0
  6
Continuous
 62
     7
370
    25
100
AcDbLine
 10
758.4434482696
 20
1616.194338704
 30
0.0
 11
759.4434482696
 21
1615.194338704
 31
0.0
  0
LINE
  5
119
330
1F
100
AcDbEntity
  8
0
  6
Continuous
 62
     7
370
    25
100
AcDbLine
 10
788.4434482694
 20
1635.994338704
 30
0.0
 11
788.2434482694
 21
1636.194338704
 31
0.0
  0
LINE
  5
11A
330
1F
100
AcDbEntity
  8
0
  6
Continuous
 62
     7
370
    25
100
AcDbLine
 10
758.6434482696
 20
1636.194338704
 30
0.0
 11
758.4434482696
 21
1635.994338704
 31
0.0
  0
LWPOLYLINE
  5
11B
330
1F
100
AcDbEntity
  8
0
  6
Continuous
 62
     7
370
    25
100
AcDbPolyline
 90
       12
 70
   128
 43
0.0
 10
764.8577387258
 20
1637.002319763
 10
764.7477630902
 20
1636.7032731047
 10
764.5631407419
 20
1636.4670605446
 10
764.4521763441
 20
1636.3767072682
 10
764.3383330984
 20
1636.3073126088
 10
764.2320132799
 20
1636.2584640603
 10
764.1434213148
 20
1636.2270275143
 10
764.0822803404
 20
1636.2087410286
 10
764.057857579
 20
1636.1994030488
 10
764.0786878838
 20
1636.1955017627
 10
764.1515712456
 20
1636.1944127116
 10
764.2371485713
 20
1636.1943632296
  0
LINE
  5
11C
330
1F
100
AcDbEntity
  8
0
  6
Continuous
 62
     7
370
    25
100
AcDbLine
 10
765.0407295484
 20
1637.9383227349
 30
0.0
 11
764.8446057823
 21
1636.9351466582
 31
0.0
  0
LWPOLYLINE
  5
11D
330
1F
100
AcDbEntity
  8
0
  6
Continuous
 62
     7
370
    25
100
AcDbPolyline
 90
        4
 70
   128
 43
0.0
 10
783.6737421702
 20
1636.1943614396
 10
783.7133507452
 20
1636.1943841247
 10
783.7389802421
 20
1636.1954354486
 10
783.7382516963
 20
1636.1955943132
  0
ARC
  5
11E
330
1F
100
AcDbEntity
  8
0
  6
Continuous
 62
     7
370
    25
100
AcDbCircle
 10
783.8647634078
 20
1637.2055181628
 30
0.0
 40
1.016334646530263
100
AcDbArc
 50
192.6141786487
 51
261.8326251793
  0
LINE
  5
11F
330
1F
100
AcDbEntity
  8
0
  6
Continuous
 62
     7
370
    25
100
AcDbLine
 10
782.8729610119
 20
1636.9835642789
 30
0.0
 11
782.6671731453
 21
1637.9383227349
 31
0.0
  0
LINE
  5
120
330
1F
100
AcDbEntity
  8
0
  6
Continuous
 62
     7
370
    25
100
AcDbLine
 10
764.2197233938
 20
1637.9383227349
 30
0.0
 11
764.0036819862
 21
1636.9359926946
 31
0.0
  0
ARC
  5
121
330
1F
100
AcDbEntity
  8
0
  6
Continuous
 62
     7
370
    25
100
AcDbCircle
 10
763.0479489482
 20
1637.180098585
 30
0.0
 40
0.9857770834035509
100
AcDbArc
 50
269.5440885489
 51
348.4999965655
  0
LINE
  5
122
330
1F
100
AcDbEntity
  8
0
  6
Continuous
 62
     7
370
    25
100
AcDbLine
 10
1181.7021014145
 20
1621.1943387038
 30
0.0
 11
1180.7021014145
 21
1622.1943387038
 31
0.0
  0
LINE
  5
123
330
1F
100
AcDbEntity
  8
0
  6
Continuous
 62
     7
370
    25
100
AcDbLine
 10
1180.7021014145
 20
1615.1943387038
 30
0.0
 11
1181.7021014145
 21
1616.1943387038
 31
0.0
  0
LINE
  5
124
330
1F
100
AcDbEntity
  8
0
  6
Continuous
 62
     7
370
    25
100
AcDbLine
 10
1181.7021014145
 20
1616.1943387038
 30
0.0
 11
1181.7021014145
 21
1621.1943387038
 31
0.0
  0
LINE
  5
125
330
1F
100
AcDbEntity
  8
0
  6
Continuous
 62
     7
370
    25
100
AcDbLine
 10
758.4434482695
 20
1637.9383227349
 30
0.0
 11
788.4434482695
 21
1637.9383227349
 31
0.0
  0
LINE
  5
126
330
1F
100
AcDbEntity
  8
0
  6
Continuous
 62
     7
370
    25
100
AcDbLine
 10
750.4434482695
 20
1753.6943387039
 30
0.0
 11
750.4434482695
 21
1752.6943387039
 31
0.0
  0
LINE
  5
127
330
1F
100
AcDbEntity
  8
0
  6
Continuous
 62
     7
370
    25
100
AcDbLine
 10
796.4434482695
 20
1753.6943387039
 30
0.0
 11
796.4434482695
 21
1752.6943387039
 31
0.0
  0
LINE
  5
128
330
1F
100
AcDbEntity
  8
0
  6
Continuous
 62
     7
370
    25
100
AcDbLine
 10
750.4434482695
 20
1753.6943387039
 30
0.0
 11
796.4434482695
 21
1753.6943387039
 31
0.0
  0
LINE
  5
129
330
1F
100
AcDbEntity
  8
0
  6
Continuous
 62
     7
370
    25
100
AcDbLine
 10
796.4434482695
 20
1656.6943387039
 30
0.0
 11
793.2171682028
 21
1656.6943387039
 31
0.0
  0
LINE
  5
12A
330
1F
100
AcDbEntity
  8
0
  6
Continuous
 62
     7
370
    25
100
AcDbLine
 10
793.2171682028
 20
1657.6943387039
 30
0.0
 11
793.2171682028
 21
1656.6943387039
 31
0.0
  0
LINE
  5
12B
330
1F
100
AcDbEntity
  8
0
  6
Continuous
 62
     7
370
    25
100
AcDbLine
 10
796.4434482695
 20
1656.6943387039
 30
0.0
 11
796.4434482695
 21
1657.6943387039
 31
0.0
  0
LINE
  5
12C
330
1F
100
AcDbEntity
  8
0
  6
Continuous
 62
     7
370
    25
100
AcDbLine
 10
750.4434482695
 20
1657.6943387039
 30
0.0
 11
750.4434482695
 21
1656.6943387039
 31
0.0
  0
LINE
  5
12D
330
1F
100
AcDbEntity
  8
0
  6
Continuous
 62
     7
370
    25
100
AcDbLine
 10
753.6697283362
 20
1656.6943387039
 30
0.0
 11
753.6697283362
 21
1657.6943387039
 31
0.0
  0
LINE
  5
12E
330
1F
100
AcDbEntity
  8
0
  6
Continuous
 62
     7
370
    25
100
AcDbLine
 10
753.6697283362
 20
1656.6943387039
 30
0.0
 11
750.4434482695
 21
1656.6943387039
 31
0.0
  0
LINE
  5
12F
330
1F
100
AcDbEntity
  8
0
  6
Continuous
 62
     7
370
    25
100
AcDbLine
 10
793.2171682028
 20
1656.6943387039
 30
0.0
 11
788.4434482695
 21
1656.6943387039
 31
0.0
  0
LINE
  5
130
330
1F
100
AcDbEntity
  8
0
  6
Continuous
 62
     7
370
    25
100
AcDbLine
 10
758.4434482695
 20
1656.6943387039
 30
0.0
 11
753.6697283362
 21
1656.6943387039
 31
0.0
  0
LINE
  5
131
330
1F
100
AcDbEntity
  8
0
  6
Continuous
 62
     7
370
    25
100
AcDbLine
 10
503.4434482695
 20
1752.6943387039
 30
0.0
 11
501.4434482695
 21
1752.6943387039
 31
0.0
  0
LINE
  5
132
330
1F
100
AcDbEntity
  8
0
  6
Continuous
 62
     7
370
    25
100
AcDbLine
 10
503.4434482695
 20
1752.6943387039
 30
0.0
 11
503.4434482695
 21
1747.6943387039
 31
0.0
  0
LINE
  5
133
330
1F
100
AcDbEntity
  8
0
  6
Continuous
 62
     7
370
    25
100
AcDbLine
 10
503.4434482695
 20
1747.6943387039
 30
0.0
 11
501.4434482695
 21
1747.6943387039
 31
0.0
  0
LINE
  5
134
330
1F
100
AcDbEntity
  8
0
  6
Continuous
 62
     7
370
    25
100
AcDbLine
 10
501.4434482695
 20
1752.6943387039
 30
0.0
 11
501.4434482695
 21
1747.6943387039
 31
0.0
  0
LINE
  5
135
330
1F
100
AcDbEntity
  8
0
  6
Continuous
 62
     7
370
    25
100
AcDbLine
 10
503.4434482695
 20
1747.6943387039
 30
0.0
 11
503.4434482695
 21
1662.6943387039
 31
0.0
  0
LINE
  5
136
330
1F
100
AcDbEntity
  8
0
  6
Continuous
 62
     7
370
    25
100
AcDbLine
 10
503.4434482695
 20
1662.6943387039
 30
0.0
 11
501.4434482695
 21
1662.6943387039
 31
0.0
  0
LINE
  5
137
330
1F
100
AcDbEntity
  8
0
  6
Continuous
 62
     7
370
    25
100
AcDbLine
 10
501.4434482695
 20
1747.6943387039
 30
0.0
 11
501.4434482695
 21
1662.6943387039
 31
0.0
  0
LINE
  5
138
330
1F
100
AcDbEntity
  8
0
  6
Continuous
 62
     7
370
    25
100
AcDbLine
 10
503.4434482695
 20
1657.6943387039
 30
0.0
 11
501.4434482695
 21
1657.6943387039
 31
0.0
  0
LINE
  5
139
330
1F
100
AcDbEntity
  8
0
  6
Continuous
 62
     7
370
    25
100
AcDbLine
 10
503.4434482695
 20
1662.6943387039
 30
0.0
 11
503.4434482695
 21
1657.6943387039
 31
0.0
  0
LINE
  5
13A
330
1F
100
AcDbEntity
  8
0
  6
Continuous
 62
     7
370
    25
100
AcDbLine
 10
501.4434482695
 20
1662.6943387039
 30
0.0
 11
501.4434482695
 21
1657.6943387039
 31
0.0
  0
LINE
  5
13B
330
1F
100
AcDbEntity
  8
0
  6
Continuous
 62
     7
370
    25
100
AcDbLine
 10
501.4434482695
 20
1747.6943387039
 30
0.0
 11
496.9434482695
 21
1747.6943387039
 31
0.0
  0
LINE
  5
13C
330
1F
100
AcDbEntity
  8
0
  6
Continuous
 62
     7
370
    25
100
AcDbLine
 10
496.9434482695
 20
1747.6943387133
 30
0.0
 11
496.9434482695
 21
1750.6943387039
 31
0.0
  0
LINE
  5
13D
330
1F
100
AcDbEntity
  8
0
  6
Continuous
 62
     7
370
    25
100
AcDbLine
 10
496.9434482695
 20
1750.6943387039
 30
0.0
 11
501.4434482695
 21
1750.6943387039
 31
0.0
  0
LINE
  5
13E
330
1F
100
AcDbEntity
  8
0
  6
Continuous
 62
     7
370
    25
100
AcDbLine
 10
496.9434482695
 20
1662.6943387039
 30
0.0
 11
496.9434482695
 21
1747.6943387086
 31
0.0
  0
LINE
  5
13F
330
1F
100
AcDbEntity
  8
0
  6
Continuous
 62
     7
370
    25
100
AcDbLine
 10
493.9434482695
 20
1662.6943387039
 30
0.0
 11
496.9434482695
 21
1662.6943387039
 31
0.0
  0
LINE
  5
140
330
1F
100
AcDbEntity
  8
0
  6
Continuous
 62
     7
370
    25
100
AcDbLine
 10
493.9434482695
 20
1662.6943387039
 30
0.0
 11
493.9434482695
 21
1747.6943387039
 31
0.0
  0
LINE
  5
141
330
1F
100
AcDbEntity
  8
0
  6
Continuous
 62
     7
370
    25
100
AcDbLine
 10
496.9434482695
 20
1747.6943387039
 30
0.0
 11
493.9434482695
 21
1747.6943387039
 31
0.0
  0
LINE
  5
142
330
1F
100
AcDbEntity
  8
0
  6
Continuous
 62
     7
370
    25
100
AcDbLine
 10
496.9434482695
 20
1662.6943387039
 30
0.0
 11
501.4434482695
 21
1662.6943387039
 31
0.0
  0
LINE
  5
143
330
1F
100
AcDbEntity
  8
0
  6
Continuous
 62
     7
370
    25
100
AcDbLine
 10
501.4434482695
 20
1659.6943387039
 30
0.0
 11
496.9434482695
 21
1659.6943387039
 31
0.0
  0
LINE
  5
144
330
1F
100
AcDbEntity
  8
0
  6
Continuous
 62
     7
370
    25
100
AcDbLine
 10
496.9434482695
 20
1659.6943387039
 30
0.0
 11
496.9434482695
 21
1662.6943387039
 31
0.0
  0
ARC
  5
145
330
1F
100
AcDbEntity
  8
0
  6
Continuous
 62
     7
370
    25
100
AcDbCircle
 10
496.9434482695
 20
1662.6943387039
 30
0.0
 40
3.0
100
AcDbArc
 50
180.0
 51
270.0
  0
ARC
  5
146
330
1F
100
AcDbEntity
  8
0
  6
Continuous
 62
     7
370
    25
100
AcDbCircle
 10
496.9434482695
 20
1747.6943387039
 30
0.0
 40
3.0
100
AcDbArc
 50
90.0
 51
180.0
  0
LINE
  5
147
330
1F
100
AcDbEntity
  8
0
  6
Continuous
 62
     7
370
    25
100
AcDbLine
 10
1175.4434482695
 20
1747.6943387038
 30
0.0
 11
1175.4434482695
 21
1752.6943387038
 31
0.0
  0
LINE
  5
148
330
1F
100
AcDbEntity
  8
0
  6
Continuous
 62
     7
370
    25
100
AcDbLine
 10
1173.4434482695
 20
1747.6943387038
 30
0.0
 11
1175.4434482695
 21
1747.6943387038
 31
0.0
  0
LINE
  5
149
330
1F
100
AcDbEntity
  8
0
  6
Continuous
 62
     7
370
    25
100
AcDbLine
 10
1173.4434482695
 20
1747.6943387038
 30
0.0
 11
1173.4434482695
 21
1752.6943387038
 31
0.0
  0
LINE
  5
14A
330
1F
100
AcDbEntity
  8
0
  6
Continuous
 62
     7
370
    25
100
AcDbLine
 10
1173.4434482695
 20
1752.6943387038
 30
0.0
 11
1175.4434482695
 21
1752.6943387038
 31
0.0
  0
LINE
  5
14B
330
1F
100
AcDbEntity
  8
0
  6
Continuous
 62
     7
370
    25
100
AcDbLine
 10
1175.4434482695
 20
1662.6943387038
 30
0.0
 11
1175.4434482695
 21
1747.6943387038
 31
0.0
  0
LINE
  5
14C
330
1F
100
AcDbEntity
  8
0
  6
Continuous
 62
     7
370
    25
100
AcDbLine
 10
1173.4434482695
 20
1662.6943387038
 30
0.0
 11
1175.4434482695
 21
1662.6943387038
 31
0.0
  0
LINE
  5
14D
330
1F
100
AcDbEntity
  8
0
  6
Continuous
 62
     7
370
    25
100
AcDbLine
 10
1173.4434482695
 20
1662.6943387038
 30
0.0
 11
1173.4434482695
 21
1747.6943387038
 31
0.0
  0
LINE
  5
14E
330
1F
100
AcDbEntity
  8
0
  6
Continuous
 62
     7
370
    25
100
AcDbLine
 10
1173.4434482695
 20
1657.6943387038
 30
0.0
 11
1175.4434482695
 21
1657.6943387038
 31
0.0
  0
LINE
  5
14F
330
1F
100
AcDbEntity
  8
0
  6
Continuous
 62
     7
370
    25
100
AcDbLine
 10
1173.4434482695
 20
1657.6943387038
 30
0.0
 11
1173.4434482695
 21
1662.6943387038
 31
0.0
  0
LINE
  5
150
330
1F
100
AcDbEntity
  8
0
  6
Continuous
 62
     7
370
    25
100
AcDbLine
 10
1175.4434482695
 20
1657.6943387038
 30
0.0
 11
1175.4434482695
 21
1662.6943387038
 31
0.0
  0
LINE
  5
151
330
1F
100
AcDbEntity
  8
0
  6
Continuous
 62
     7
370
    25
100
AcDbLine
 10
1179.9434482695
 20
1747.6943387038
 30
0.0
 11
1179.9434482695
 21
1662.6943386991
 31
0.0
  0
LINE
  5
152
330
1F
100
AcDbEntity
  8
0
  6
Continuous
 62
     7
370
    25
100
AcDbLine
 10
1182.9434482695
 20
1747.6943387038
 30
0.0
 11
1179.9434482695
 21
1747.6943387038
 31
0.0
  0
LINE
  5
153
330
1F
100
AcDbEntity
  8
0
  6
Continuous
 62
     7
370
    25
100
AcDbLine
 10
1182.9434482695
 20
1747.6943387038
 30
0.0
 11
1182.9434482695
 21
1662.6943387038
 31
0.0
  0
LINE
  5
154
330
1F
100
AcDbEntity
  8
0
  6
Continuous
 62
     7
370
    25
100
AcDbLine
 10
1179.9434482695
 20
1662.6943387038
 30
0.0
 11
1182.9434482695
 21
1662.6943387038
 31
0.0
  0
LINE
  5
155
330
1F
100
AcDbEntity
  8
0
  6
Continuous
 62
     7
370
    25
100
AcDbLine
 10
1175.4434482695
 20
1662.6943387038
 30
0.0
 11
1179.9434482695
 21
1662.6943387038
 31
0.0
  0
LINE
  5
156
330
1F
100
AcDbEntity
  8
0
  6
Continuous
 62
     7
370
    25
100
AcDbLine
 10
1179.9434482695
 20
1662.6943386944
 30
0.0
 11
1179.9434482695
 21
1659.6943387038
 31
0.0
  0
LINE
  5
157
330
1F
100
AcDbEntity
  8
0
  6
Continuous
 62
     7
370
    25
100
AcDbLine
 10
1179.9434482695
 20
1659.6943387038
 30
0.0
 11
1175.4434482695
 21
1659.6943387038
 31
0.0
  0
LINE
  5
158
330
1F
100
AcDbEntity
  8
0
  6
Continuous
 62
     7
370
    25
100
AcDbLine
 10
1179.9434482695
 20
1747.6943387038
 30
0.0
 11
1175.4434482695
 21
1747.6943387038
 31
0.0
  0
LINE
  5
159
330
1F
100
AcDbEntity
  8
0
  6
Continuous
 62
     7
370
    25
100
AcDbLine
 10
1175.4434482695
 20
1750.6943387038
 30
0.0
 11
1179.9434482695
 21
1750.6943387038
 31
0.0
  0
LINE
  5
15A
330
1F
100
AcDbEntity
  8
0
  6
Continuous
 62
     7
370
    25
100
AcDbLine
 10
1179.9434482695
 20
1750.6943387038
 30
0.0
 11
1179.9434482695
 21
1747.6943387038
 31
0.0
  0
ARC
  5
15B
330
1F
100
AcDbEntity
  8
0
  6
Continuous
 62
     7
370
    25
100
AcDbCircle
 10
1179.9434482695
 20
1747.6943387038
 30
0.0
 40
3.0
100
AcDbArc
 50
0.0
 51
90.0
  0
ARC
  5
15C
330
1F
100
AcDbEntity
  8
0
  6
Continuous
 62
     7
370
    25
100
AcDbCircle
 10
1179.9434482695
 20
1662.6943387038
 30
0.0
 40
3.0
100
AcDbArc
 50
270.0
 51
0.0
  0
LINE
  5
15D
330
1F
100
AcDbEntity
  8
0
  6
Continuous
 62
     7
370
    25
100
AcDbLine
 10
503.4434482695
 20
1747.6943387039
 30
0.0
 11
1173.4434482695
 21
1747.6943387039
 31
0.0
  0
LINE
  5
15E
330
1F
100
AcDbEntity
  8
0
  6
Continuous
 62
     7
370
    25
100
AcDbLine
 10
503.4434482695
 20
1662.6943387039
 30
0.0
 11
1173.4434482695
 21
1662.6943387039
 31
0.0
  0
LINE
  5
15F
330
1F
100
AcDbEntity
  8
0
  6
Continuous
 62
     7
370
    25
100
AcDbLine
 10
503.4434482695
 20
1657.6943387039
 30
0.0
 11
1173.4434482695
 21
1657.6943387039
 31
0.0
  0
LINE
  5
160
330
1F
100
AcDbEntity
  8
0
  6
Continuous
 62
     7
370
    25
100
AcDbLine
 10
503.4434482695
 20
1752.6943387039
 30
0.0
 11
1173.4434482695
 21
1752.6943387039
 31
0.0
  0
LINE
  5
161
330
1F
100
AcDbEntity
  8
0
  6
Continuous
 62
     7
370
    25
100
AcDbLine
 10
1177.7021014146
 20
1614.6943387038
 30
0.0
 11
1163.7021014146
 21
1614.6943387038
 31
0.0
  0
LWPOLYLINE
  5
162
330
1F
100
AcDbEntity
  8
0
  6
Continuous
 62
     7
370
    25
100
AcDbPolyline
 90
       16
 70
   128
 43
0.0
 10
786.3158697705
 20
1622.194338704
 10
784.5098692196
 20
1622.330596505
 10
782.6587139129
 20
1622.6899549238
 10
780.7588906488
 20
1623.2156530494
 10
779.451285962
 20
1623.6399708498
 10
777.9831308718
 20
1624.1566061583
 10
777.6453570195
 20
1624.2796310678
 10
777.3009788578
 20
1624.4062747415
 10
776.9498535192
 20
1624.5363653485
 10
776.5918112114
 20
1624.6697066251
 10
775.5621347617
 20
1625.0572402094
 10
775.2964130955
 20
1625.1573978953
 10
775.2257505216
 20
1625.1837757016
 10
775.2059754692
 20
1625.1910341543
 10
775.1999776986
 20
1625.1931806692
 10
775.1965732695
 20
1625.194338704
  0
LINE
  5
163
330
1F
100
AcDbEntity
  8
0
  6
Continuous
 62
     7
370
    25
100
AcDbLine
 10
786.4327447705
 20
1621.194338704
 30
0.0
 11
786.3158697705
 21
1622.194338704
 31
0.0
  0
LWPOLYLINE
  5
164
330
1F
100
AcDbEntity
  8
0
  6
Continuous
 62
     7
370
    25
100
AcDbPolyline
 90
       16
 70
   128
 43
0.0
 10
786.4327447705
 20
1621.194338704
 10
784.4480047905
 20
1621.3736068001
 10
782.4748744285
 20
1621.8524760934
 10
780.5265378569
 20
1622.5560987418
 10
779.6869914054
 20
1622.9167684348
 10
778.7846476515
 20
1623.3349671347
 10
777.8195065952
 20
1623.8106948415
 10
776.5026632164
 20
1624.4948279814
 10
776.2639349454
 20
1624.6215045346
 10
776.0460548232
 20
1624.7378852764
 10
775.84902285
 20
1624.8439702069
 10
775.3736655154
 20
1625.1004569782
 10
775.2478362564
 20
1625.1677234718
 10
775.2128839789
 20
1625.1861124956
 10
775.2023984282
 20
1625.1914959517
 10
775.1965732695
 20
1625.194338704
  0
LINE
  5
165
330
1F
100
AcDbEntity
  8
0
  6
Continuous
 62
     7
370
    25
100
AcDbLine
 10
775.1965732695
 20
1616.194338704
 30
0.0
 11
775.1965732695
 21
1625.194338704
 31
0.0
  0
LINE
  5
166
330
1F
100
AcDbEntity
  8
0
  6
Continuous
 62
     7
370
    25
100
AcDbLine
 10
775.1965732695
 20
1616.194338704
 30
0.0
 11
758.4434482696
 21
1616.194338704
 31
0.0
  0
LINE
  5
167
330
1F
100
AcDbEntity
  8
0
  6
Continuous
 62
     7
370
    25
100
AcDbLine
 10
775.1965732695
 20
1635.994338704
 30
0.0
 11
758.4434482696
 21
1635.994338704
 31
0.0
  0
LINE
  5
168
330
1F
100
AcDbEntity
  8
0
  6
Continuous
 62
     7
370
    25
100
AcDbLine
 10
788.4434482694
 20
1635.994338704
 30
0.0
 11
775.1965732695
 21
1635.994338704
 31
0.0
  0
LINE
  5
169
330
1F
100
AcDbEntity
  8
0
  6
Continuous
 62
     7
370
    25
100
AcDbLine
 10
775.0796982695
 20
1615.194338704
 30
0.0
 11
775.1965732695
 21
1616.194338704
 31
0.0
  0
LINE
  5
16A
330
1F
100
AcDbEntity
  8
0
  6
Continuous
 62
     7
370
    25
100
AcDbLine
 10
775.0796982695
 20
1615.194338704
 30
0.0
 11
759.4434482696
 21
1615.194338704
 31
0.0
  0
LINE
  5
16B
330
1F
100
AcDbEntity
  8
0
  6
Continuous
 62
     7
370
    25
100
AcDbLine
 10
775.1731982695
 20
1636.194338704
 30
0.0
 11
758.6434482696
 21
1636.194338704
 31
0.0
  0
LINE
  5
16C
330
1F
100
AcDbEntity
  8
0
  6
Continuous
 62
     7
370
    25
100
AcDbLine
 10
788.2434482694
 20
1636.194338704
 30
0.0
 11
775.1731982695
 21
1636.194338704
 31
0.0
  0
LINE
  5
16D
330
1F
100
AcDbEntity
  8
0
  6
Continuous
 62
     7
370
    25
100
AcDbLine
 10
984.2254203124
 20
1616.1943387039
 30
0.0
 11
984.2254203124
 21
1621.1943387039
 31
0.0
  0
LINE
  5
16E
330
1F
100
AcDbEntity
  8
0
  6
Continuous
 62
     7
370
    25
100
AcDbLine
 10
984.2254203124
 20
1616.1943387039
 30
0.0
 11
775.1965732695
 21
1616.194338704
 31
0.0
  0
LINE
  5
16F
330
1F
100
AcDbEntity
  8
0
  6
Continuous
 62
     7
370
    25
100
AcDbLine
 10
984.2254203124
 20
1621.1943387039
 30
0.0
 11
786.4327447705
 21
1621.194338704
 31
0.0
  0
LINE
  5
170
330
1F
100
AcDbEntity
  8
0
  6
Continuous
 62
     7
370
    25
100
AcDbLine
 10
984.2254203124
 20
1616.1943387039
 30
0.0
 11
984.1085453124
 21
1615.1943387039
 31
0.0
  0
LINE
  5
171
330
1F
100
AcDbEntity
  8
0
  6
Continuous
 62
     7
370
    25
100
AcDbLine
 10
984.1085453124
 20
1615.1943387039
 30
0.0
 11
775.0796982695
 21
1615.194338704
 31
0.0
  0
LINE
  5
172
330
1F
100
AcDbEntity
  8
0
  6
Continuous
 62
     7
370
    25
100
AcDbLine
 10
786.3158697705
 20
1622.194338704
 30
0.0
 11
984.1085453124
 21
1622.1943387039
 31
0.0
  0
LINE
  5
173
330
1F
100
AcDbEntity
  8
0
  6
Continuous
 62
     7
370
    25
100
AcDbLine
 10
984.2254203124
 20
1621.1943387039
 30
0.0
 11
984.1085453124
 21
1622.1943387039
 31
0.0
  0
LWPOLYLINE
  5
174
330
1F
100
AcDbEntity
  8
0
  6
Continuous
 62
     7
370
    25
100
AcDbPolyline
 90
        9
 70
   128
 43
0.0
 10
771.5672977741
 20
1636.194338704
 10
771.4815023013
 20
1636.2099121359
 10
771.3983790884
 20
1636.2561473681
 10
771.3205171629
 20
1636.331604318
 10
771.2503416794
 20
1636.4339327384
 10
771.1900383842
 20
1636.5599454198
 10
771.1414855359
 20
1636.7057174625
 10
771.1061954034
 20
1636.8667085244
 10
771.0852671636
 20
1637.0379042389
  0
ARC
  5
175
330
1F
100
AcDbEntity
  8
0
  6
Continuous
 62
     7
370
    25
100
AcDbCircle
 10
769.631457738
 20
1637.11189557
 30
0.0
 40
0.9191498472619166
100
AcDbArc
 50
273.3737472446
 51
355.3827081636
  0
ARC
  5
176
330
1F
100
AcDbEntity
  8
0
  6
Continuous
 62
     7
370
    25
100
AcDbCircle
 10
770.8164458767
 20
1637.5718683673
 30
0.0
 40
0.5978148330877274
100
AcDbArc
 50
243.2772849693
 51
296.7227163649
  0
LWPOLYLINE
  5
177
330
1F
100
AcDbEntity
  8
0
  6
Continuous
 62
     7
370
    25
100
AcDbPolyline
 90
        3
 70
   128
 43
0.0
 10
774.2472308288
 20
1636.4339327384
 10
774.3417057123
 20
1636.2561473681
 10
774.4570618724
 20
1636.194338704
  0
LINE
  5
178
330
1F
100
AcDbEntity
  8
0
  6
Continuous
 62
     7
370
    25
100
AcDbLine
 10
771.0852671636
 20
1637.0379042389
 30
0.0
 11
774.189281364
 21
1637.0379042389
 31
0.0
  0
LWPOLYLINE
  5
179
330
1F
100
AcDbEntity
  8
0
  6
Continuous
 62
     7
370
    25
100
AcDbPolyline
 90
        3
 70
   128
 43
0.0
 10
774.189281364
 20
1637.0379042389
 10
774.1919372108
 20
1636.7057174625
 10
774.2472308288
 20
1636.4339327384
  0
LWPOLYLINE
  5
17A
330
1F
100
AcDbEntity
  8
0
  6
Continuous
 62
     7
370
    25
100
AcDbPolyline
 90
        3
 70
   128
 43
0.0
 10
774.5156613188
 20
1636.4339327363
 10
774.5172967804
 20
1636.7057174611
 10
774.4895866308
 20
1637.0379042389
  0
LINE
  5
17B
330
1F
100
AcDbEntity
  8
0
  6
Continuous
 62
     7
370
    25
100
AcDbLine
 10
774.4895866308
 20
1637.0379042389
 30
0.0
 11
777.91171974
 21
1637.0379042389
 31
0.0
  0
LWPOLYLINE
  5
17C
330
1F
100
AcDbEntity
  8
0
  6
Continuous
 62
     7
370
    25
100
AcDbPolyline
 90
        9
 70
   128
 43
0.0
 10
777.91171974
 20
1637.0379042389
 10
777.900052225
 20
1636.8667085244
 10
777.8803779401
 20
1636.7057174625
 10
777.8533096776
 20
1636.5599454198
 10
777.8196905291
 20
1636.4339327384
 10
777.7805676255
 20
1636.331604318
 10
777.7371595226
 20
1636.256147368
 10
777.6908182467
 20
1636.2099121359
 10
777.6429871832
 20
1636.194338704
  0
LWPOLYLINE
  5
17D
330
1F
100
AcDbEntity
  8
0
  6
Continuous
 62
     7
370
    25
100
AcDbPolyline
 90
        3
 70
   128
 43
0.0
 10
774.4570618724
 20
1636.194338704
 10
774.492182262
 20
1636.2561473675
 10
774.5156613188
 20
1636.4339327363
  0
LWPOLYLINE
  5
17E
330
1F
100
AcDbEntity
  8
0
  6
Continuous
 62
     7
370
    25
100
AcDbPolyline
 90
        3
 70
   128
 43
0.0
 10
768.5766873905
 20
1636.4339327363
 10
768.7414189525
 20
1636.7057174611
 10
768.8120117814
 20
1637.0379042389
  0
LINE
  5
17F
330
1F
100
AcDbEntity
  8
0
  6
Continuous
 62
     7
370
    25
100
AcDbLine
 10
768.8120117814
 20
1637.0379042389
 30
0.0
 11
770.5476246031
 21
1637.0379042389
 31
0.0
  0
LWPOLYLINE
  5
180
330
1F
100
AcDbEntity
  8
0
  6
Continuous
 62
     7
370
    25
100
AcDbPolyline
 90
        3
 70
   128
 43
0.0
 10
768.0697341143
 20
1636.194338704
 10
768.3418830559
 20
1636.2561473675
 10
768.5766873905
 20
1636.4339327363
  0
ARC
  5
181
330
1F
100
AcDbEntity
  8
0
  6
Continuous
 62
     7
370
    25
100
AcDbCircle
 10
779.3650592939
 20
1637.1687147689
 30
0.0
 40
0.9744953823074577
100
AcDbArc
 50
187.7143350978
 51
269.1033892401
  0
ARC
  5
182
330
1F
100
AcDbEntity
  8
0
  6
Continuous
 62
     7
370
    25
100
AcDbCircle
 10
778.1555515844
 20
1637.4522766322
 30
0.0
 40
0.4807894070791492
100
AcDbArc
 50
239.5258911219
 51
300.4741103492
  0
LWPOLYLINE
  5
183
330
1F
100
AcDbEntity
  8
0
  6
Continuous
 62
     7
370
    25
100
AcDbPolyline
 90
        3
 70
   128
 43
0.0
 10
779.6590753761
 20
1636.4339327384
 10
779.9342659937
 20
1636.2561473681
 10
780.2506285289
 20
1636.194338704
  0
LINE
  5
184
330
1F
100
AcDbEntity
  8
0
  6
Continuous
 62
     7
370
    25
100
AcDbLine
 10
778.3993834397
 20
1637.0379042389
 30
0.0
 11
779.3669893471
 21
1637.0379042389
 31
0.0
  0
LWPOLYLINE
  5
185
330
1F
100
AcDbEntity
  8
0
  6
Continuous
 62
     7
370
    25
100
AcDbPolyline
 90
        3
 70
   128
 43
0.0
 10
779.3669893471
 20
1637.0379042389
 10
779.4611390311
 20
1636.7057174625
 10
779.6590753761
 20
1636.4339327384
  0
ARC
  5
186
330
1F
100
AcDbEntity
  8
0
  6
Continuous
 62
     7
370
    25
100
AcDbCircle
 10
772.948733146
 20
1637.4858396912
 30
0.0
 40
1.67110875451242
100
AcDbArc
 50
320.9892283157
 51
327.6243106452
  0
ARC
  5
187
330
1F
100
AcDbEntity
  8
0
  6
Continuous
 62
     7
370
    25
100
AcDbCircle
 10
775.2184775345
 20
1637.2856459649
 30
0.0
 40
1.104249091854686
100
AcDbArc
 50
218.980366801
 51
230.471252979
  0
LINE
  5
188
330
1F
100
AcDbEntity
  8
0
  6
Continuous
 62
     7
370
    25
100
AcDbLine
 10
774.3361989989
 20
1637.025369698
 30
0.0
 11
774.189281364
 21
1637.0379042389
 31
0.0
  0
ARC
  5
189
330
1F
100
AcDbEntity
  8
0
  6
Continuous
 62
     7
370
    25
100
AcDbCircle
 10
780.693228677
 20
1637.1569979796
 30
0.0
 40
6.358392235782558
100
AcDbArc
 50
181.1861930225
 51
185.1068718155
  0
LINE
  5
18A
330
1F
100
AcDbEntity
  8
0
  6
Continuous
 62
     7
370
    25
100
AcDbLine
 10
774.4895866308
 20
1637.0379042389
 30
0.0
 11
774.3361989989
 21
1637.025369698
 31
0.0
  0
LWPOLYLINE
  5
18B
330
1F
100
AcDbEntity
  8
0
  6
Continuous
 62
     7
370
    25
100
AcDbPolyline
 90
        3
 70
   128
 43
0.0
 10
768.3645413594
 20
1636.4339327384
 10
768.2229584034
 20
1636.2561473681
 10
768.0697341143
 20
1636.194338704
  0
LWPOLYLINE
  5
18C
330
1F
100
AcDbEntity
  8
0
  6
Continuous
 62
     7
370
    25
100
AcDbPolyline
 90
        9
 70
   128
 43
0.0
 10
764.88380884
 20
1636.194338704
 10
764.9316399035
 20
1636.2099121359
 10
764.9779811795
 20
1636.2561473681
 10
765.0213892824
 20
1636.331604318
 10
765.0605121859
 20
1636.4339327384
 10
765.0941313345
 20
1636.5599454198
 10
765.1211995969
 20
1636.7057174625
 10
765.1408738818
 20
1636.8667085244
 10
765.1525413968
 20
1637.0379042389
  0
LINE
  5
18D
330
1F
100
AcDbEntity
  8
0
  6
Continuous
 62
     7
370
    25
100
AcDbLine
 10
765.1525413968
 20
1637.0379042389
 30
0.0
 11
768.5746744694
 21
1637.0379042389
 31
0.0
  0
LWPOLYLINE
  5
18E
330
1F
100
AcDbEntity
  8
0
  6
Continuous
 62
     7
370
    25
100
AcDbPolyline
 90
        3
 70
   128
 43
0.0
 10
768.5746744694
 20
1637.0379042389
 10
768.48428072
 20
1636.7057174625
 10
768.3645413594
 20
1636.4339327384
  0
ARC
  5
18F
330
1F
100
AcDbEntity
  8
0
  6
Continuous
 62
     7
370
    25
100
AcDbCircle
 10
767.8864649306
 20
1637.3332774797
 30
0.0
 40
1.018517567634406
100
AcDbArc
 50
297.9943549483
 51
313.2167180078
  0
ARC
  5
190
330
1F
100
AcDbEntity
  8
0
  6
Continuous
 62
     7
370
    25
100
AcDbCircle
 10
768.1180967369
 20
1636.5337098689
 30
0.0
 40
0.4693195752912746
100
AcDbArc
 50
347.7252635685
 51
7.0132914397
  0
ARC
  5
191
330
1F
100
AcDbEntity
  8
0
  6
Continuous
 62
     7
370
    25
100
AcDbCircle
 10
767.3663811066
 20
1637.1820855462
 30
0.0
 40
1.353414193742192
100
AcDbArc
 50
334.104790299
 51
353.3506380247
  0
LINE
  5
192
330
1F
100
AcDbEntity
  8
0
  6
Continuous
 62
     7
370
    25
100
AcDbLine
 10
768.8120117814
 20
1637.0379042389
 30
0.0
 11
768.7106915974
 21
1637.025369698
 31
0.0
  0
LINE
  5
193
330
1F
100
AcDbEntity
  8
0
  6
Continuous
 62
     7
370
    25
100
AcDbLine
 10
768.7106915974
 20
1637.025369698
 30
0.0
 11
768.5746744694
 21
1637.0379042389
 31
0.0
  0
LINE
  5
194
330
1F
100
AcDbEntity
  8
0
  6
Continuous
 62
     7
370
    25
100
AcDbLine
 10
764.0622569395
 20
1636.2039102719
 30
0.0
 11
763.9294369121
 21
1636.194338704
 31
0.0
  0
LWPOLYLINE
  5
195
330
1F
100
AcDbEntity
  8
0
  6
Continuous
 62
     7
370
    25
100
AcDbPolyline
 90
        8
 70
   128
 43
0.0
 10
764.8798636948
 20
1637.0379042327
 10
764.857931405
 20
1636.9930335647
 10
764.8716147406
 20
1636.9801747812
 10
764.9028069696
 20
1636.975852607
 10
764.9498925228
 20
1636.9802493234
 10
765.0056739685
 20
1636.9920105921
 10
765.0736373336
 20
1637.0112180978
 10
765.1525413968
 20
1637.0379042389
  0
LWPOLYLINE
  5
196
330
1F
100
AcDbEntity
  8
0
  6
Continuous
 62
     7
370
    25
100
AcDbPolyline
 90
        3
 70
   128
 43
0.0
 10
779.8265473845
 20
1636.4339327363
 10
779.6641287146
 20
1636.7057174611
 10
779.5543478162
 20
1637.0379042389
  0
LINE
  5
197
330
1F
100
AcDbEntity
  8
0
  6
Continuous
 62
     7
370
    25
100
AcDbLine
 10
779.5543478162
 20
1637.0379042389
 30
0.0
 11
782.6583620498
 21
1637.0379042389
 31
0.0
  0
LWPOLYLINE
  5
198
330
1F
100
AcDbEntity
  8
0
  6
Continuous
 62
     7
370
    25
100
AcDbPolyline
 90
        9
 70
   128
 43
0.0
 10
782.6583620498
 20
1637.0379042389
 10
782.6792902896
 20
1636.8667085244
 10
782.7145804221
 20
1636.7057174625
 10
782.7631332704
 20
1636.5599454198
 10
782.8234365656
 20
1636.4339327384
 10
782.8936120491
 20
1636.331604318
 10
782.9714739746
 20
1636.256147368
 10
783.0545971875
 20
1636.2099121359
 10
783.1403926603
 20
1636.194338704
  0
LWPOLYLINE
  5
199
330
1F
100
AcDbEntity
  8
0
  6
Continuous
 62
     7
370
    25
100
AcDbPolyline
 90
        3
 70
   128
 43
0.0
 10
780.2506285289
 20
1636.194338704
 10
780.0281473186
 20
1636.2561473675
 10
779.8265473845
 20
1636.4339327363
  0
ARC
  5
19A
330
1F
100
AcDbEntity
  8
0
  6
Continuous
 62
     7
370
    25
100
AcDbCircle
 10
779.9519971969
 20
1636.6353143948
 30
0.0
 40
0.3554683736912217
100
AcDbArc
 50
187.1591901883
 51
214.5082446726
  0
ARC
  5
19B
330
1F
100
AcDbEntity
  8
0
  6
Continuous
 62
     7
370
    25
100
AcDbCircle
 10
780.2410141183
 20
1637.2764559256
 30
0.0
 40
0.9389504768053096
100
AcDbArc
 50
226.8871512526
 51
243.8058075803
  0
LINE
  5
19C
330
1F
100
AcDbEntity
  8
0
  6
Continuous
 62
     7
370
    25
100
AcDbLine
 10
779.4387451309
 20
1637.025369698
 30
0.0
 11
779.3669893471
 21
1637.0379042389
 31
0.0
  0
ARC
  5
19D
330
1F
100
AcDbEntity
  8
0
  6
Continuous
 62
     7
370
    25
100
AcDbCircle
 10
780.5721409449
 20
1637.1974647046
 30
0.0
 40
1.146386562270441
100
AcDbArc
 50
188.6338504036
 51
211.9386567671
  0
LINE
  5
19E
330
1F
100
AcDbEntity
  8
0
  6
Continuous
 62
     7
370
    25
100
AcDbLine
 10
779.5543478162
 20
1637.0379042389
 30
0.0
 11
779.4387451309
 21
1637.025369698
 31
0.0
  0
LWPOLYLINE
  5
19F
330
1F
100
AcDbEntity
  8
0
  6
Continuous
 62
     7
370
    25
100
AcDbPolyline
 90
        9
 70
   128
 43
0.0
 10
782.6583620503
 20
1637.0379042327
 10
782.7305931957
 20
1637.0107763675
 10
782.7889252515
 20
1636.991399124
 10
782.8321917455
 20
1636.9797038705
 10
782.8599031884
 20
1636.9757652338
 10
782.8723646597
 20
1636.9796975487
 10
782.8689292941
 20
1636.9913913792
 10
782.8484616454
 20
1637.0107710484
 10
782.8103801074
 20
1637.0379042389
  0
ARC
  5
1A0
330
1F
100
AcDbEntity
  8
0
  6
Continuous
 62
     7
370
    25
100
AcDbCircle
 10
763.1603495666
 20
1637.11189557
 30
0.0
 40
0.9191498472669773
100
AcDbArc
 50
273.3737472448
 51
355.3827081651
  0
LINE
  5
1A1
330
1F
100
AcDbEntity
  8
0
  6
Continuous
 62
     7
370
    25
100
AcDbLine
 10
985.1363309569
 20
1615.1943387039
 30
0.0
 11
985.2741811742
 21
1616.1943387039
 31
0.0
  0
LINE
  5
1A2
330
1F
100
AcDbEntity
  8
0
  6
Continuous
 62
     7
370
    25
100
AcDbLine
 10
984.2254203124
 20
1616.1943387039
 30
0.0
 11
985.2741811742
 21
1616.1943387039
 31
0.0
  0
LINE
  5
1A3
330
1F
100
AcDbEntity
  8
0
  6
Continuous
 62
     7
370
    25
100
AcDbLine
 10
985.1363309569
 20
1615.1943387039
 30
0.0
 11
984.1085453124
 21
1615.1943387039
 31
0.0
  0
LINE
  5
1A4
330
1F
100
AcDbEntity
  8
0
  6
Continuous
 62
     7
370
    25
100
AcDbLine
 10
985.2741811742
 20
1621.1943387039
 30
0.0
 11
984.2254203124
 21
1621.1943387039
 31
0.0
  0
LINE
  5
1A5
330
1F
100
AcDbEntity
  8
0
  6
Continuous
 62
     7
370
    25
100
AcDbLine
 10
985.2741811742
 20
1621.1943387039
 30
0.0
 11
985.2741811742
 21
1616.1943387039
 31
0.0
  0
LINE
  5
1A6
330
1F
100
AcDbEntity
  8
0
  6
Continuous
 62
     7
370
    25
100
AcDbLine
 10
985.1363309569
 20
1622.1943387039
 30
0.0
 11
985.2741811742
 21
1621.1943387039
 31
0.0
  0
LINE
  5
1A7
330
1F
100
AcDbEntity
  8
0
  6
Continuous
 62
     7
370
    25
100
AcDbLine
 10
984.1085453124
 20
1622.1943387039
 30
0.0
 11
985.1363309569
 21
1622.1943387039
 31
0.0
  0
LINE
  5
1A8
330
1F
100
AcDbEntity
  8
0
  6
Continuous
 62
     7
370
    25
100
AcDbLine
 10
1172.0806035869
 20
1615.1943387038
 30
0.0
 11
1172.2184538042
 21
1616.1943387038
 31
0.0
  0
LINE
  5
1A9
330
1F
100
AcDbEntity
  8
0
  6
Continuous
 62
     7
370
    25
100
AcDbLine
 10
1172.2184538042
 20
1616.1943387038
 30
0.0
 11
985.2741811742
 21
1616.1943387039
 31
0.0
  0
LINE
  5
1AA
330
1F
100
AcDbEntity
  8
0
  6
Continuous
 62
     7
370
    25
100
AcDbLine
 10
1172.0806035869
 20
1615.1943387038
 30
0.0
 11
985.1363309569
 21
1615.1943387039
 31
0.0
  0
LINE
  5
1AB
330
1F
100
AcDbEntity
  8
0
  6
Continuous
 62
     7
370
    25
100
AcDbLine
 10
1172.2184538042
 20
1621.1943387038
 30
0.0
 11
1172.080603587
 21
1622.1943387038
 31
0.0
  0
LINE
  5
1AC
330
1F
100
AcDbEntity
  8
0
  6
Continuous
 62
     7
370
    25
100
AcDbLine
 10
1172.2184538042
 20
1621.1943387038
 30
0.0
 11
985.2741811742
 21
1621.1943387039
 31
0.0
  0
LINE
  5
1AD
330
1F
100
AcDbEntity
  8
0
  6
Continuous
 62
     7
370
    25
100
AcDbLine
 10
985.1363309569
 20
1622.1943387039
 30
0.0
 11
1172.080603587
 21
1622.1943387038
 31
0.0
  0
LINE
  5
1AE
330
1F
100
AcDbEntity
  8
0
  6
Continuous
 62
     7
370
    25
100
AcDbLine
 10
1172.2184538042
 20
1616.1943387038
 30
0.0
 11
1172.2184538042
 21
1621.1943387038
 31
0.0
  0
LINE
  5
1AF
330
1F
100
AcDbEntity
  8
0
  6
Continuous
 62
     7
370
    25
100
AcDbLine
 10
1181.7021014145
 20
1621.1943387038
 30
0.0
 11
1172.2184538042
 21
1621.1943387038
 31
0.0
  0
LINE
  5
1B0
330
1F
100
AcDbEntity
  8
0
  6
Continuous
 62
     7
370
    25
100
AcDbLine
 10
1172.080603587
 20
1622.1943387038
 30
0.0
 11
1180.7021014145
 21
1622.1943387038
 31
0.0
  0
LINE
  5
1B1
330
1F
100
AcDbEntity
  8
0
  6
Continuous
 62
     7
370
    25
100
AcDbLine
 10
1181.7021014145
 20
1616.1943387038
 30
0.0
 11
1172.2184538042
 21
1616.1943387038
 31
0.0
  0
LINE
  5
1B2
330
1F
100
AcDbEntity
  8
0
  6
Continuous
 62
     7
370
    25
100
AcDbLine
 10
1180.7021014145
 20
1615.1943387038
 30
0.0
 11
1172.0806035869
 21
1615.1943387038
 31
0.0
  0
LINE
  5
1B3
330
1F
100
AcDbEntity
  8
0
  6
Continuous
 62
     7
370
    25
100
AcDbLine
 10
1225.4434482705
 20
1612.1943387057
 30
0.0
 11
1225.4434482705
 21
1596.1943387057
 31
0.0
  0
LINE
  5
1B4
330
1F
100
AcDbEntity
  8
0
  6
Continuous
 62
     7
370
    25
100
AcDbLine
 10
1224.9434482705
 20
1596.1943387057
 30
0.0
 11
1225.4434482705
 21
1596.1943387057
 31
0.0
  0
LINE
  5
1B5
330
1F
100
AcDbEntity
  8
0
  6
Continuous
 62
     7
370
    25
100
AcDbLine
 10
1224.9434482705
 20
1612.1943387057
 30
0.0
 11
1224.9434482705
 21
1596.1943387057
 31
0.0
  0
LINE
  5
1B6
330
1F
100
AcDbEntity
  8
0
  6
Continuous
 62
     7
370
    25
100
AcDbLine
 10
1225.4434482705
 20
1612.1943387057
 30
0.0
 11
1224.9434482705
 21
1612.1943387057
 31
0.0
  0
LINE
  5
1B7
330
1F
100
AcDbEntity
  8
0
  6
Continuous
 62
     7
370
    25
100
AcDbLine
 10
1207.443448271
 20
1596.1943387057
 30
0.0
 11
1224.9434482705
 21
1596.1943387057
 31
0.0
  0
LINE
  5
1B8
330
1F
100
AcDbEntity
  8
0
  6
Continuous
 62
     7
370
    25
100
AcDbLine
 10
1207.4434482711
 20
1612.1943387057
 30
0.0
 11
1207.443448271
 21
1596.1943387057
 31
0.0
  0
LINE
  5
1B9
330
1F
100
AcDbEntity
  8
0
  6
Continuous
 62
     7
370
    25
100
AcDbLine
 10
1224.9434482705
 20
1612.1943387057
 30
0.0
 11
1207.4434482711
 21
1612.1943387057
 31
0.0
  0
LINE
  5
1BA
330
1F
100
AcDbEntity
  8
0
  6
Continuous
 62
     7
370
    25
100
AcDbLine
 10
1206.9434482708
 20
1596.1943387057
 30
0.0
 11
1207.443448271
 21
1596.1943387057
 31
0.0
  0
LINE
  5
1BB
330
1F
100
AcDbEntity
  8
0
  6
Continuous
 62
     7
370
    25
100
AcDbLine
 10
1206.9434482711
 20
1612.1943387057
 30
0.0
 11
1206.9434482708
 21
1596.1943387057
 31
0.0
  0
LINE
  5
1BC
330
1F
100
AcDbEntity
  8
0
  6
Continuous
 62
     7
370
    25
100
AcDbLine
 10
1207.4434482711
 20
1612.1943387057
 30
0.0
 11
1206.9434482711
 21
1612.1943387057
 31
0.0
  0
LINE
  5
1BD
330
1F
100
AcDbEntity
  8
0
  6
Continuous
 62
     7
370
    25
100
AcDbLine
 10
1207.4434482711
 20
1612.6943387057
 30
0.0
 11
1207.4434482711
 21
1612.1943387057
 31
0.0
  0
LINE
  5
1BE
330
1F
100
AcDbEntity
  8
0
  6
Continuous
 62
     7
370
    25
100
AcDbLine
 10
1207.4434482711
 20
1612.6943387057
 30
0.0
 11
1224.9434482705
 21
1612.6943387057
 31
0.0
  0
LINE
  5
1BF
330
1F
100
AcDbEntity
  8
0
  6
Continuous
 62
     7
370
    25
100
AcDbLine
 10
1224.9434482705
 20
1612.6943387057
 30
0.0
 11
1224.9434482705
 21
1612.1943387057
 31
0.0
  0
ARC
  5
1C0
330
1F
100
AcDbEntity
  8
0
  6
Continuous
 62
     7
370
    25
100
AcDbCircle
 10
1224.9434482705
 20
1612.1943387057
 30
0.0
 40
0.5
100
AcDbArc
 50
0.0000000002
 51
90.0
  0
ARC
  5
1C1
330
1F
100
AcDbEntity
  8
0
  6
Continuous
 62
     7
370
    25
100
AcDbCircle
 10
1207.4434482711
 20
1612.1943387057
 30
0.0
 40
0.5000000000002274
100
AcDbArc
 50
90.0
 51
179.9999999989
  0
LINE
  5
1C2
330
1F
100
AcDbEntity
  8
0
  6
Continuous
 62
     7
370
    25
100
AcDbLine
 10
1207.443448271
 20
1596.1943387057
 30
0.0
 11
1207.4434482708
 21
1595.6943387057
 31
0.0
  0
ARC
  5
1C3
330
1F
100
AcDbEntity
  8
0
  6
Continuous
 62
     7
370
    25
100
AcDbCircle
 10
1207.4434482708
 20
1596.1943387057
 30
0.0
 40
0.5
100
AcDbArc
 50
179.9999999989
 51
270.0
  0
LINE
  5
1C4
330
1F
100
AcDbEntity
  8
0
  6
Continuous
 62
     7
370
    25
100
AcDbLine
 10
1224.9434482705
 20
1595.6943387057
 30
0.0
 11
1207.4434482708
 21
1595.6943387057
 31
0.0
  0
LINE
  5
1C5
330
1F
100
AcDbEntity
  8
0
  6
Continuous
 62
     7
370
    25
100
AcDbLine
 10
1224.9434482705
 20
1596.1943387057
 30
0.0
 11
1224.9434482705
 21
1595.6943387057
 31
0.0
  0
ARC
  5
1C6
330
1F
100
AcDbEntity
  8
0
  6
Continuous
 62
     7
370
    25
100
AcDbCircle
 10
1224.9434482705
 20
1596.1943387057
 30
0.0
 40
0.5
100
AcDbArc
 50
270.0
 51
0.0
  0
LINE
  5
1C7
330
1F
100
AcDbEntity
  8
0
  6
Continuous
 62
     7
370
    25
100
AcDbLine
 10
590.9434482699
 20
1612.1943387057
 30
0.0
 11
590.4434482699
 21
1612.1943387057
 31
0.0
  0
LINE
  5
1C8
330
1F
100
AcDbEntity
  8
0
  6
Continuous
 62
     7
370
    25
100
AcDbLine
 10
590.9434482702
 20
1596.1943387057
 30
0.0
 11
590.9434482699
 21
1612.1943387057
 31
0.0
  0
LINE
  5
1C9
330
1F
100
AcDbEntity
  8
0
  6
Continuous
 62
     7
370
    25
100
AcDbLine
 10
590.4434482702
 20
1596.1943387057
 30
0.0
 11
590.9434482702
 21
1596.1943387057
 31
0.0
  0
LINE
  5
1CA
330
1F
100
AcDbEntity
  8
0
  6
Continuous
 62
     7
370
    25
100
AcDbLine
 10
590.4434482702
 20
1596.1943387057
 30
0.0
 11
590.4434482699
 21
1612.1943387057
 31
0.0
  0
LINE
  5
1CB
330
1F
100
AcDbEntity
  8
0
  6
Continuous
 62
     7
370
    25
100
AcDbLine
 10
572.9434482705
 20
1596.1943387057
 30
0.0
 11
572.9434482705
 21
1612.1943387057
 31
0.0
  0
LINE
  5
1CC
330
1F
100
AcDbEntity
  8
0
  6
Continuous
 62
     7
370
    25
100
AcDbLine
 10
590.4434482699
 20
1612.1943387057
 30
0.0
 11
572.9434482705
 21
1612.1943387057
 31
0.0
  0
LINE
  5
1CD
330
1F
100
AcDbEntity
  8
0
  6
Continuous
 62
     7
370
    25
100
AcDbLine
 10
572.9434482705
 20
1596.1943387057
 30
0.0
 11
590.4434482702
 21
1596.1943387057
 31
0.0
  0
LINE
  5
1CE
330
1F
100
AcDbEntity
  8
0
  6
Continuous
 62
     7
370
    25
100
AcDbLine
 10
572.9434482705
 20
1596.1943387057
 30
0.0
 11
572.9434482705
 21
1595.6943387057
 31
0.0
  0
LINE
  5
1CF
330
1F
100
AcDbEntity
  8
0
  6
Continuous
 62
     7
370
    25
100
AcDbLine
 10
590.4434482702
 20
1595.6943387057
 30
0.0
 11
590.4434482702
 21
1596.1943387057
 31
0.0
  0
LINE
  5
1D0
330
1F
100
AcDbEntity
  8
0
  6
Continuous
 62
     7
370
    25
100
AcDbLine
 10
590.4434482702
 20
1595.6943387057
 30
0.0
 11
572.9434482705
 21
1595.6943387057
 31
0.0
  0
ARC
  5
1D1
330
1F
100
AcDbEntity
  8
0
  6
Continuous
 62
     7
370
    25
100
AcDbCircle
 10
572.9434482705
 20
1596.1943387057
 30
0.0
 40
0.5
100
AcDbArc
 50
180.0
 51
270.0
  0
LINE
  5
1D2
330
1F
100
AcDbEntity
  8
0
  6
Continuous
 62
     7
370
    25
100
AcDbLine
 10
572.4434482705
 20
1596.1943387057
 30
0.0
 11
572.9434482705
 21
1596.1943387057
 31
0.0
  0
LINE
  5
1D3
330
1F
100
AcDbEntity
  8
0
  6
Continuous
 62
     7
370
    25
100
AcDbLine
 10
572.9434482705
 20
1612.1943387057
 30
0.0
 11
572.4434482705
 21
1612.1943387057
 31
0.0
  0
ARC
  5
1D4
330
1F
100
AcDbEntity
  8
0
  6
Continuous
 62
     7
370
    25
100
AcDbCircle
 10
572.9434482705
 20
1612.1943387057
 30
0.0
 40
0.5
100
AcDbArc
 50
89.9999999939
 51
180.0
  0
LINE
  5
1D5
330
1F
100
AcDbEntity
  8
0
  6
Continuous
 62
     7
370
    25
100
AcDbLine
 10
572.9434482705
 20
1612.1943387057
 30
0.0
 11
572.9434482705
 21
1612.6943387057
 31
0.0
  0
LINE
  5
1D6
330
1F
100
AcDbEntity
  8
0
  6
Continuous
 62
     7
370
    25
100
AcDbLine
 10
572.9434482705
 20
1612.6943387057
 30
0.0
 11
590.4434482699
 21
1612.6943387057
 31
0.0
  0
LINE
  5
1D7
330
1F
100
AcDbEntity
  8
0
  6
Continuous
 62
     7
370
    25
100
AcDbLine
 10
590.4434482699
 20
1612.1943387057
 30
0.0
 11
590.4434482699
 21
1612.6943387057
 31
0.0
  0
LINE
  5
1D8
330
1F
100
AcDbEntity
  8
0
  6
Continuous
 62
     7
370
    25
100
AcDbLine
 10
572.4434482705
 20
1596.1943387057
 30
0.0
 11
572.4434482705
 21
1612.1943387057
 31
0.0
  0
ARC
  5
1D9
330
1F
100
AcDbEntity
  8
0
  6
Continuous
 62
     7
370
    25
100
AcDbCircle
 10
590.4434482699
 20
1612.1943387057
 30
0.0
 40
0.5000000000002274
100
AcDbArc
 50
0.000000003
 51
90.0
  0
ARC
  5
1DA
330
1F
100
AcDbEntity
  8
0
  6
Continuous
 62
     7
370
    25
100
AcDbCircle
 10
590.4434482702
 20
1596.1943387057
 30
0.0
 40
0.5000000000002274
100
AcDbArc
 50
270.0
 51
0.0000000011
  0
LINE
  5
1DB
330
1F
100
AcDbEntity
  8
0
  6
Continuous
 62
     7
370
    25
100
AcDbLine
 10
590.4434482699
 20
1612.6943387038
 30
0.0
 11
1207.4434482711
 21
1612.6943387038
 31
0.0
  0
LINE
  5
1DC
330
1F
100
AcDbEntity
  8
0
  6
Continuous
 62
     7
370
    25
100
AcDbLine
 10
1207.4434482708
 20
1595.6943387057
 30
0.0
 11
590.4434482702
 21
1595.6943387057
 31
0.0
  0
LINE
  5
1DD
330
1F
100
AcDbEntity
  8
0
  6
Continuous
 62
     7
370
    25
100
AcDbLine
 10
1468.4434482695
 20
1621.1943387039
 30
0.0
 11
1181.7021014145
 21
1621.1943387039
 31
0.0
  0
LINE
  5
1DE
330
1F
100
AcDbEntity
  8
0
  6
Continuous
 62
     7
370
    25
100
AcDbLine
 10
758.4434482696
 20
1621.1943387039
 30
0.0
 11
518.4434482695
 21
1621.1943387039
 31
0.0
  0
LINE
  5
1DF
330
1F
100
AcDbEntity
  8
0
  6
Continuous
 62
     7
370
    25
100
AcDbLine
 10
518.4434482695
 20
1326.1943387039
 30
0.0
 11
1468.4434482695
 21
1326.1943387039
 31
0.0
  0
LINE
  5
1E0
330
1F
100
AcDbEntity
  8
0
  6
Continuous
 62
     7
370
    25
100
AcDbLine
 10
518.4434482695
 20
1621.1943387039
 30
0.0
 11
518.4434482695
 21
1326.1943387039
 31
0.0
  0
LINE
  5
1E1
330
1F
100
AcDbEntity
  8
0
  6
Continuous
 62
     7
370
    25
100
AcDbLine
 10
1468.4434482695
 20
1326.1943387039
 30
0.0
 11
1468.4434482695
 21
1621.1943387039
 31
0.0
  0
LINE
  5
1E2
330
1F
100
AcDbEntity
  8
0
  6
Continuous
 62
     7
370
    25
100
AcDbLine
 10
1473.4434482695
 20
1326.1943387039
 30
0.0
 11
1468.4434482695
 21
1326.1943387039
 31
0.0
  0
LINE
  5
1E3
330
1F
100
AcDbEntity
  8
0
  6
Continuous
 62
     7
370
    25
100
AcDbLine
 10
518.4434482695
 20
1326.1943387039
 30
0.0
 11
513.4434482695
 21
1326.1943387039
 31
0.0
  0
LINE
  5
1E4
330
1F
100
AcDbEntity
  8
0
  6
Continuous
 62
     7
370
    25
100
AcDbLine
 10
1593.4434482695
 20
1826.1943387039
 30
0.0
 11
393.4434482695
 21
1826.1943387039
 31
0.0
  0
LINE
  5
1E5
330
1F
100
AcDbEntity
  8
0
  6
Continuous
 62
     7
370
    25
100
AcDbLine
 10
1593.4434482695
 20
1326.1943387039
 30
0.0
 11
1593.4434482695
 21
1826.1943387039
 31
0.0
  0
LINE
  5
1E6
330
1F
100
AcDbEntity
  8
0
  6
Continuous
 62
     7
370
    25
100
AcDbLine
 10
1473.4434482695
 20
1326.1943387039
 30
0.0
 11
1473.4434482695
 21
1626.1943387039
 31
0.0
  0
LINE
  5
1E7
330
1F
100
AcDbEntity
  8
0
  6
Continuous
 62
     7
370
    25
100
AcDbLine
 10
1473.4434482695
 20
1626.1943387039
 30
0.0
 11
788.4434482694
 21
1626.1943387039
 31
0.0
  0
LINE
  5
1E8
330
1F
100
AcDbEntity
  8
0
  6
Continuous
 62
     7
370
    25
100
AcDbLine
 10
758.4434482696
 20
1626.1943387039
 30
0.0
 11
513.4434482695
 21
1626.1943387039
 31
0.0
  0
LINE
  5
1E9
330
1F
100
AcDbEntity
  8
0
  6
Continuous
 62
     7
370
    25
100
AcDbLine
 10
393.4434482695
 20
1326.1943387039
 30
0.0
 11
513.4434482695
 21
1326.1943387039
 31
0.0
  0
LINE
  5
1EA
330
1F
100
AcDbEntity
  8
0
  6
Continuous
 62
     7
370
    25
100
AcDbLine
 10
1473.4434482695
 20
1326.1943387039
 30
0.0
 11
1593.4434482695
 21
1326.1943387039
 31
0.0
  0
LINE
  5
1EB
330
1F
100
AcDbEntity
  8
0
  6
Continuous
 62
     7
370
    25
100
AcDbLine
 10
393.4434482695
 20
1826.1943387039
 30
0.0
 11
393.4434482695
 21
1326.1943387039
 31
0.0
  0
LINE
  5
1EC
330
1F
100
AcDbEntity
  8
0
  6
Continuous
 62
     7
370
    25
100
AcDbLine
 10
513.4434482695
 20
1626.1943387039
 30
0.0
 11
513.4434482695
 21
1326.1943387039
 31
0.0
  0
LINE
  5
1ED
330
1F
100
AcDbEntity
  8
0
  6
Continuous
 62
     7
370
    25
100
AcDbLine
 10
775.1965732695
 20
1625.194338704
 30
0.0
 11
788.4434482694
 21
1625.194338704
 31
0.0
  0
LINE
  5
1EE
330
1F
100
AcDbEntity
  8
0
  6
Continuous
 62
     7
370
    25
100
AcDbLine
 10
771.1401418785
 20
1637.9383227349
 30
0.0
 11
771.0852671636
 21
1637.0379042389
 31
0.0
  0
LINE
  5
1EF
330
1F
100
AcDbEntity
  8
0
  6
Continuous
 62
     7
370
    25
100
AcDbLine
 10
770.5476246026
 20
1637.0379042389
 30
0.0
 11
770.6024993157
 21
1637.9383227349
 31
0.0
  0
LINE
  5
1F0
330
1F
100
AcDbEntity
  8
0
  6
Continuous
 62
     7
370
    25
100
AcDbLine
 10
768.9076574552
 20
1637.9383227349
 30
0.0
 11
768.8120117814
 21
1637.0379042389
 31
0.0
  0
LINE
  5
1F1
330
1F
100
AcDbEntity
  8
0
  6
Continuous
 62
     7
370
    25
100
AcDbLine
 10
774.189281364
 20
1637.0379042389
 30
0.0
 11
774.1712402563
 21
1637.9383227349
 31
0.0
  0
LINE
  5
1F2
330
1F
100
AcDbEntity
  8
0
  6
Continuous
 62
     7
370
    25
100
AcDbLine
 10
777.911719739
 20
1637.0379042389
 30
0.0
 11
777.8132899336
 21
1637.9383227349
 31
0.0
  0
LINE
  5
1F3
330
1F
100
AcDbEntity
  8
0
  6
Continuous
 62
     7
370
    25
100
AcDbLine
 10
774.4715455231
 20
1637.9383227349
 30
0.0
 11
774.4895866308
 21
1637.0379042389
 31
0.0
  0
LINE
  5
1F4
330
1F
100
AcDbEntity
  8
0
  6
Continuous
 62
     7
370
    25
100
AcDbLine
 10
778.3009536379
 20
1637.9383227349
 30
0.0
 11
778.3993834397
 21
1637.0379042389
 31
0.0
  0
LINE
  5
1F5
330
1F
100
AcDbEntity
  8
0
  6
Continuous
 62
     7
370
    25
100
AcDbLine
 10
779.3669893471
 20
1637.0379042389
 30
0.0
 11
779.2458296941
 21
1637.9383227349
 31
0.0
  0
LINE
  5
1F6
330
1F
100
AcDbEntity
  8
0
  6
Continuous
 62
     7
370
    25
100
AcDbLine
 10
768.5746744694
 20
1637.0379042389
 30
0.0
 11
768.6703201432
 21
1637.9383227349
 31
0.0
  0
LINE
  5
1F7
330
1F
100
AcDbEntity
  8
0
  6
Continuous
 62
     7
370
    25
100
AcDbLine
 10
765.3285757647
 20
1637.9383227349
 30
0.0
 11
765.1525413968
 21
1637.0379042389
 31
0.0
  0
LINE
  5
1F8
330
1F
100
AcDbEntity
  8
0
  6
Continuous
 62
     7
370
    25
100
AcDbLine
 10
779.4331881633
 20
1637.9383227349
 30
0.0
 11
779.5543478162
 21
1637.0379042389
 31
0.0
  0
LINE
  5
1F9
330
1F
100
AcDbEntity
  8
0
  6
Continuous
 62
     7
370
    25
100
AcDbLine
 10
782.6583620489
 20
1637.0379042389
 30
0.0
 11
782.4642865701
 21
1637.9383227349
 31
0.0
  0
LINE
  5
1FA
330
1F
100
AcDbEntity
  8
0
  6
Continuous
 62
     7
370
    25
100
AcDbLine
 10
764.0765164316
 20
1637.0379042389
 30
0.0
 11
764.8646951806
 21
1637.0379042389
 31
0.0
  0
LINE
  5
1FB
330
1F
100
AcDbEntity
  8
0
  6
Continuous
 62
     7
370
    25
100
AcDbLine
 10
764.2705919072
 20
1637.9383227349
 30
0.0
 11
764.0765164316
 21
1637.0379042389
 31
0.0
  0
LWPOLYLINE
  5
1FC
330
1F
100
AcDbEntity
  8
0
  6
Continuous
 62
     7
370
    25
100
AcDbPolyline
 90
        3
 70
   128
 43
0.0
 10
764.0160137035
 20
1636.9845970349
 10
764.0194679315
 20
1636.9930195832
 10
764.0765164316
 20
1637.0379042389
  0
LINE
  5
1FD
330
1F
100
AcDbEntity
  8
0
  6
Continuous
 62
     7
370
    25
100
AcDbLine
 10
1206.9434482711
 20
1612.1943387038
 30
0.0
 11
590.9434482699
 21
1612.1943387038
 31
0.0
  0
LINE
  5
1FE
330
1F
100
AcDbEntity
  8
0
  6
Continuous
 62
     7
370
    25
100
AcDbLine
 10
1206.9434482708
 20
1596.1943387057
 30
0.0
 11
590.9434482702
 21
1596.1943387057
 31
0.0
  0
DIMENSION
  5
1FF
330
1F
100
AcDbEntity
  8
FORMAT
100
AcDbDimension
  2
_D
 10
1225.4434482705
 20
1469.426455388
 30
0.0
 11
898.9434482705
 21
1469.426455388
 31
0.0
 70
   160
  1
<>
 71
     2
 42
-1.0
  3
SLDDIMSTYLE0
100
AcDbAlignedDimension
 13
572.4434482705
 23
1596.1943387057
 33
0.0
 14
1225.4434482705
 24
1596.1943387057
 34
0.0
 50
0.0
100
AcDbRotatedDimension
  0
DIMENSION
  5
20A
330
1F
100
AcDbEntity
  8
FORMAT
100
AcDbDimension
  2
_D_1
 10
1262.8433403325
 20
1612.6943387057
 30
0.0
 11
1262.8433403325
 21
1560.1125766093
 31
0.0
 70
   160
  1
<>
 71
     2
 42
-1.0
  3
SLDDIMSTYLE1
100
AcDbAlignedDimension
 13
1224.9434482705
 23
1595.6943387057
 33
0.0
 14
1224.9434482705
 24
1612.6943387057
 34
0.0
 50
90.0
100
AcDbRotatedDimension
  0
DIMENSION
  5
217
330
1F
100
AcDbEntity
  8
FORMAT
100
AcDbDimension
  2
_D_2
 10
462.4728040067
 20
1752.6943387039
 30
0.0
 11
462.4728040067
 21
1705.1943387039
 31
0.0
 70
   160
  1
<>
 71
     2
 42
-1.0
  3
SLDDIMSTYLE0
100
AcDbAlignedDimension
 13
503.4434482695
 23
1657.6943387039
 33
0.0
 14
503.4434482695
 24
1752.6943387039
 34
0.0
 50
90.0
100
AcDbRotatedDimension
  0
DIMENSION
  5
221
330
1F
100
AcDbEntity
  8
FORMAT
100
AcDbDimension
  2
_D_3
 10
1182.9434482695
 20
1790.1570806383
 30
0.0
 11
838.4434482695
 21
1790.1570806383
 31
0.0
 70
   160
  1
<>
 71
     2
 42
-1.0
  3
SLDDIMSTYLE0
100
AcDbAlignedDimension
 13
493.9434482695
 23
1747.6943387039
 33
0.0
 14
1182.9434482695
 24
1747.6943387038
 34
0.0
 50
0.0
100
AcDbRotatedDimension
  0
DIMENSION
  5
22B
330
1F
100
AcDbEntity
  8
FORMAT
100
AcDbDimension
  2
_D_4
 10
773.4434482695
 20
1411.8900889001
 30
0.0
 11
633.4434482695
 21
1411.8900889001
 31
0.0
 70
   160
  1
<>
 71
     2
 42
-1.0
  3
SLDDIMSTYLE0
100
AcDbAlignedDimension
 13
493.4434482695
 23
1388.3093586604
 33
0.0
 14
773.4434482695
 24
1606.1497405272
 34
0.0
100
AcDbRotatedDimension
  0
LINE
  5
234
330
1F
100
AcDbEntity
  8
0
  6
CENTER
 62
     7
370
    18
100
AcDbLine
 10
614.3268854323
 20
1886.1943387039
 30
0.0
 11
614.3268854323
 21
1266.1943387039
 31
0.0
  0
LINE
  5
235
330
1F
100
AcDbEntity
  8
0
  6
Continuous
 62
     7
370
    18
100
AcDbLine
 10
525.4268854323
 20
1872.1943387039
 30
0.0
 11
614.3268854323
 21
1872.1943387039
 31
0.0
  0
SOLID
  5
236
330
1F
100
AcDbEntity
  8
0
  6
Continuous
 62
     7
370
    18
100
AcDbTrace
 10
614.3268854323
 20
1872.1943387039
 30
0.0
 11
569.8768854323
 21
1879.3063387039
 31
0.0
 12
569.8768854323
 22
1865.0823387039
 32
0.0
 13
569.8768854323
 23
1865.0823387039
 33
0.0
  0
LINE
  5
237
330
1F
100
AcDbEntity
  8
0
  6
Continuous
 62
     7
370
    18
100
AcDbLine
 10
525.4268854323
 20
1280.1943387039
 30
0.0
 11
614.3268854323
 21
1280.1943387039
 31
0.0
  0
SOLID
  5
238
330
1F
100
AcDbEntity
  8
0
  6
Continuous
 62
     7
370
    18
100
AcDbTrace
 10
614.3268854323
 20
1280.1943387039
 30
0.0
 11
569.8768854323
 21
1287.3063387039
 31
0.0
 12
569.8768854323
 22
1273.0823387039
 32
0.0
 13
569.8768854323
 23
1273.0823387039
 33
0.0
  0
MTEXT
  5
239
330
1F
100
AcDbEntity
  8
0
  6
Continuous
 62
     7
100
AcDbMText
 10
525.4268854323
 20
1925.8982873084
 30
0.0
 40
35.0
 41
0.0
 71
     1
 72
     1
  1
A
  7
SLDTEXTSTYLE0
 73
     1
 44
1.0
  0
MTEXT
  5
23A
330
1F
100
AcDbEntity
  8
0
  6
Continuous
 62
     7
100
AcDbMText
 10
525.4268854323
 20
1262.3109238186
 30
0.0
 40
35.0
 41
0.0
 71
     1
 72
     1
  1
A
  7
SLDTEXTSTYLE0
 73
     1
 44
1.0
  0
LINE
  5
23B
330
1F
100
AcDbEntity
  8
FORMAT
  6
CENTERX2
370
    18
100
AcDbLine
 10
773.4434482695
 20
1677.9383227349
 30
0.0
 11
773.4434482695
 21
1606.1497405272
 31
0.0
  0
LINE
  5
23C
330
1F
100
AcDbEntity
  8
FORMAT
  6
CENTERX2
370
    18
100
AcDbLine
 10
493.4434482695
 20
1495.1943387039
 30
0.0
 11
493.4434482695
 21
1388.3093586604
 31
0.0
  0
ARC
  5
23D
330
1F
100
AcDbEntity
  8
0
  6
Continuous
 62
     7
370
    25
100
AcDbCircle
 10
1162.9434482695
 20
911.1839350023
 30
0.0
 40
2.000000000000143
100
AcDbArc
 50
14.4775121862
 51
165.5224878124
  0
ARC
  5
23E
330
1F
100
AcDbEntity
  8
0
  6
Continuous
 62
     7
370
    25
100
AcDbCircle
 10
1143.4434482695
 20
911.1839350023
 30
0.0
 40
3.250000000000625
100
AcDbArc
 50
8.8498831004
 51
171.1501169005
  0
ARC
  5
23F
330
1F
100
AcDbEntity
  8
0
  6
Continuous
 62
     7
370
    25
100
AcDbCircle
 10
917.4434482695
 20
911.1839350024
 30
0.0
 40
3.249999999996337
100
AcDbArc
 50
8.8498830993
 51
171.1501169007
  0
ARC
  5
240
330
1F
100
AcDbEntity
  8
0
  6
Continuous
 62
     7
370
    25
100
AcDbCircle
 10
850.4434482695
 20
911.1839350024
 30
0.0
 40
3.000000000000321
100
AcDbArc
 50
9.5940682278
 51
170.4059317722
  0
ARC
  5
241
330
1F
100
AcDbEntity
  8
0
  6
Continuous
 62
     7
370
    25
100
AcDbCircle
 10
726.4434482695
 20
911.1839350023
 30
0.0
 40
3.000000000000363
100
AcDbArc
 50
9.594068228
 51
170.4059317719
  0
ARC
  5
242
330
1F
100
AcDbEntity
  8
0
  6
Continuous
 62
     7
370
    25
100
AcDbCircle
 10
710.4434482695
 20
911.1839350024
 30
0.0
 40
3.249999999996409
100
AcDbArc
 50
8.8498830994
 51
171.1501169005
  0
ARC
  5
243
330
1F
100
AcDbEntity
  8
0
  6
Continuous
 62
     7
370
    25
100
AcDbCircle
 10
543.4434482695
 20
911.1839350024
 30
0.0
 40
2.000000000000544
100
AcDbArc
 50
14.4775121877
 51
165.5224878124
  0
ARC
  5
244
330
1F
100
AcDbEntity
  8
0
  6
Continuous
 62
     7
370
    25
100
AcDbCircle
 10
513.9434482695
 20
911.1839350024
 30
0.0
 40
2.000000000000624
100
AcDbArc
 50
14.4775121876
 51
165.5224878126
  0
LINE
  5
245
330
1F
100
AcDbEntity
  8
0
  6
Continuous
 62
     7
370
    25
100
AcDbLine
 10
1173.4434482695
 20
917.6839350024
 30
0.0
 11
1173.4434482695
 21
911.6839350024
 31
0.0
  0
LINE
  5
246
330
1F
100
AcDbEntity
  8
0
  6
Continuous
 62
     7
370
    25
100
AcDbLine
 10
503.4434482695
 20
911.6839350024
 30
0.0
 11
503.4434482695
 21
917.6839350024
 31
0.0
  0
ARC
  5
247
330
1F
100
AcDbEntity
  8
0
  6
Continuous
 62
     7
370
    25
100
AcDbCircle
 10
513.9434482695
 20
911.1839350024
 30
0.0
 40
2.000000000000766
100
AcDbArc
 50
165.5224878126
 51
180.0000000001
  0
LINE
  5
248
330
1F
100
AcDbEntity
  8
0
  6
Continuous
 62
     7
370
    25
100
AcDbLine
 10
503.4434482695
 20
911.6839350024
 30
0.0
 11
503.4434482695
 21
911.1839350024
 31
0.0
  0
ARC
  5
249
330
1F
100
AcDbEntity
  8
0
  6
Continuous
 62
     7
370
    25
100
AcDbCircle
 10
513.9434482695
 20
911.1839350024
 30
0.0
 40
2.000000000000057
100
AcDbArc
 50
180.0000000001
 51
194.4775121861
  0
LINE
  5
24A
330
1F
100
AcDbEntity
  8
0
  6
Continuous
 62
     7
370
    25
100
AcDbLine
 10
503.4434482695
 20
911.1839350024
 30
0.0
 11
503.4434482695
 21
910.6839350024
 31
0.0
  0
ARC
  5
24B
330
1F
100
AcDbEntity
  8
0
  6
Continuous
 62
     7
370
    25
100
AcDbCircle
 10
710.4434482695
 20
835.1839350024
 30
0.0
 40
3.249999999996315
100
AcDbArc
 50
8.8498830984
 51
171.1501169016
  0
ARC
  5
24C
330
1F
100
AcDbEntity
  8
0
  6
Continuous
 62
     7
370
    25
100
AcDbCircle
 10
543.4434482695
 20
835.1839350023
 30
0.0
 40
1.999999999999976
100
AcDbArc
 50
14.4775121861
 51
165.5224878138
  0
ARC
  5
24D
330
1F
100
AcDbEntity
  8
0
  6
Continuous
 62
     7
370
    25
100
AcDbCircle
 10
513.9434482695
 20
835.1839350023
 30
0.0
 40
1.999999999999976
100
AcDbArc
 50
14.4775121862
 51
165.5224878138
  0
LINE
  5
24E
330
1F
100
AcDbEntity
  8
0
  6
Continuous
 62
     7
370
    25
100
AcDbLine
 10
503.4434482695
 20
835.6839350024
 30
0.0
 11
503.4434482695
 21
845.3839350024
 31
0.0
  0
ARC
  5
24F
330
1F
100
AcDbEntity
  8
0
  6
Continuous
 62
     7
370
    25
100
AcDbCircle
 10
1162.9434482695
 20
835.1839350023
 30
0.0
 40
2.000000000000803
100
AcDbArc
 50
14.4775121862
 51
165.5224878136
  0
ARC
  5
250
330
1F
100
AcDbEntity
  8
0
  6
Continuous
 62
     7
370
    25
100
AcDbCircle
 10
1143.4434482695
 20
835.1839350023
 30
0.0
 40
3.250000000000214
100
AcDbArc
 50
8.8498830987
 51
171.1501169013
  0
ARC
  5
251
330
1F
100
AcDbEntity
  8
0
  6
Continuous
 62
     7
370
    25
100
AcDbCircle
 10
917.4434482695
 20
835.1839350024
 30
0.0
 40
3.249999999995944
100
AcDbArc
 50
8.8498830985
 51
171.1501169015
  0
ARC
  5
252
330
1F
100
AcDbEntity
  8
0
  6
Continuous
 62
     7
370
    25
100
AcDbCircle
 10
850.4434482695
 20
835.1839350024
 30
0.0
 40
3.000000000000055
100
AcDbArc
 50
9.5940682269
 51
170.4059317731
  0
ARC
  5
253
330
1F
100
AcDbEntity
  8
0
  6
Continuous
 62
     7
370
    25
100
AcDbCircle
 10
726.4434482695
 20
835.1839350023
 30
0.0
 40
3.000000000000415
100
AcDbArc
 50
9.5940682272
 51
170.4059317729
  0
LINE
  5
254
330
1F
100
AcDbEntity
  8
0
  6
Continuous
 62
     7
370
    25
100
AcDbLine
 10
1173.4434482695
 20
845.3839350024
 30
0.0
 11
1173.4434482695
 21
835.6839350024
 31
0.0
  0
ARC
  5
255
330
1F
100
AcDbEntity
  8
0
  6
Continuous
 62
     7
370
    25
100
AcDbCircle
 10
513.9434482695
 20
911.1839350024
 30
0.0
 40
2.000000000000021
100
AcDbArc
 50
194.4775121861
 51
345.5224878139
  0
ARC
  5
256
330
1F
100
AcDbEntity
  8
0
  6
Continuous
 62
     7
370
    25
100
AcDbCircle
 10
543.4434482695
 20
911.1839350024
 30
0.0
 40
2.000000000000148
100
AcDbArc
 50
194.4775121861
 51
345.5224878141
  0
ARC
  5
257
330
1F
100
AcDbEntity
  8
0
  6
Continuous
 62
     7
370
    25
100
AcDbCircle
 10
710.4434482695
 20
911.1839350024
 30
0.0
 40
3.249999999996031
100
AcDbArc
 50
188.8498830984
 51
351.1501169016
  0
ARC
  5
258
330
1F
100
AcDbEntity
  8
0
  6
Continuous
 62
     7
370
    25
100
AcDbCircle
 10
726.4434482695
 20
911.1839350023
 30
0.0
 40
3.000000000000107
100
AcDbArc
 50
189.5940682267
 51
350.4059317733
  0
ARC
  5
259
330
1F
100
AcDbEntity
  8
0
  6
Continuous
 62
     7
370
    25
100
AcDbCircle
 10
850.4434482695
 20
911.1839350024
 30
0.0
 40
3.000000000000149
100
AcDbArc
 50
189.5940682269
 51
350.4059317731
  0
ARC
  5
25A
330
1F
100
AcDbEntity
  8
0
  6
Continuous
 62
     7
370
    25
100
AcDbCircle
 10
917.4434482695
 20
911.1839350024
 30
0.0
 40
3.249999999996031
100
AcDbArc
 50
188.8498830984
 51
351.1501169016
  0
ARC
  5
25B
330
1F
100
AcDbEntity
  8
0
  6
Continuous
 62
     7
370
    25
100
AcDbCircle
 10
1143.4434482695
 20
911.1839350023
 30
0.0
 40
3.250000000000393
100
AcDbArc
 50
188.8498830983
 51
351.1501169018
  0
ARC
  5
25C
330
1F
100
AcDbEntity
  8
0
  6
Continuous
 62
     7
370
    25
100
AcDbCircle
 10
1162.9434482695
 20
911.1839350023
 30
0.0
 40
2.000000000000204
100
AcDbArc
 50
194.4775121856
 51
345.5224878144
  0
LINE
  5
25D
330
1F
100
AcDbEntity
  8
0
  6
Continuous
 62
     7
370
    25
100
AcDbLine
 10
1173.4434482695
 20
910.6839350024
 30
0.0
 11
1173.4434482695
 21
899.1839350024
 31
0.0
  0
LINE
  5
25E
330
1F
100
AcDbEntity
  8
0
  6
Continuous
 62
     7
370
    25
100
AcDbLine
 10
503.4434482695
 20
899.1839350024
 30
0.0
 11
503.4434482695
 21
910.6839350024
 31
0.0
  0
ARC
  5
25F
330
1F
100
AcDbEntity
  8
0
  6
Continuous
 62
     7
370
    25
100
AcDbCircle
 10
1162.9434482695
 20
835.1839350023
 30
0.0
 40
2.00000000000086
100
AcDbArc
 50
0.0000000001
 51
14.4775121862
  0
LINE
  5
260
330
1F
100
AcDbEntity
  8
0
  6
Continuous
 62
     7
370
    25
100
AcDbLine
 10
1173.4434482695
 20
835.1839350023
 30
0.0
 11
1173.4434482695
 21
835.6839350024
 31
0.0
  0
ARC
  5
261
330
1F
100
AcDbEntity
  8
0
  6
Continuous
 62
     7
370
    25
100
AcDbCircle
 10
1162.9434482695
 20
911.1839350023
 30
0.0
 40
2.000000000000119
100
AcDbArc
 50
345.5224878144
 51
0.0000000003
  0
LINE
  5
262
330
1F
100
AcDbEntity
  8
0
  6
Continuous
 62
     7
370
    25
100
AcDbLine
 10
1173.4434482695
 20
910.6839350024
 30
0.0
 11
1173.4434482695
 21
911.1839350024
 31
0.0
  0
ARC
  5
263
330
1F
100
AcDbEntity
  8
0
  6
Continuous
 62
     7
370
    25
100
AcDbCircle
 10
1162.9434482695
 20
911.1839350023
 30
0.0
 40
2.000000000000228
100
AcDbArc
 50
0.0000000003
 51
14.4775121862
  0
LINE
  5
264
330
1F
100
AcDbEntity
  8
0
  6
Continuous
 62
     7
370
    25
100
AcDbLine
 10
1173.4434482695
 20
911.1839350024
 30
0.0
 11
1173.4434482695
 21
911.6839350024
 31
0.0
  0
LINE
  5
265
330
1F
100
AcDbEntity
  8
0
  6
Continuous
 62
     7
370
    25
100
AcDbLine
 10
1173.4434482695
 20
899.1839350024
 30
0.0
 11
1173.4434482695
 21
898.6839350024
 31
0.0
  0
LINE
  5
266
330
1F
100
AcDbEntity
  8
0
  6
Continuous
 62
     7
370
    25
100
AcDbLine
 10
503.4434482695
 20
898.6839350024
 30
0.0
 11
503.4434482695
 21
899.1839350024
 31
0.0
  0
ARC
  5
267
330
1F
100
AcDbEntity
  8
0
  6
Continuous
 62
     7
370
    25
100
AcDbCircle
 10
513.9434482695
 20
835.1839350023
 30
0.0
 40
1.999999999999943
100
AcDbArc
 50
179.9999999998
 51
194.4775121859
  0
LINE
  5
268
330
1F
100
AcDbEntity
  8
0
  6
Continuous
 62
     7
370
    25
100
AcDbLine
 10
503.4434482695
 20
835.1839350023
 30
0.0
 11
503.4434482695
 21
834.6839350023
 31
0.0
  0
ARC
  5
269
330
1F
100
AcDbEntity
  8
0
  6
Continuous
 62
     7
370
    25
100
AcDbCircle
 10
917.4434482695
 20
835.1839350024
 30
0.0
 40
3.249999999995961
100
AcDbArc
 50
188.8498830984
 51
351.1501169016
  0
ARC
  5
26A
330
1F
100
AcDbEntity
  8
0
  6
Continuous
 62
     7
370
    25
100
AcDbCircle
 10
1143.4434482695
 20
835.1839350023
 30
0.0
 40
3.25000000000015
100
AcDbArc
 50
188.8498830982
 51
351.1501169018
  0
ARC
  5
26B
330
1F
100
AcDbEntity
  8
0
  6
Continuous
 62
     7
370
    25
100
AcDbCircle
 10
1162.9434482695
 20
835.1839350023
 30
0.0
 40
2.000000000000119
100
AcDbArc
 50
194.4775121873
 51
345.5224878127
  0
ARC
  5
26C
330
1F
100
AcDbEntity
  8
0
  6
Continuous
 62
     7
370
    25
100
AcDbCircle
 10
513.9434482695
 20
835.1839350023
 30
0.0
 40
2.000000000000134
100
AcDbArc
 50
194.4775121859
 51
345.5224878142
  0
ARC
  5
26D
330
1F
100
AcDbEntity
  8
0
  6
Continuous
 62
     7
370
    25
100
AcDbCircle
 10
543.4434482695
 20
835.1839350023
 30
0.0
 40
2.000000000000134
100
AcDbArc
 50
194.4775121858
 51
345.5224878144
  0
ARC
  5
26E
330
1F
100
AcDbEntity
  8
0
  6
Continuous
 62
     7
370
    25
100
AcDbCircle
 10
710.4434482695
 20
835.1839350024
 30
0.0
 40
3.249999999995961
100
AcDbArc
 50
188.8498830984
 51
351.1501169015
  0
ARC
  5
26F
330
1F
100
AcDbEntity
  8
0
  6
Continuous
 62
     7
370
    25
100
AcDbCircle
 10
726.4434482695
 20
835.1839350023
 30
0.0
 40
3.000000000000126
100
AcDbArc
 50
189.5940682268
 51
350.4059317733
  0
ARC
  5
270
330
1F
100
AcDbEntity
  8
0
  6
Continuous
 62
     7
370
    25
100
AcDbCircle
 10
850.4434482695
 20
835.1839350024
 30
0.0
 40
3.000000000000111
100
AcDbArc
 50
189.5940682269
 51
350.4059317731
  0
LINE
  5
271
330
1F
100
AcDbEntity
  8
0
  6
Continuous
 62
     7
370
    25
100
AcDbLine
 10
503.4434482695
 20
828.6839350023
 30
0.0
 11
503.4434482695
 21
834.6839350023
 31
0.0
  0
LINE
  5
272
330
1F
100
AcDbEntity
  8
0
  6
Continuous
 62
     7
370
    25
100
AcDbLine
 10
1173.4434482695
 20
834.6839350024
 30
0.0
 11
1173.4434482695
 21
828.6839350023
 31
0.0
  0
ARC
  5
273
330
1F
100
AcDbEntity
  8
0
  6
Continuous
 62
     7
370
    25
100
AcDbCircle
 10
513.9434482695
 20
835.1839350023
 30
0.0
 40
1.999999999999943
100
AcDbArc
 50
165.5224878138
 51
179.9999999998
  0
LINE
  5
274
330
1F
100
AcDbEntity
  8
0
  6
Continuous
 62
     7
370
    25
100
AcDbLine
 10
503.4434482695
 20
835.6839350024
 30
0.0
 11
503.4434482695
 21
835.1839350024
 31
0.0
  0
ARC
  5
275
330
1F
100
AcDbEntity
  8
0
  6
Continuous
 62
     7
370
    25
100
AcDbCircle
 10
1162.9434482695
 20
835.1839350023
 30
0.0
 40
2.000000000000062
100
AcDbArc
 50
345.5224878127
 51
0.0000000001
  0
LINE
  5
276
330
1F
100
AcDbEntity
  8
0
  6
Continuous
 62
     7
370
    25
100
AcDbLine
 10
1173.4434482695
 20
834.6839350024
 30
0.0
 11
1173.4434482695
 21
835.1839350024
 31
0.0
  0
LINE
  5
277
330
1F
100
AcDbEntity
  8
0
  6
Continuous
 62
     7
370
    25
100
AcDbLine
 10
1173.4434482695
 20
918.6839350024
 30
0.0
 11
503.4434482695
 21
918.6839350024
 31
0.0
  0
LINE
  5
278
330
1F
100
AcDbEntity
  8
0
  6
Continuous
 62
     7
370
    25
100
AcDbLine
 10
1173.4434482695
 20
917.6839350024
 30
0.0
 11
1173.4434482695
 21
918.6839350024
 31
0.0
  0
LINE
  5
279
330
1F
100
AcDbEntity
  8
0
  6
Continuous
 62
     7
370
    25
100
AcDbLine
 10
503.4434482695
 20
918.6839350024
 30
0.0
 11
503.4434482695
 21
917.6839350024
 31
0.0
  0
LINE
  5
27A
330
1F
100
AcDbEntity
  8
0
  6
Continuous
 62
     7
370
    25
100
AcDbLine
 10
503.4434482695
 20
827.6839350024
 30
0.0
 11
1173.4434482695
 21
827.6839350024
 31
0.0
  0
LINE
  5
27B
330
1F
100
AcDbEntity
  8
0
  6
Continuous
 62
     7
370
    25
100
AcDbLine
 10
503.4434482695
 20
828.6839350023
 30
0.0
 11
503.4434482695
 21
827.6839350024
 31
0.0
  0
LINE
  5
27C
330
1F
100
AcDbEntity
  8
0
  6
Continuous
 62
     7
370
    25
100
AcDbLine
 10
1173.4434482695
 20
827.6839350024
 30
0.0
 11
1173.4434482695
 21
828.6839350023
 31
0.0
  0
ARC
  5
27D
330
1F
100
AcDbEntity
  8
0
  6
Continuous
 62
     7
370
    25
100
AcDbCircle
 10
1162.9434482695
 20
911.1839350023
 30
0.0
 40
2.000000000000007
100
AcDbArc
 50
165.5224878124
 51
179.9999999991
  0
ARC
  5
27E
330
1F
100
AcDbEntity
  8
0
  6
Continuous
 62
     7
370
    25
100
AcDbCircle
 10
1143.4434482695
 20
911.1839350023
 30
0.0
 40
3.25
100
AcDbArc
 50
0.0000000005
 51
8.8498831004
  0
ARC
  5
27F
330
1F
100
AcDbEntity
  8
0
  6
Continuous
 62
     7
370
    25
100
AcDbCircle
 10
850.4434482695
 20
911.1839350024
 30
0.0
 40
3.000000000000415
100
AcDbArc
 50
170.4059317722
 51
180.0000000001
  0
ARC
  5
280
330
1F
100
AcDbEntity
  8
0
  6
Continuous
 62
     7
370
    25
100
AcDbCircle
 10
726.4434482695
 20
911.1839350023
 30
0.0
 40
3.00000000000042
100
AcDbArc
 50
0.0000000001
 51
9.594068228
  0
ARC
  5
281
330
1F
100
AcDbEntity
  8
0
  6
Continuous
 62
     7
370
    25
100
AcDbCircle
 10
543.4434482695
 20
911.1839350024
 30
0.0
 40
2.000000000000092
100
AcDbArc
 50
165.5224878124
 51
180.0000000001
  0
ARC
  5
282
330
1F
100
AcDbEntity
  8
0
  6
Continuous
 62
     7
370
    25
100
AcDbCircle
 10
513.9434482695
 20
911.1839350024
 30
0.0
 40
2.0
100
AcDbArc
 50
359.9999999999
 51
14.4775121876
  0
LINE
  5
283
330
1F
100
AcDbEntity
  8
0
  6
Continuous
 62
     7
370
    25
100
AcDbLine
 10
1140.1934482695
 20
911.1839350024
 30
0.0
 11
920.6934482695
 21
911.1839350024
 31
0.0
  0
ARC
  5
284
330
1F
100
AcDbEntity
  8
0
  6
Continuous
 62
     7
370
    25
100
AcDbCircle
 10
917.4434482695
 20
911.1839350024
 30
0.0
 40
3.249999999996102
100
AcDbArc
 50
359.9999999999
 51
8.8498830993
  0
ARC
  5
285
330
1F
100
AcDbEntity
  8
0
  6
Continuous
 62
     7
370
    25
100
AcDbCircle
 10
1143.4434482695
 20
911.1839350023
 30
0.0
 40
3.250000000000555
100
AcDbArc
 50
171.1501169005
 51
179.9999999999
  0
ARC
  5
286
330
1F
100
AcDbEntity
  8
0
  6
Continuous
 62
     7
370
    25
100
AcDbCircle
 10
710.4434482695
 20
911.1839350024
 30
0.0
 40
3.249999999995907
100
AcDbArc
 50
359.9999999999
 51
8.8498830994
  0
ARC
  5
287
330
1F
100
AcDbEntity
  8
0
  6
Continuous
 62
     7
370
    25
100
AcDbCircle
 10
726.4434482695
 20
911.1839350023
 30
0.0
 40
3.000000000000114
100
AcDbArc
 50
170.4059317719
 51
179.9999999999
  0
ARC
  5
288
330
1F
100
AcDbEntity
  8
0
  6
Continuous
 62
     7
370
    25
100
AcDbCircle
 10
917.4434482695
 20
911.1839350024
 30
0.0
 40
3.249999999996215
100
AcDbArc
 50
171.1501169007
 51
180.0000000001
  0
ARC
  5
289
330
1F
100
AcDbEntity
  8
0
  6
Continuous
 62
     7
370
    25
100
AcDbCircle
 10
850.4434482695
 20
911.1839350024
 30
0.0
 40
3.000000000000415
100
AcDbArc
 50
360.0
 51
9.5940682278
  0
ARC
  5
28A
330
1F
100
AcDbEntity
  8
0
  6
Continuous
 62
     7
370
    25
100
AcDbCircle
 10
543.4434482695
 20
911.1839350024
 30
0.0
 40
2.000000000000686
100
AcDbArc
 50
0.0
 51
14.4775121877
  0
ARC
  5
28B
330
1F
100
AcDbEntity
  8
0
  6
Continuous
 62
     7
370
    25
100
AcDbCircle
 10
710.4434482695
 20
911.1839350024
 30
0.0
 40
3.249999999996286
100
AcDbArc
 50
171.1501169005
 51
180.0
  0
ARC
  5
28C
330
1F
100
AcDbEntity
  8
0
  6
Continuous
 62
     7
370
    25
100
AcDbCircle
 10
1143.4434482695
 20
835.1839350023
 30
0.0
 40
3.25
100
AcDbArc
 50
351.1501169017
 51
0.0000000002
  0
ARC
  5
28D
330
1F
100
AcDbEntity
  8
0
  6
Continuous
 62
     7
370
    25
100
AcDbCircle
 10
1162.9434482695
 20
835.1839350023
 30
0.0
 40
1.999999999999842
100
AcDbArc
 50
179.9999999997
 51
194.4775121873
  0
ARC
  5
28E
330
1F
100
AcDbEntity
  8
0
  6
Continuous
 62
     7
370
    25
100
AcDbCircle
 10
850.4434482695
 20
835.1839350024
 30
0.0
 40
3.000000000000073
100
AcDbArc
 50
0.0
 51
9.5940682269
  0
ARC
  5
28F
330
1F
100
AcDbEntity
  8
0
  6
Continuous
 62
     7
370
    25
100
AcDbCircle
 10
917.4434482695
 20
835.1839350024
 30
0.0
 40
3.249999999996021
100
AcDbArc
 50
171.1501169015
 51
180.0
  0
ARC
  5
290
330
1F
100
AcDbEntity
  8
0
  6
Continuous
 62
     7
370
    25
100
AcDbCircle
 10
1143.4434482695
 20
835.1839350023
 30
0.0
 40
3.25
100
AcDbArc
 50
0.0000000002
 51
8.8498830987
  0
ARC
  5
291
330
1F
100
AcDbEntity
  8
0
  6
Continuous
 62
     7
370
    25
100
AcDbCircle
 10
1162.9434482695
 20
835.1839350023
 30
0.0
 40
1.999999999999937
100
AcDbArc
 50
165.5224878136
 51
179.9999999997
  0
ARC
  5
292
330
1F
100
AcDbEntity
  8
0
  6
Continuous
 62
     7
370
    25
100
AcDbCircle
 10
543.4434482695
 20
835.1839350023
 30
0.0
 40
1.999999999999964
100
AcDbArc
 50
0.0000000001
 51
14.4775121861
  0
ARC
  5
293
330
1F
100
AcDbEntity
  8
0
  6
Continuous
 62
     7
370
    25
100
AcDbCircle
 10
710.4434482695
 20
835.1839350024
 30
0.0
 40
3.24999999999621
100
AcDbArc
 50
171.1501169016
 51
180.0000000001
  0
ARC
  5
294
330
1F
100
AcDbEntity
  8
0
  6
Continuous
 62
     7
370
    25
100
AcDbCircle
 10
850.4434482695
 20
835.1839350024
 30
0.0
 40
3.0
100
AcDbArc
 50
170.4059317731
 51
180.0
  0
ARC
  5
295
330
1F
100
AcDbEntity
  8
0
  6
Continuous
 62
     7
370
    25
100
AcDbCircle
 10
726.4434482695
 20
835.1839350023
 30
0.0
 40
3.000000000000114
100
AcDbArc
 50
0.0000000001
 51
9.5940682272
  0
ARC
  5
296
330
1F
100
AcDbEntity
  8
0
  6
Continuous
 62
     7
370
    25
100
AcDbCircle
 10
917.4434482695
 20
835.1839350024
 30
0.0
 40
3.249999999995907
100
AcDbArc
 50
360.0
 51
8.8498830985
  0
ARC
  5
297
330
1F
100
AcDbEntity
  8
0
  6
Continuous
 62
     7
370
    25
100
AcDbCircle
 10
1143.4434482695
 20
835.1839350023
 30
0.0
 40
3.250000000000144
100
AcDbArc
 50
171.1501169013
 51
179.9999999998
  0
ARC
  5
298
330
1F
100
AcDbEntity
  8
0
  6
Continuous
 62
     7
370
    25
100
AcDbCircle
 10
726.4434482695
 20
835.1839350023
 30
0.0
 40
3.000000000000453
100
AcDbArc
 50
170.4059317729
 51
179.9999999999
  0
ARC
  5
299
330
1F
100
AcDbEntity
  8
0
  6
Continuous
 62
     7
370
    25
100
AcDbCircle
 10
710.4434482695
 20
835.1839350024
 30
0.0
 40
3.24999999999621
100
AcDbArc
 50
359.9999999999
 51
8.8498830984
  0
LINE
  5
29A
330
1F
100
AcDbEntity
  8
0
  6
Continuous
 62
     7
370
    25
100
AcDbLine
 10
503.4434482695
 20
845.6839350024
 30
0.0
 11
503.4434482695
 21
845.3839350024
 31
0.0
  0
LINE
  5
29B
330
1F
100
AcDbEntity
  8
0
  6
Continuous
 62
     7
370
    25
100
AcDbLine
 10
1173.4434482695
 20
845.3839350024
 30
0.0
 11
1173.4434482695
 21
845.6839350024
 31
0.0
  0
ARC
  5
29C
330
1F
100
AcDbEntity
  8
0
  6
Continuous
 62
     7
370
    25
100
AcDbCircle
 10
710.4434482695
 20
911.1839350024
 30
0.0
 40
3.249999999996153
100
AcDbArc
 50
351.1501169015
 51
359.9999999999
  0
ARC
  5
29D
330
1F
100
AcDbEntity
  8
0
  6
Continuous
 62
     7
370
    25
100
AcDbCircle
 10
726.4434482695
 20
911.1839350023
 30
0.0
 40
3.000000000000114
100
AcDbArc
 50
179.9999999999
 51
189.5940682267
  0
ARC
  5
29E
330
1F
100
AcDbEntity
  8
0
  6
Continuous
 62
     7
370
    25
100
AcDbCircle
 10
917.4434482695
 20
911.1839350024
 30
0.0
 40
3.249999999996153
100
AcDbArc
 50
180.0000000001
 51
188.8498830985
  0
ARC
  5
29F
330
1F
100
AcDbEntity
  8
0
  6
Continuous
 62
     7
370
    25
100
AcDbCircle
 10
850.4434482695
 20
911.1839350024
 30
0.0
 40
3.000000000000055
100
AcDbArc
 50
350.4059317731
 51
360.0
  0
ARC
  5
2A0
330
1F
100
AcDbEntity
  8
0
  6
Continuous
 62
     7
370
    25
100
AcDbCircle
 10
1162.9434482695
 20
911.1839350023
 30
0.0
 40
1.999999999999899
100
AcDbArc
 50
179.9999999991
 51
194.4775121856
  0
ARC
  5
2A1
330
1F
100
AcDbEntity
  8
0
  6
Continuous
 62
     7
370
    25
100
AcDbCircle
 10
1143.4434482695
 20
911.1839350023
 30
0.0
 40
3.250000000000238
100
AcDbArc
 50
351.1501169017
 51
0.0000000005
  0
ARC
  5
2A2
330
1F
100
AcDbEntity
  8
0
  6
Continuous
 62
     7
370
    25
100
AcDbCircle
 10
543.4434482695
 20
911.1839350024
 30
0.0
 40
2.0
100
AcDbArc
 50
180.0000000001
 51
194.4775121861
  0
ARC
  5
2A3
330
1F
100
AcDbEntity
  8
0
  6
Continuous
 62
     7
370
    25
100
AcDbCircle
 10
513.9434482695
 20
911.1839350024
 30
0.0
 40
2.0
100
AcDbArc
 50
345.5224878139
 51
359.9999999999
  0
ARC
  5
2A4
330
1F
100
AcDbEntity
  8
0
  6
Continuous
 62
     7
370
    25
100
AcDbCircle
 10
543.4434482695
 20
911.1839350024
 30
0.0
 40
2.000000000000006
100
AcDbArc
 50
345.5224878141
 51
0.0
  0
ARC
  5
2A5
330
1F
100
AcDbEntity
  8
0
  6
Continuous
 62
     7
370
    25
100
AcDbCircle
 10
710.4434482695
 20
911.1839350024
 30
0.0
 40
3.249999999996153
100
AcDbArc
 50
180.0
 51
188.8498830985
  0
ARC
  5
2A6
330
1F
100
AcDbEntity
  8
0
  6
Continuous
 62
     7
370
    25
100
AcDbCircle
 10
850.4434482695
 20
911.1839350024
 30
0.0
 40
3.000000000000114
100
AcDbArc
 50
180.0000000001
 51
189.5940682269
  0
ARC
  5
2A7
330
1F
100
AcDbEntity
  8
0
  6
Continuous
 62
     7
370
    25
100
AcDbCircle
 10
726.4434482695
 20
911.1839350023
 30
0.0
 40
3.00000000000005
100
AcDbArc
 50
350.4059317733
 51
0.0000000001
  0
ARC
  5
2A8
330
1F
100
AcDbEntity
  8
0
  6
Continuous
 62
     7
370
    25
100
AcDbCircle
 10
917.4434482695
 20
911.1839350024
 30
0.0
 40
3.249999999996041
100
AcDbArc
 50
351.1501169015
 51
359.9999999999
  0
ARC
  5
2A9
330
1F
100
AcDbEntity
  8
0
  6
Continuous
 62
     7
370
    25
100
AcDbCircle
 10
1143.4434482695
 20
911.1839350023
 30
0.0
 40
3.250000000000462
100
AcDbArc
 50
179.9999999999
 51
188.8498830983
  0
ARC
  5
2AA
330
1F
100
AcDbEntity
  8
0
  6
Continuous
 62
     7
370
    25
100
AcDbCircle
 10
543.4434482695
 20
835.1839350023
 30
0.0
 40
2.0
100
AcDbArc
 50
165.5224878138
 51
179.9999999998
  0
ARC
  5
2AB
330
1F
100
AcDbEntity
  8
0
  6
Continuous
 62
     7
370
    25
100
AcDbCircle
 10
513.9434482695
 20
835.1839350023
 30
0.0
 40
2.000000000000114
100
AcDbArc
 50
0.0000000002
 51
14.4775121862
  0
ARC
  5
2AC
330
1F
100
AcDbEntity
  8
0
  6
Continuous
 62
     7
370
    25
100
AcDbCircle
 10
850.4434482695
 20
835.1839350024
 30
0.0
 40
3.0
100
AcDbArc
 50
180.0
 51
189.5940682269
  0
ARC
  5
2AD
330
1F
100
AcDbEntity
  8
0
  6
Continuous
 62
     7
370
    25
100
AcDbCircle
 10
726.4434482695
 20
835.1839350023
 30
0.0
 40
3.000000000000114
100
AcDbArc
 50
350.4059317733
 51
0.0000000001
  0
ARC
  5
2AE
330
1F
100
AcDbEntity
  8
0
  6
Continuous
 62
     7
370
    25
100
AcDbCircle
 10
543.4434482695
 20
835.1839350023
 30
0.0
 40
2.000000000000134
100
AcDbArc
 50
179.9999999998
 51
194.4775121858
  0
ARC
  5
2AF
330
1F
100
AcDbEntity
  8
0
  6
Continuous
 62
     7
370
    25
100
AcDbCircle
 10
513.9434482695
 20
835.1839350023
 30
0.0
 40
2.000000000000134
100
AcDbArc
 50
345.5224878142
 51
0.0000000002
  0
ARC
  5
2B0
330
1F
100
AcDbEntity
  8
0
  6
Continuous
 62
     7
370
    25
100
AcDbCircle
 10
850.4434482695
 20
835.1839350024
 30
0.0
 40
3.000000000000092
100
AcDbArc
 50
350.4059317731
 51
0.0
  0
ARC
  5
2B1
330
1F
100
AcDbEntity
  8
0
  6
Continuous
 62
     7
370
    25
100
AcDbCircle
 10
917.4434482695
 20
835.1839350024
 30
0.0
 40
3.249999999996065
100
AcDbArc
 50
180.0
 51
188.8498830985
  0
ARC
  5
2B2
330
1F
100
AcDbEntity
  8
0
  6
Continuous
 62
     7
370
    25
100
AcDbCircle
 10
543.4434482695
 20
835.1839350023
 30
0.0
 40
1.999999999999955
100
AcDbArc
 50
345.5224878144
 51
0.0000000001
  0
ARC
  5
2B3
330
1F
100
AcDbEntity
  8
0
  6
Continuous
 62
     7
370
    25
100
AcDbCircle
 10
710.4434482695
 20
835.1839350024
 30
0.0
 40
3.249999999995953
100
AcDbArc
 50
180.0000000001
 51
188.8498830985
  0
ARC
  5
2B4
330
1F
100
AcDbEntity
  8
0
  6
Continuous
 62
     7
370
    25
100
AcDbCircle
 10
917.4434482695
 20
835.1839350024
 30
0.0
 40
3.249999999995953
100
AcDbArc
 50
351.1501169016
 51
360.0
  0
ARC
  5
2B5
330
1F
100
AcDbEntity
  8
0
  6
Continuous
 62
     7
370
    25
100
AcDbCircle
 10
1143.4434482695
 20
835.1839350023
 30
0.0
 40
3.25000000000022
100
AcDbArc
 50
179.9999999998
 51
188.8498830983
  0
ARC
  5
2B6
330
1F
100
AcDbEntity
  8
0
  6
Continuous
 62
     7
370
    25
100
AcDbCircle
 10
726.4434482695
 20
835.1839350023
 30
0.0
 40
3.0
100
AcDbArc
 50
179.9999999999
 51
189.5940682268
  0
ARC
  5
2B7
330
1F
100
AcDbEntity
  8
0
  6
Continuous
 62
     7
370
    25
100
AcDbCircle
 10
710.4434482695
 20
835.1839350024
 30
0.0
 40
3.249999999996066
100
AcDbArc
 50
351.1501169015
 51
359.9999999999
  0
ARC
  5
2B8
330
1F
100
AcDbEntity
  8
0
  6
Continuous
 62
     7
370
    25
100
AcDbCircle
 10
526.4434482695
 20
891.6839350023
 30
0.0
 40
5.000000000004661
100
AcDbArc
 50
0.0000000002
 51
90.0
  0
LINE
  5
2B9
330
1F
100
AcDbEntity
  8
0
  6
Continuous
 62
     7
370
    25
100
AcDbLine
 10
503.4434482695
 20
896.6839350024
 30
0.0
 11
526.4434482695
 21
896.6839350024
 31
0.0
  0
ARC
  5
2BA
330
1F
100
AcDbEntity
  8
0
  6
Continuous
 62
     7
370
    25
100
AcDbCircle
 10
1150.4434482695
 20
891.6839350024
 30
0.0
 40
5.000000000000227
100
AcDbArc
 50
90.0
 51
180.0000000001
  0
LINE
  5
2BB
330
1F
100
AcDbEntity
  8
0
  6
Continuous
 62
     7
370
    25
100
AcDbLine
 10
1145.4434482695
 20
891.6839350024
 30
0.0
 11
1145.4434482695
 21
885.8800874251
 31
0.0
  0
LINE
  5
2BC
330
1F
100
AcDbEntity
  8
0
  6
Continuous
 62
     7
370
    25
100
AcDbLine
 10
531.4434482695
 20
885.8800874251
 30
0.0
 11
531.4434482695
 21
891.6839350024
 31
0.0
  0
LINE
  5
2BD
330
1F
100
AcDbEntity
  8
0
  6
Continuous
 62
     7
370
    25
100
AcDbLine
 10
1150.4434482695
 20
896.6839350024
 30
0.0
 11
1173.4434482695
 21
896.6839350023
 31
0.0
  0
LINE
  5
2BE
330
1F
100
AcDbEntity
  8
0
  6
Continuous
 62
     7
370
    25
100
AcDbLine
 10
1173.4434482695
 20
896.6839350023
 30
0.0
 11
1173.4434482695
 21
898.6839350024
 31
0.0
  0
LINE
  5
2BF
330
1F
100
AcDbEntity
  8
0
  6
Continuous
 62
     7
370
    25
100
AcDbLine
 10
503.4434482695
 20
898.6839350024
 30
0.0
 11
503.4434482695
 21
896.6839350024
 31
0.0
  0
LINE
  5
2C0
330
1F
100
AcDbEntity
  8
0
  6
Continuous
 62
     7
370
    25
100
AcDbLine
 10
1145.4434482695
 20
885.8800874251
 30
0.0
 11
1145.4434482695
 21
881.5499604061
 31
0.0
  0
LINE
  5
2C1
330
1F
100
AcDbEntity
  8
0
  6
Continuous
 62
     7
370
    25
100
AcDbLine
 10
531.4434482695
 20
881.5499604061
 30
0.0
 11
531.4434482695
 21
885.8800874251
 31
0.0
  0
LINE
  5
2C2
330
1F
100
AcDbEntity
  8
0
  6
Continuous
 62
     7
370
    25
100
AcDbLine
 10
1145.4434482695
 20
881.5499604061
 30
0.0
 11
1145.4434482695
 21
879.0962217621
 31
0.0
  0
LINE
  5
2C3
330
1F
100
AcDbEntity
  8
0
  6
Continuous
 62
     7
370
    25
100
AcDbLine
 10
531.4434482695
 20
879.0962217621
 30
0.0
 11
531.4434482695
 21
881.5499604061
 31
0.0
  0
LINE
  5
2C4
330
1F
100
AcDbEntity
  8
0
  6
Continuous
 62
     7
370
    25
100
AcDbLine
 10
1145.4434482695
 20
879.0962217621
 30
0.0
 11
1145.4434482695
 21
877.7971836564
 31
0.0
  0
LINE
  5
2C5
330
1F
100
AcDbEntity
  8
0
  6
Continuous
 62
     7
370
    25
100
AcDbLine
 10
531.4434482695
 20
877.7971836564
 30
0.0
 11
531.4434482695
 21
879.0962217621
 31
0.0
  0
LINE
  5
2C6
330
1F
100
AcDbEntity
  8
0
  6
Continuous
 62
     7
370
    25
100
AcDbLine
 10
503.4434482695
 20
849.6839350024
 30
0.0
 11
526.4434482695
 21
849.6839350024
 31
0.0
  0
ARC
  5
2C7
330
1F
100
AcDbEntity
  8
0
  6
Continuous
 62
     7
370
    25
100
AcDbCircle
 10
526.4434482695
 20
854.6839350024
 30
0.0
 40
4.999999999999886
100
AcDbArc
 50
270.0
 51
359.9999999999
  0
ARC
  5
2C8
330
1F
100
AcDbEntity
  8
0
  6
Continuous
 62
     7
370
    25
100
AcDbCircle
 10
1150.4434482695
 20
854.6839350024
 30
0.0
 40
5.000000000010914
100
AcDbArc
 50
180.0000000003
 51
270.0
  0
LINE
  5
2C9
330
1F
100
AcDbEntity
  8
0
  6
Continuous
 62
     7
370
    25
100
AcDbLine
 10
1150.4434482695
 20
849.6839350024
 30
0.0
 11
1173.4434482695
 21
849.6839350024
 31
0.0
  0
LINE
  5
2CA
330
1F
100
AcDbEntity
  8
0
  6
Continuous
 62
     7
370
    25
100
AcDbLine
 10
1145.4434482695
 20
877.7971836564
 30
0.0
 11
1145.4434482695
 21
854.6839350024
 31
0.0
  0
LINE
  5
2CB
330
1F
100
AcDbEntity
  8
0
  6
Continuous
 62
     7
370
    25
100
AcDbLine
 10
531.4434482695
 20
854.6839350024
 30
0.0
 11
531.4434482695
 21
877.7971836564
 31
0.0
  0
LINE
  5
2CC
330
1F
100
AcDbEntity
  8
0
  6
Continuous
 62
     7
370
    25
100
AcDbLine
 10
503.4434482695
 20
845.6839350024
 30
0.0
 11
503.4434482695
 21
849.6839350024
 31
0.0
  0
LINE
  5
2CD
330
1F
100
AcDbEntity
  8
0
  6
Continuous
 62
     7
370
    25
100
AcDbLine
 10
1173.4434482695
 20
849.6839350024
 30
0.0
 11
1173.4434482695
 21
845.6839350024
 31
0.0
  0
CIRCLE
  5
2CE
330
1F
100
AcDbEntity
  8
0
  6
Continuous
 62
     7
370
    25
100
AcDbCircle
 10
1215.4434482695
 20
771.9339350028
 30
0.0
 40
2.5
  0
CIRCLE
  5
2CF
330
1F
100
AcDbEntity
  8
0
  6
Continuous
 62
     7
370
    25
100
AcDbCircle
 10
582.4434482695
 20
771.9339350028
 30
0.0
 40
2.5
  0
LINE
  5
2D0
330
1F
100
AcDbEntity
  8
0
  6
Continuous
 62
     7
370
    25
100
AcDbLine
 10
1468.4434482695
 20
789.1839350028
 30
0.0
 11
518.4434482695
 21
789.1839350028
 31
0.0
  0
LINE
  5
2D1
330
1F
100
AcDbEntity
  8
0
  6
Continuous
 62
     7
370
    25
100
AcDbLine
 10
1468.4434482695
 20
494.1839350028
 30
0.0
 11
1468.4434482695
 21
789.1839350028
 31
0.0
  0
LINE
  5
2D2
330
1F
100
AcDbEntity
  8
0
  6
Continuous
 62
     7
370
    25
100
AcDbLine
 10
518.4434482695
 20
494.1839350028
 30
0.0
 11
1468.4434482695
 21
494.1839350028
 31
0.0
  0
LINE
  5
2D3
330
1F
100
AcDbEntity
  8
0
  6
Continuous
 62
     7
370
    25
100
AcDbLine
 10
518.4434482695
 20
789.1839350028
 30
0.0
 11
518.4434482695
 21
494.1839350028
 31
0.0
  0
LINE
  5
2D4
330
1F
100
AcDbEntity
  8
0
  6
Continuous
 62
     7
370
    25
100
AcDbLine
 10
1473.4434482695
 20
494.1839350028
 30
0.0
 11
1468.4434482695
 21
494.1839350028
 31
0.0
  0
LINE
  5
2D5
330
1F
100
AcDbEntity
  8
0
  6
Continuous
 62
     7
370
    25
100
AcDbLine
 10
518.4434482695
 20
494.1839350028
 30
0.0
 11
513.4434482695
 21
494.1839350028
 31
0.0
  0
LINE
  5
2D6
330
1F
100
AcDbEntity
  8
0
  6
Continuous
 62
     7
370
    25
100
AcDbLine
 10
1473.4434482695
 20
494.1839350028
 30
0.0
 11
1473.4434482695
 21
794.1839350028
 31
0.0
  0
LINE
  5
2D7
330
1F
100
AcDbEntity
  8
0
  6
Continuous
 62
     7
370
    25
100
AcDbLine
 10
1473.4434482695
 20
794.1839350028
 30
0.0
 11
513.4434482695
 21
794.1839350028
 31
0.0
  0
LINE
  5
2D8
330
1F
100
AcDbEntity
  8
0
  6
Continuous
 62
     7
370
    25
100
AcDbLine
 10
1593.4434482695
 20
994.1839350028
 30
0.0
 11
393.4434482695
 21
994.1839350028
 31
0.0
  0
LINE
  5
2D9
330
1F
100
AcDbEntity
  8
0
  6
Continuous
 62
     7
370
    25
100
AcDbLine
 10
1473.4434482695
 20
494.1839350028
 30
0.0
 11
1593.4434482695
 21
494.1839350028
 31
0.0
  0
LINE
  5
2DA
330
1F
100
AcDbEntity
  8
0
  6
Continuous
 62
     7
370
    25
100
AcDbLine
 10
513.4434482695
 20
794.1839350028
 30
0.0
 11
513.4434482695
 21
494.1839350028
 31
0.0
  0
LINE
  5
2DB
330
1F
100
AcDbEntity
  8
0
  6
Continuous
 62
     7
370
    25
100
AcDbLine
 10
1593.4434482695
 20
494.1839350028
 30
0.0
 11
1593.4434482695
 21
994.1839350028
 31
0.0
  0
CIRCLE
  5
2DC
330
1F
100
AcDbEntity
  8
0
  6
Continuous
 62
     7
370
    25
100
AcDbCircle
 10
517.4434482695
 20
862.1839350028
 30
0.0
 40
10.0
  0
CIRCLE
  5
2DD
330
1F
100
AcDbEntity
  8
0
  6
Continuous
 62
     7
370
    25
100
AcDbCircle
 10
1159.4434482695
 20
886.1839350028
 30
0.0
 40
9.999999999999773
  0
CIRCLE
  5
2DE
330
1F
100
AcDbEntity
  8
0
  6
Continuous
 62
     7
370
    25
100
AcDbCircle
 10
1159.4434482695
 20
862.1839350028
 30
0.0
 40
9.999999999999773
  0
CIRCLE
  5
2DF
330
1F
100
AcDbEntity
  8
0
  6
Continuous
 62
     7
370
    25
100
AcDbCircle
 10
517.4434482695
 20
886.1839350028
 30
0.0
 40
10.0
  0
LINE
  5
2E0
330
1F
100
AcDbEntity
  8
0
  6
Continuous
 62
     7
370
    25
100
AcDbLine
 10
393.4434482695
 20
994.1839350028
 30
0.0
 11
393.4434482695
 21
494.1839350028
 31
0.0
  0
LINE
  5
2E1
330
1F
100
AcDbEntity
  8
0
  6
Continuous
 62
     7
370
    25
100
AcDbLine
 10
393.4434482695
 20
494.1839350028
 30
0.0
 11
513.4434482695
 21
494.1839350028
 31
0.0
  0
DIMENSION
  5
2E2
330
1F
100
AcDbEntity
  8
FORMAT
100
AcDbDimension
  2
_D_5
 10
1215.4434482695
 20
624.4503711674
 30
0.0
 11
898.9434482695
 21
624.4503711674
 31
0.0
 70
   160
  1
<>
 71
     2
 42
-1.0
  3
SLDDIMSTYLE0
100
AcDbAlignedDimension
 13
582.4434482695
 23
766.9339350028
 33
0.0
 14
1215.4434482695
 24
766.9339350028
 34
0.0
100
AcDbRotatedDimension
  0
DIMENSION
  5
2EC
330
1F
100
AcDbEntity
  8
FORMAT
100
AcDbDimension
  2
_D_6
 10
1214.3879658409
 20
918.6839350024
 30
0.0
 11
1214.3879658409
 21
873.1839350024
 31
0.0
 70
   160
  1
<>
 71
     2
 42
-1.0
  3
SLDDIMSTYLE0
100
AcDbAlignedDimension
 13
1173.4434482695
 23
827.6839350024
 33
0.0
 14
1173.4434482695
 24
918.6839350024
 34
0.0
 50
90.0
100
AcDbRotatedDimension
  0
DIMENSION
  5
2F6
330
1F
100
AcDbEntity
  8
FORMAT
100
AcDbDimension
  2
_D_7
 10
582.4434482695
 20
624.4503711674
 30
0.0
 11
537.9434482695
 21
624.4503711674
 31
0.0
 70
   160
  1
<>
 71
     2
 42
-1.0
  3
SLDDIMSTYLE0
100
AcDbAlignedDimension
 13
493.4434482695
 23
663.1839350028
 33
0.0
 14
582.4434482695
 24
766.9339350028
 34
0.0
100
AcDbRotatedDimension
  0
DIMENSION
  5
2FF
330
1F
100
AcDbEntity
  8
FORMAT
100
AcDbDimension
  2
_D_8
 10
1256.9028136912
 20
771.9339350028
 30
0.0
 11
1256.9028136912
 21
700.256654728
 31
0.0
 70
   160
  1
<>
 71
     2
 42
-1.0
  3
SLDDIMSTYLE2
100
AcDbAlignedDimension
 13
1473.4434482695
 23
794.1839350028
 33
0.0
 14
1220.4434482695
 24
771.9339350028
 34
0.0
 50
90.0
100
AcDbRotatedDimension
  0
DIMENSION
  5
30B
330
1F
100
AcDbEntity
  8
FORMAT
100
AcDbDimension
  2
_D_9
 10
693.4419785993
 20
835.1839350024
 30
0.0
 11
693.4419785993
 21
745.7716953281
 31
0.0
 70
   160
  1
<>
 71
     2
 42
-1.0
  3
SLDDIMSTYLE1
100
AcDbAlignedDimension
 13
513.4434482695
 23
794.1839350028
 33
0.0
 14
710.4434482695
 24
835.1839350024
 34
0.0
 50
90.0
100
AcDbRotatedDimension
  0
DIMENSION
  5
316
330
1F
100
AcDbEntity
  8
FORMAT
100
AcDbDimension
  2
_D_10
 10
362.2733481623
 20
827.6839350024
 30
0.0
 11
362.2733481623
 21
732.9229624253
 31
0.0
 70
   160
  1
<>
 71
     2
 42
-1.0
  3
SLDDIMSTYLE2
100
AcDbAlignedDimension
 13
513.4434482695
 23
794.1839350028
 33
0.0
 14
503.4434482695
 24
827.6839350024
 34
0.0
 50
90.0
100
AcDbRotatedDimension
  0
DIMENSION
  5
322
330
1F
100
AcDbEntity
  8
FORMAT
100
AcDbDimension
  2
_D_11
 10
323.4434482695
 20
862.1839350028
 30
0.0
 11
323.4434482695
 21
732.9229624253
 31
0.0
 70
   160
  1
<>
 71
     2
 42
-1.0
  3
SLDDIMSTYLE2
100
AcDbAlignedDimension
 13
503.4434482695
 23
827.6839350024
 33
0.0
 14
504.9434482695
 24
862.1839350028
 34
0.0
 50
90.0
100
AcDbRotatedDimension
  0
DIMENSION
  5
32F
330
1F
100
AcDbEntity
  8
FORMAT
100
AcDbDimension
  2
_D_12
 10
281.4434482695
 20
886.1839350028
 30
0.0
 11
281.4434482695
 21
732.9229624253
 31
0.0
 70
   160
  1
<>
 71
     2
 42
-1.0
  3
SLDDIMSTYLE1
100
AcDbAlignedDimension
 13
504.9434482695
 23
862.1839350028
 33
0.0
 14
504.9434482695
 24
886.1839350028
 34
0.0
 50
90.0
100
AcDbRotatedDimension
  0
DIMENSION
  5
33D
330
1F
100
AcDbEntity
  8
FORMAT
100
AcDbDimension
  2
_D_13
 10
503.4434482695
 20
1009.4441018834
 30
0.0
 11
444.9552257676
 21
1009.4441018834
 31
0.0
 70
   160
  1
<>
 71
     2
 42
-1.0
  3
SLDDIMSTYLE1
100
AcDbAlignedDimension
 13
493.4434482695
 23
663.1839350028
 33
0.0
 14
503.4434482695
 24
845.6839350024
 34
0.0
100
AcDbRotatedDimension
  0
DIMENSION
  5
349
330
1F
100
AcDbEntity
  8
FORMAT
100
AcDbDimension
  2
_D_14
 10
517.4434482695
 20
1052.2647507399
 30
0.0
 11
444.9552257676
 21
1052.2647507399
 31
0.0
 70
   160
  1
<>
 71
     2
 42
-1.0
  3
SLDDIMSTYLE1
100
AcDbAlignedDimension
 13
493.4434482695
 23
663.1839350028
 33
0.0
 14
517.4434482695
 24
874.6839350028
 34
0.0
100
AcDbRotatedDimension
  0
DIMENSION
  5
355
330
1F
100
AcDbEntity
  8
FORMAT
100
AcDbDimension
  2
_D_15
 10
710.4434482695
 20
1081.8962211904
 30
0.0
 11
601.9434482695
 21
1081.8962211904
 31
0.0
 70
   160
  1
<>
 71
     2
 42
-1.0
  3
SLDDIMSTYLE0
100
AcDbAlignedDimension
 13
493.4434482695
 23
663.1839350028
 33
0.0
 14
710.4434482695
 24
916.9339350024
 34
0.0
100
AcDbRotatedDimension
  0
DIMENSION
  5
35F
330
1F
100
AcDbEntity
  8
FORMAT
100
AcDbDimension
  2
_D_16
 10
917.4434482695
 20
1081.8962211904
 30
0.0
 11
813.9434482695
 21
1081.8962211904
 31
0.0
 70
   160
  1
<>
 71
     2
 42
-1.0
  3
SLDDIMSTYLE0
100
AcDbAlignedDimension
 13
710.4434482695
 23
916.9339350024
 33
0.0
 14
917.4434482695
 24
916.9339350024
 34
0.0
100
AcDbRotatedDimension
  0
DIMENSION
  5
369
330
1F
100
AcDbEntity
  8
FORMAT
100
AcDbDimension
  2
_D_17
 10
1143.4434482695
 20
1081.8962211904
 30
0.0
 11
1030.4434482695
 21
1081.8962211904
 31
0.0
 70
   160
  1
<>
 71
     2
 42
-1.0
  3
SLDDIMSTYLE0
100
AcDbAlignedDimension
 13
917.4434482695
 23
916.9339350024
 33
0.0
 14
1143.4434482695
 24
916.9339350023
 34
0.0
100
AcDbRotatedDimension
  0
DIMENSION
  5
373
330
1F
100
AcDbEntity
  8
FORMAT
100
AcDbDimension
  2
_D_18
 10
1159.4434482695
 20
1133.1569186195
 30
0.0
 11
826.4434482695
 21
1133.1569186195
 31
0.0
 70
   160
  1
<>
 71
     2
 42
-1.0
  3
SLDDIMSTYLE0
100
AcDbAlignedDimension
 13
493.4434482695
 23
663.1839350028
 33
0.0
 14
1159.4434482695
 24
898.6839350028
 34
0.0
100
AcDbRotatedDimension
  0
DIMENSION
  5
37D
330
1F
100
AcDbEntity
  8
FORMAT
100
AcDbDimension
  2
_D_19
 10
1173.4434482695
 20
1176.8979497524
 30
0.0
 11
833.4434482695
 21
1176.8979497524
 31
0.0
 70
   160
  1
<>
 71
     2
 42
-1.0
  3
SLDDIMSTYLE0
100
AcDbAlignedDimension
 13
493.4434482695
 23
663.1839350028
 33
0.0
 14
1173.4434482695
 24
911.1839350024
 34
0.0
100
AcDbRotatedDimension
  0
MTEXT
  5
387
330
1F
100
AcDbEntity
  8
FORMAT
100
AcDbMText
 10
1336.190946822
 20
892.0968955774
 30
0.0
 40
18.5208333333
 41
0.0
 71
     1
 72
     1
  1
Unterkante Türrahmen
  7
SLDTEXTSTYLE0
 73
     1
 44
1.0
  0
LEADER
  5
389
330
1F
100
AcDbEntity
  8
FORMAT
100
AcDbLeader
  3
SLDDIMSTYLE3
 76
     3
 10
1288.6322017983
 20
794.1839350028
 30
0.0
 10
1287.8002095557
 20
882.7325558099
 30
0.0
 10
1332.2502095557
 20
882.7325558099
 30
0.0
  0
MTEXT
  5
38A
330
1F
100
AcDbEntity
  8
FORMAT
100
AcDbMText
 10
1292.6325962657
 20
1050.1782606783
 30
0.0
 40
18.5208333333
 41
0.0
 71
     1
 72
     1
  1
ø20 (optional)
  7
SLDTEXTSTYLE0
 73
     1
 44
1.0
  0
LEADER
  5
38B
330
1F
100
AcDbEntity
  8
FORMAT
100
AcDbLeader
  3
SLDDIMSTYLE3
 76
     3
 10
1168.5970468734
 20
890.210302174
 30
0.0
 10
1244.3802598491
 20
1041.1566966313
 30
0.0
 10
1288.8302598491
 20
1041.1566966313
 30
0.0
  0
INSERT
  5
391
102
{ACAD_REACTORS
330
392
102
}
330
1F
100
AcDbEntity
  8
FORMAT
100
AcDbBlockReference
  2
SW_NOTE_0_5
 10
383.8512780684
 20
1003.6152272707
 30
0.0
  0
LEADER
  5
392
330
1F
100
AcDbEntity
  8
FORMAT
100
AcDbLeader
  3
SLDDIMSTYLE3
 73
     2
 76
     3
 10
508.298288983
 20
890.2294339367
 30
0.0
 10
428.3012780684
 20
1003.6152272707
 30
0.0
 10
383.8512780684
 20
1003.6152272707
 30
0.0
340
391
  0
INSERT
  5
39E
330
1F
100
AcDbEntity
  8
FORMAT
100
AcDbBlockReference
  2
SW_CENTERMARKSYMBOL_0
 10
1215.4434482695
 20
771.9339350028
 30
0.0
  0
INSERT
  5
3AA
330
1F
100
AcDbEntity
  8
FORMAT
100
AcDbBlockReference
  2
SW_CENTERMARKSYMBOL_1
 10
582.4434482695
 20
771.9339350028
 30
0.0
  0
INSERT
  5
3B6
330
1F
100
AcDbEntity
  8
FORMAT
100
AcDbBlockReference
  2
SW_CENTERMARKSYMBOL_2
 10
710.4434482695
 20
835.1839350024
 30
0.0
  0
INSERT
  5
3C2
330
1F
100
AcDbEntity
  8
FORMAT
100
AcDbBlockReference
  2
SW_CENTERMARKSYMBOL_3
 10
710.4434482695
 20
911.1839350024
 30
0.0
  0
INSERT
  5
3CE
330
1F
100
AcDbEntity
  8
FORMAT
100
AcDbBlockReference
  2
SW_CENTERMARKSYMBOL_4
 10
1143.4434482695
 20
835.1839350023
 30
0.0
  0
INSERT
  5
3DA
330
1F
100
AcDbEntity
  8
FORMAT
100
AcDbBlockReference
  2
SW_CENTERMARKSYMBOL_5
 10
1143.4434482695
 20
911.1839350023
 30
0.0
  0
INSERT
  5
3E6
330
1F
100
AcDbEntity
  8
FORMAT
100
AcDbBlockReference
  2
SW_CENTERMARKSYMBOL_6
 10
917.4434482695
 20
835.1839350024
 30
0.0
  0
INSERT
  5
3F2
330
1F
100
AcDbEntity
  8
FORMAT
100
AcDbBlockReference
  2
SW_CENTERMARKSYMBOL_7
 10
917.4434482695
 20
911.1839350024
 30
0.0
  0
INSERT
  5
3FE
330
1F
100
AcDbEntity
  8
FORMAT
100
AcDbBlockReference
  2
SW_CENTERMARKSYMBOL_8
 10
517.4434482695
 20
862.1839350028
 30
0.0
  0
INSERT
  5
40A
330
1F
100
AcDbEntity
  8
FORMAT
100
AcDbBlockReference
  2
SW_CENTERMARKSYMBOL_9
 10
517.4434482695
 20
886.1839350028
 30
0.0
  0
INSERT
  5
416
330
1F
100
AcDbEntity
  8
FORMAT
100
AcDbBlockReference
  2
SW_CENTERMARKSYMBOL_10
 10
1159.4434482695
 20
862.1839350028
 30
0.0
  0
INSERT
  5
422
330
1F
100
AcDbEntity
  8
FORMAT
100
AcDbBlockReference
  2
SW_CENTERMARKSYMBOL_11
 10
1159.4434482695
 20
886.1839350028
 30
0.0
  0
CIRCLE
  5
423
330
1F
100
AcDbEntity
  8
0
  6
Continuous
 62
     7
370
    18
100
AcDbCircle
 10
718.2477981492
 20
873.2593476665
 30
0.0
 40
56.63314046381356
  0
MTEXT
  5
424
330
1F
100
AcDbEntity
  8
0
  6
Continuous
 62
     7
370
    18
100
AcDbMText
 10
753.0786150953
 20
982.198962873
 30
0.0
 40
35.0
 41
0.0
 71
     1
 72
     1
  1
C
  7
SLDTEXTSTYLE0
 73
     1
 44
1.0
  0
LINE
  5
425
330
1F
100
AcDbEntity
  8
FORMAT
  6
CENTERX2
370
    18
100
AcDbLine
 10
493.4434482695
 20
663.1839350028
 30
0.0
 11
493.4434482695
 21
547.7409223958
 31
0.0
  0
LINE
  5
426
330
1F
100
AcDbEntity
  8
0
  6
Continuous
 62
     7
370
    25
100
AcDbLine
 10
2335.9769798292
 20
1637.9383227349
 30
0.0
 11
2335.9769798292
 21
1657.6943387039
 31
0.0
  0
LINE
  5
427
330
1F
100
AcDbEntity
  8
0
  6
Continuous
 62
     7
370
    25
100
AcDbLine
 10
2305.9769798292
 20
1656.6943387039
 30
0.0
 11
2305.9769798292
 21
1637.9383227349
 31
0.0
  0
LINE
  5
428
330
1F
100
AcDbEntity
  8
0
  6
Continuous
 62
     7
370
    25
100
AcDbLine
 10
2343.9769798292
 20
1752.6943387039
 30
0.0
 11
2343.9769798292
 21
1753.6943387039
 31
0.0
  0
LINE
  5
429
330
1F
100
AcDbEntity
  8
0
  6
Continuous
 62
     7
370
    25
100
AcDbLine
 10
2267.2269798284
 20
1614.6943387038
 30
0.0
 11
2267.2269798284
 21
1612.6943387057
 31
0.0
  0
LINE
  5
42A
330
1F
100
AcDbEntity
  8
0
  6
Continuous
 62
     7
370
    25
100
AcDbLine
 10
2281.2269798284
 20
1612.6943387057
 30
0.0
 11
2281.2269798284
 21
1614.6943387038
 31
0.0
  0
LINE
  5
42B
330
1F
100
AcDbEntity
  8
0
  6
Continuous
 62
     7
370
    25
100
AcDbLine
 10
2279.2269798284
 20
1614.6943387038
 30
0.0
 11
2279.2269798284
 21
1615.1943387039
 31
0.0
  0
LINE
  5
42C
330
1F
100
AcDbEntity
  8
0
  6
Continuous
 62
     7
370
    25
100
AcDbLine
 10
2269.2269798284
 20
1615.1943387039
 30
0.0
 11
2269.2269798284
 21
1614.6943387038
 31
0.0
  0
LINE
  5
42D
330
1F
100
AcDbEntity
  8
0
  6
Continuous
 62
     7
370
    25
100
AcDbLine
 10
2305.9769798292
 20
1635.994338704
 30
0.0
 11
2305.9769798292
 21
1625.194338704
 31
0.0
  0
LINE
  5
42E
330
1F
100
AcDbEntity
  8
0
  6
Continuous
 62
     7
370
    25
100
AcDbLine
 10
2335.9769798291
 20
1616.194338704
 30
0.0
 11
2335.9769798291
 21
1635.994338704
 31
0.0
  0
LINE
  5
42F
330
1F
100
AcDbEntity
  8
0
  6
Continuous
 62
     7
370
    25
100
AcDbLine
 10
2334.9769798291
 20
1615.194338704
 30
0.0
 11
2335.9769798291
 21
1616.194338704
 31
0.0
  0
LINE
  5
430
330
1F
100
AcDbEntity
  8
0
  6
Continuous
 62
     7
370
    25
100
AcDbLine
 10
2335.9769798291
 20
1635.994338704
 30
0.0
 11
2335.7769798291
 21
1636.194338704
 31
0.0
  0
LINE
  5
431
330
1F
100
AcDbEntity
  8
0
  6
Continuous
 62
     7
370
    25
100
AcDbLine
 10
2306.1769798292
 20
1636.194338704
 30
0.0
 11
2305.9769798292
 21
1635.994338704
 31
0.0
  0
LWPOLYLINE
  5
432
330
1F
100
AcDbEntity
  8
0
  6
Continuous
 62
     7
370
    25
100
AcDbPolyline
 90
       12
 70
   128
 43
0.0
 10
2312.3912702854
 20
1637.002319763
 10
2312.2812946499
 20
1636.7032731047
 10
2312.0966723016
 20
1636.4670605446
 10
2311.9857079037
 20
1636.3767072682
 10
2311.871864658
 20
1636.3073126088
 10
2311.7655448396
 20
1636.2584640603
 10
2311.6769528744
 20
1636.2270275143
 10
2311.6158119001
 20
1636.2087410286
 10
2311.5913891386
 20
1636.1994030488
 10
2311.6122194435
 20
1636.1955017627
 10
2311.6851028053
 20
1636.1944127116
 10
2311.770680131
 20
1636.1943632296
  0
LINE
  5
433
330
1F
100
AcDbEntity
  8
0
  6
Continuous
 62
     7
370
    25
100
AcDbLine
 10
2312.5742611081
 20
1637.938322735
 30
0.0
 11
2312.378137342
 21
1636.9351466582
 31
0.0
  0
LWPOLYLINE
  5
434
330
1F
100
AcDbEntity
  8
0
  6
Continuous
 62
     7
370
    25
100
AcDbPolyline
 90
        4
 70
   128
 43
0.0
 10
2331.2072737299
 20
1636.1943614396
 10
2331.2468823049
 20
1636.1943841247
 10
2331.2725118017
 20
1636.1954354486
 10
2331.271783256
 20
1636.1955943132
  0
ARC
  5
435
330
1F
100
AcDbEntity
  8
0
  6
Continuous
 62
     7
370
    25
100
AcDbCircle
 10
2331.3982949675
 20
1637.2055181628
 30
0.0
 40
1.016334646530923
100
AcDbArc
 50
192.6141786487
 51
261.8326251792
  0
LWPOLYLINE
  5
436
330
1F
100
AcDbEntity
  8
0
  6
Continuous
 62
     7
370
    25
100
AcDbPolyline
 90
        3
 70
   128
 43
0.0
 10
2305.8247950971
 20
1624.1368151195
 10
2305.7606087996
 20
1623.7932077265
 10
2305.6747208869
 20
1623.4048652486
  0
LINE
  5
437
330
1F
100
AcDbEntity
  8
0
  6
Continuous
 62
     7
370
    25
100
AcDbLine
 10
2330.4064925716
 20
1636.9835642789
 30
0.0
 11
2330.2007047049
 21
1637.9383227349
 31
0.0
  0
ARC
  5
438
330
1F
100
AcDbEntity
  8
0
  6
Continuous
 62
     7
370
    25
100
AcDbCircle
 10
2302.9769798292
 20
1625.194338704
 30
0.0
 40
3.000000000000455
100
AcDbArc
 50
347.449168654
 51
0.0000000003
  0
LINE
  5
439
330
1F
100
AcDbEntity
  8
0
  6
Continuous
 62
     7
370
    25
100
AcDbLine
 10
2311.7532549534
 20
1637.938322735
 30
0.0
 11
2311.5474669978
 21
1636.9835638662
 31
0.0
  0
ARC
  5
43A
330
1F
100
AcDbEntity
  8
0
  6
Continuous
 62
     7
370
    25
100
AcDbCircle
 10
2310.5175946909
 20
1637.2272759294
 30
0.0
 40
1.0583161566275
100
AcDbArc
 50
282.5729823151
 51
346.6864040549
  0
LINE
  5
43B
330
1F
100
AcDbEntity
  8
0
  6
Continuous
 62
     7
370
    25
100
AcDbLine
 10
2263.2269798284
 20
1616.1943387038
 30
0.0
 11
2264.2269798284
 21
1615.1943387038
 31
0.0
  0
LINE
  5
43C
330
1F
100
AcDbEntity
  8
0
  6
Continuous
 62
     7
370
    25
100
AcDbLine
 10
2264.2269798284
 20
1622.1943387038
 30
0.0
 11
2263.2269798284
 21
1621.1943387038
 31
0.0
  0
LINE
  5
43D
330
1F
100
AcDbEntity
  8
0
  6
Continuous
 62
     7
370
    25
100
AcDbLine
 10
2263.2269798284
 20
1621.1943387038
 30
0.0
 11
2263.2269798284
 21
1616.1943387038
 31
0.0
  0
LINE
  5
43E
330
1F
100
AcDbEntity
  8
0
  6
Continuous
 62
     7
370
    25
100
AcDbLine
 10
2190.9769798295
 20
1326.1943387039
 30
0.0
 11
2190.9769798295
 21
1646.1943387039
 31
0.0
  0
LINE
  5
43F
330
1F
100
AcDbEntity
  8
0
  6
Continuous
 62
     7
370
    25
100
AcDbLine
 10
2230.9769798295
 20
1621.1943387039
 30
0.0
 11
2230.9769798295
 21
1646.1943387039
 31
0.0
  0
LINE
  5
440
330
1F
100
AcDbEntity
  8
0
  6
Continuous
 62
     7
370
    25
100
AcDbLine
 10
2230.9769798295
 20
1621.1943387039
 30
0.0
 11
2260.9769798295
 21
1621.1943387039
 31
0.0
  0
LINE
  5
441
330
1F
100
AcDbEntity
  8
0
  6
Continuous
 62
     7
370
    25
100
AcDbLine
 10
2260.9769798295
 20
1621.1943387039
 30
0.0
 11
2260.9769798295
 21
1612.1943387038
 31
0.0
  0
LINE
  5
442
330
1F
100
AcDbEntity
  8
0
  6
Continuous
 62
     7
370
    25
100
AcDbLine
 10
2260.9769798295
 20
1596.1943387057
 30
0.0
 11
2260.9769798295
 21
1326.1943387039
 31
0.0
  0
LINE
  5
443
330
1F
100
AcDbEntity
  8
0
  6
Continuous
 62
     7
370
    25
100
AcDbLine
 10
2260.9769798295
 20
1326.1943387039
 30
0.0
 11
2190.9769798295
 21
1326.1943387039
 31
0.0
  0
LINE
  5
444
330
1F
100
AcDbEntity
  8
0
  6
Continuous
 62
     7
370
    25
100
AcDbLine
 10
2190.9769798295
 20
1646.1943387039
 30
0.0
 11
2230.9769798295
 21
1646.1943387039
 31
0.0
  0
LINE
  5
445
330
1F
100
AcDbEntity
  8
0
  6
Continuous
 62
     7
370
    25
100
AcDbLine
 10
2260.9769798295
 20
1826.1943387039
 30
0.0
 11
2260.9769798295
 21
1752.6943387039
 31
0.0
  0
LINE
  5
446
330
1F
100
AcDbEntity
  8
0
  6
Continuous
 62
     7
370
    25
100
AcDbLine
 10
2260.9769798295
 20
1657.6943387039
 30
0.0
 11
2260.9769798295
 21
1626.1943387039
 31
0.0
  0
LINE
  5
447
330
1F
100
AcDbEntity
  8
0
  6
Continuous
 62
     7
370
    25
100
AcDbLine
 10
2260.9769798295
 20
1626.1943387039
 30
0.0
 11
2230.9769798295
 21
1626.1943387039
 31
0.0
  0
LINE
  5
448
330
1F
100
AcDbEntity
  8
0
  6
Continuous
 62
     7
370
    25
100
AcDbLine
 10
2230.9769798295
 20
1626.1943387039
 30
0.0
 11
2230.9769798295
 21
1651.1943387039
 31
0.0
  0
LINE
  5
449
330
1F
100
AcDbEntity
  8
0
  6
Continuous
 62
     7
370
    25
100
AcDbLine
 10
2230.9769798295
 20
1651.1943387039
 30
0.0
 11
2190.9769798295
 21
1651.1943387039
 31
0.0
  0
LINE
  5
44A
330
1F
100
AcDbEntity
  8
0
  6
Continuous
 62
     7
370
    25
100
AcDbLine
 10
2190.9769798295
 20
1826.1943387039
 30
0.0
 11
2260.9769798295
 21
1826.1943387039
 31
0.0
  0
LINE
  5
44B
330
1F
100
AcDbEntity
  8
0
  6
Continuous
 62
     7
370
    25
100
AcDbLine
 10
2190.9769798295
 20
1826.1943387039
 30
0.0
 11
2190.9769798295
 21
1651.1943387039
 31
0.0
  0
LINE
  5
44C
330
1F
100
AcDbEntity
  8
0
  6
Continuous
 62
     7
370
    25
100
AcDbLine
 10
2260.9769798295
 20
1621.1943387039
 30
0.0
 11
2260.9769798295
 21
1626.1943387039
 31
0.0
  0
LINE
  5
44D
330
1F
100
AcDbEntity
  8
0
  6
Continuous
 62
     7
370
    25
100
AcDbLine
 10
2190.9769798295
 20
1651.1943387039
 30
0.0
 11
2190.9769798295
 21
1646.1943387039
 31
0.0
  0
LINE
  5
44E
330
1F
100
AcDbEntity
  8
0
  6
Continuous
 62
     7
370
    25
100
AcDbLine
 10
2307.7639162478
 20
1637.938322735
 30
0.0
 11
2335.9769798292
 21
1637.9383227349
 31
0.0
  0
LINE
  5
44F
330
1F
100
AcDbEntity
  8
0
  6
Continuous
 62
     7
370
    25
100
AcDbLine
 10
2305.9769798292
 20
1637.9383227349
 30
0.0
 11
2307.7639162478
 21
1637.938322735
 31
0.0
  0
LINE
  5
450
330
1F
100
AcDbEntity
  8
0
  6
Continuous
 62
     7
370
    25
100
AcDbLine
 10
2261.9769798292
 20
1752.6943387039
 30
0.0
 11
2261.9769798292
 21
1753.6943387039
 31
0.0
  0
LINE
  5
451
330
1F
100
AcDbEntity
  8
0
  6
Continuous
 62
     7
370
    25
100
AcDbLine
 10
2261.9769798292
 20
1753.6943387039
 30
0.0
 11
2320.9769798292
 21
1753.6943387039
 31
0.0
  0
LINE
  5
452
330
1F
100
AcDbEntity
  8
0
  6
Continuous
 62
     7
370
    25
100
AcDbLine
 10
2320.9769798292
 20
1753.6943387039
 30
0.0
 11
2320.9769798292
 21
1752.6943387039
 31
0.0
  0
LINE
  5
453
330
1F
100
AcDbEntity
  8
0
  6
Continuous
 62
     7
370
    25
100
AcDbLine
 10
2320.9769798292
 20
1753.6943387039
 30
0.0
 11
2343.9769798292
 21
1753.6943387039
 31
0.0
  0
LINE
  5
454
330
1F
100
AcDbEntity
  8
0
  6
Continuous
 62
     7
370
    25
100
AcDbLine
 10
2317.9769798292
 20
1657.6943387039
 30
0.0
 11
2317.9769798292
 21
1656.6943387039
 31
0.0
  0
LINE
  5
455
330
1F
100
AcDbEntity
  8
0
  6
Continuous
 62
     7
370
    25
100
AcDbLine
 10
2261.9769798292
 20
1656.6943387039
 30
0.0
 11
2261.9769798292
 21
1657.6943387039
 31
0.0
  0
LINE
  5
456
330
1F
100
AcDbEntity
  8
0
  6
Continuous
 62
     7
370
    25
100
AcDbLine
 10
2317.9769798292
 20
1656.6943387039
 30
0.0
 11
2261.9769798292
 21
1656.6943387039
 31
0.0
  0
LINE
  5
457
330
1F
100
AcDbEntity
  8
0
  6
Continuous
 62
     7
370
    25
100
AcDbLine
 10
2375.9769798292
 20
1662.6943387039
 30
0.0
 11
2375.9769798292
 21
1747.6943387039
 31
0.0
  0
LINE
  5
458
330
1F
100
AcDbEntity
  8
0
  6
Continuous
 62
     7
370
    25
100
AcDbLine
 10
2260.9769798292
 20
1662.6943387039
 30
0.0
 11
2375.9769798292
 21
1662.6943387039
 31
0.0
  0
LINE
  5
459
330
1F
100
AcDbEntity
  8
0
  6
Continuous
 62
     7
370
    25
100
AcDbLine
 10
2260.9769798292
 20
1747.6943387039
 30
0.0
 11
2260.9769798292
 21
1662.6943387039
 31
0.0
  0
LINE
  5
45A
330
1F
100
AcDbEntity
  8
0
  6
Continuous
 62
     7
370
    25
100
AcDbLine
 10
2375.9769798292
 20
1747.6943387039
 30
0.0
 11
2260.9769798292
 21
1747.6943387039
 31
0.0
  0
LINE
  5
45B
330
1F
100
AcDbEntity
  8
0
  6
Continuous
 62
     7
370
    25
100
AcDbLine
 10
2272.9769798292
 20
1734.6943387039
 30
0.0
 11
2272.9769798292
 21
1675.6943387039
 31
0.0
  0
ARC
  5
45C
330
1F
100
AcDbEntity
  8
0
  6
Continuous
 62
     7
370
    25
100
AcDbCircle
 10
2275.9769798292
 20
1675.6943387039
 30
0.0
 40
3.000000000000455
100
AcDbArc
 50
180.0
 51
270.0
  0
LINE
  5
45D
330
1F
100
AcDbEntity
  8
0
  6
Continuous
 62
     7
370
    25
100
AcDbLine
 10
2275.9769798292
 20
1672.6943387039
 30
0.0
 11
2361.9769798292
 21
1672.6943387039
 31
0.0
  0
ARC
  5
45E
330
1F
100
AcDbEntity
  8
0
  6
Continuous
 62
     7
370
    25
100
AcDbCircle
 10
2361.9769798292
 20
1675.6943387039
 30
0.0
 40
3.000000000000227
100
AcDbArc
 50
270.0
 51
0.0
  0
LINE
  5
45F
330
1F
100
AcDbEntity
  8
0
  6
Continuous
 62
     7
370
    25
100
AcDbLine
 10
2364.9769798292
 20
1675.6943387039
 30
0.0
 11
2364.9769798292
 21
1734.6943387039
 31
0.0
  0
ARC
  5
460
330
1F
100
AcDbEntity
  8
0
  6
Continuous
 62
     7
370
    25
100
AcDbCircle
 10
2361.9769798292
 20
1734.6943387039
 30
0.0
 40
3.0
100
AcDbArc
 50
360.0
 51
90.0
  0
LINE
  5
461
330
1F
100
AcDbEntity
  8
0
  6
Continuous
 62
     7
370
    25
100
AcDbLine
 10
2361.9769798292
 20
1737.6943387039
 30
0.0
 11
2275.9769798292
 21
1737.6943387039
 31
0.0
  0
ARC
  5
462
330
1F
100
AcDbEntity
  8
0
  6
Continuous
 62
     7
370
    25
100
AcDbCircle
 10
2275.9769798292
 20
1734.6943387039
 30
0.0
 40
3.000000000000455
100
AcDbArc
 50
90.0
 51
180.0
  0
LINE
  5
463
330
1F
100
AcDbEntity
  8
0
  6
Continuous
 62
     7
370
    25
100
AcDbLine
 10
2375.9769798292
 20
1750.6943387039
 30
0.0
 11
2269.4769798292
 21
1750.6943387039
 31
0.0
  0
LINE
  5
464
330
1F
100
AcDbEntity
  8
0
  6
Continuous
 62
     7
370
    25
100
AcDbLine
 10
2375.9769798292
 20
1747.6943387039
 30
0.0
 11
2375.9769798292
 21
1750.6943387039
 31
0.0
  0
LINE
  5
465
330
1F
100
AcDbEntity
  8
0
  6
Continuous
 62
     7
370
    25
100
AcDbLine
 10
2260.9769798292
 20
1747.6943387039
 30
0.0
 11
2260.9769798292
 21
1750.6943387039
 31
0.0
  0
LINE
  5
466
330
1F
100
AcDbEntity
  8
0
  6
Continuous
 62
     7
370
    25
100
AcDbLine
 10
2264.4769798292
 20
1750.6943387039
 30
0.0
 11
2260.9769798292
 21
1750.6943387039
 31
0.0
  0
ARC
  5
467
330
1F
100
AcDbEntity
  8
0
  6
Continuous
 62
     7
370
    25
100
AcDbCircle
 10
2266.9769798292
 20
1752.0276720372
 30
0.0
 40
2.833333333333833
100
AcDbArc
 50
208.0724869359
 51
331.9275130641
  0
LINE
  5
468
330
1F
100
AcDbEntity
  8
0
  6
Continuous
 62
     7
370
    25
100
AcDbLine
 10
2260.9769798292
 20
1659.6943387039
 30
0.0
 11
2264.4769798292
 21
1659.6943387039
 31
0.0
  0
LINE
  5
469
330
1F
100
AcDbEntity
  8
0
  6
Continuous
 62
     7
370
    25
100
AcDbLine
 10
2260.9769798292
 20
1659.6943387039
 30
0.0
 11
2260.9769798292
 21
1662.6943387039
 31
0.0
  0
LINE
  5
46A
330
1F
100
AcDbEntity
  8
0
  6
Continuous
 62
     7
370
    25
100
AcDbLine
 10
2375.9769798292
 20
1659.6943387039
 30
0.0
 11
2375.9769798292
 21
1662.6943387039
 31
0.0
  0
LINE
  5
46B
330
1F
100
AcDbEntity
  8
0
  6
Continuous
 62
     7
370
    25
100
AcDbLine
 10
2269.4769798292
 20
1659.6943387039
 30
0.0
 11
2375.9769798292
 21
1659.6943387039
 31
0.0
  0
ARC
  5
46C
330
1F
100
AcDbEntity
  8
0
  6
Continuous
 62
     7
370
    25
100
AcDbCircle
 10
2266.9769798292
 20
1658.3610053705
 30
0.0
 40
2.833333333333699
100
AcDbArc
 50
28.0724869358
 51
151.9275130641
  0
LINE
  5
46D
330
1F
100
AcDbEntity
  8
0
  6
Continuous
 62
     7
370
    25
100
AcDbLine
 10
2378.9769798292
 20
1662.6943387039
 30
0.0
 11
2378.9769798292
 21
1747.6943387086
 31
0.0
  0
LINE
  5
46E
330
1F
100
AcDbEntity
  8
0
  6
Continuous
 62
     7
370
    25
100
AcDbLine
 10
2375.9769798292
 20
1662.6943387039
 30
0.0
 11
2378.9769798292
 21
1662.6943387039
 31
0.0
  0
LINE
  5
46F
330
1F
100
AcDbEntity
  8
0
  6
Continuous
 62
     7
370
    25
100
AcDbLine
 10
2378.9769798292
 20
1747.6943387039
 30
0.0
 11
2375.9769798292
 21
1747.6943387039
 31
0.0
  0
ARC
  5
470
330
1F
100
AcDbEntity
  8
0
  6
Continuous
 62
     7
370
    25
100
AcDbCircle
 10
2375.9769798292
 20
1662.6943387039
 30
0.0
 40
3.0
100
AcDbArc
 50
269.9999996402
 51
0.0
  0
ARC
  5
471
330
1F
100
AcDbEntity
  8
0
  6
Continuous
 62
     7
370
    25
100
AcDbCircle
 10
2375.9769798292
 20
1747.6943387039
 30
0.0
 40
3.000000000000227
100
AcDbArc
 50
0.0000001799
 51
90.0
  0
LINE
  5
472
330
1F
100
AcDbEntity
  8
0
  6
Continuous
 62
     7
370
    25
100
AcDbLine
 10
2260.9769798292
 20
1752.6943387039
 30
0.0
 11
2375.9769798292
 21
1752.6943387039
 31
0.0
  0
ARC
  5
473
330
1F
100
AcDbEntity
  8
0
  6
Continuous
 62
     7
370
    25
100
AcDbCircle
 10
2375.9769798292
 20
1747.6943387039
 30
0.0
 40
5.000000000000227
100
AcDbArc
 50
0.0
 51
90.0
  0
LINE
  5
474
330
1F
100
AcDbEntity
  8
0
  6
Continuous
 62
     7
370
    25
100
AcDbLine
 10
2380.9769798292
 20
1747.6943387039
 30
0.0
 11
2380.9769798292
 21
1662.6943387039
 31
0.0
  0
ARC
  5
475
330
1F
100
AcDbEntity
  8
0
  6
Continuous
 62
     7
370
    25
100
AcDbCircle
 10
2375.9769798292
 20
1662.6943387039
 30
0.0
 40
4.999999999999773
100
AcDbArc
 50
270.0
 51
0.0
  0
LINE
  5
476
330
1F
100
AcDbEntity
  8
0
  6
Continuous
 62
     7
370
    25
100
AcDbLine
 10
2375.9769798292
 20
1657.6943387039
 30
0.0
 11
2260.9769798292
 21
1657.6943387039
 31
0.0
  0
LINE
  5
477
330
1F
100
AcDbEntity
  8
0
  6
Continuous
 62
     7
370
    25
100
AcDbLine
 10
2260.9769798292
 20
1750.6943387039
 30
0.0
 11
2260.9769798292
 21
1752.6943387039
 31
0.0
  0
LINE
  5
478
330
1F
100
AcDbEntity
  8
0
  6
Continuous
 62
     7
370
    25
100
AcDbLine
 10
2260.9769798292
 20
1657.6943387039
 30
0.0
 11
2260.9769798292
 21
1659.6943387039
 31
0.0
  0
LINE
  5
479
330
1F
100
AcDbEntity
  8
0
  6
Continuous
 62
     7
370
    25
100
AcDbLine
 10
2267.2308242992
 20
1614.6943387038
 30
0.0
 11
2267.2269798284
 21
1614.6943387038
 31
0.0
  0
LINE
  5
47A
330
1F
100
AcDbEntity
  8
0
  6
Continuous
 62
     7
370
    25
100
AcDbLine
 10
2281.2269798284
 20
1614.6943387038
 30
0.0
 11
2267.2308242992
 21
1614.6943387038
 31
0.0
  0
LINE
  5
47B
330
1F
100
AcDbEntity
  8
0
  6
Continuous
 62
     7
370
    25
100
AcDbLine
 10
2335.9769798291
 20
1616.194338704
 30
0.0
 11
2306.0797803362
 21
1616.194338704
 31
0.0
  0
LINE
  5
47C
330
1F
100
AcDbEntity
  8
0
  6
Continuous
 62
     7
370
    25
100
AcDbLine
 10
2306.0797803362
 20
1616.194338704
 30
0.0
 11
2306.0797803362
 21
1625.194338704
 31
0.0
  0
LINE
  5
47D
330
1F
100
AcDbEntity
  8
0
  6
Continuous
 62
     7
370
    25
100
AcDbLine
 10
2335.9769798291
 20
1635.994338704
 30
0.0
 11
2305.9769798292
 21
1635.994338704
 31
0.0
  0
LINE
  5
47E
330
1F
100
AcDbEntity
  8
0
  6
Continuous
 62
     7
370
    25
100
AcDbLine
 10
2334.9769798291
 20
1615.194338704
 30
0.0
 11
2307.0729269691
 21
1615.194338704
 31
0.0
  0
LINE
  5
47F
330
1F
100
AcDbEntity
  8
0
  6
Continuous
 62
     7
370
    25
100
AcDbLine
 10
2307.0729269691
 20
1615.194338704
 30
0.0
 11
2306.0797803362
 21
1616.194338704
 31
0.0
  0
LINE
  5
480
330
1F
100
AcDbEntity
  8
0
  6
Continuous
 62
     7
370
    25
100
AcDbLine
 10
2335.7769798291
 20
1636.194338704
 30
0.0
 11
2306.1769798292
 21
1636.194338704
 31
0.0
  0
LWPOLYLINE
  5
481
330
1F
100
AcDbEntity
  8
0
  6
Continuous
 62
     7
370
    25
100
AcDbPolyline
 90
        9
 70
   128
 43
0.0
 10
2319.1008293338
 20
1636.194338704
 10
2319.015033861
 20
1636.2099121359
 10
2318.9319106481
 20
1636.2561473681
 10
2318.8540487225
 20
1636.331604318
 10
2318.7838732391
 20
1636.4339327384
 10
2318.7235699439
 20
1636.5599454198
 10
2318.6750170956
 20
1636.7057174625
 10
2318.6397269631
 20
1636.8667085244
 10
2318.6187987233
 20
1637.0379042389
  0
ARC
  5
482
330
1F
100
AcDbEntity
  8
0
  6
Continuous
 62
     7
370
    25
100
AcDbCircle
 10
2317.1649892977
 20
1637.11189557
 30
0.0
 40
0.9191498472630067
100
AcDbArc
 50
273.3737472447
 51
355.3827081636
  0
ARC
  5
483
330
1F
100
AcDbEntity
  8
0
  6
Continuous
 62
     7
370
    25
100
AcDbCircle
 10
2318.3499774364
 20
1637.5713615504
 30
0.0
 40
0.5973621911652981
100
AcDbArc
 50
243.2554258351
 51
296.7445754991
  0
LWPOLYLINE
  5
484
330
1F
100
AcDbEntity
  8
0
  6
Continuous
 62
     7
370
    25
100
AcDbPolyline
 90
        3
 70
   128
 43
0.0
 10
2321.7807623884
 20
1636.4339327384
 10
2321.8752372719
 20
1636.2561473681
 10
2321.9905934321
 20
1636.194338704
  0
LINE
  5
485
330
1F
100
AcDbEntity
  8
0
  6
Continuous
 62
     7
370
    25
100
AcDbLine
 10
2318.6187987233
 20
1637.0379042389
 30
0.0
 11
2321.7228129237
 21
1637.0379042389
 31
0.0
  0
LWPOLYLINE
  5
486
330
1F
100
AcDbEntity
  8
0
  6
Continuous
 62
     7
370
    25
100
AcDbPolyline
 90
        3
 70
   128
 43
0.0
 10
2321.7228129237
 20
1637.0379042389
 10
2321.7254687705
 20
1636.7057174625
 10
2321.7807623884
 20
1636.4339327384
  0
LWPOLYLINE
  5
487
330
1F
100
AcDbEntity
  8
0
  6
Continuous
 62
     7
370
    25
100
AcDbPolyline
 90
        3
 70
   128
 43
0.0
 10
2322.0491928784
 20
1636.4339327363
 10
2322.0508283401
 20
1636.7057174611
 10
2322.0231181905
 20
1637.0379042389
  0
LINE
  5
488
330
1F
100
AcDbEntity
  8
0
  6
Continuous
 62
     7
370
    25
100
AcDbLine
 10
2322.0231181905
 20
1637.0379042389
 30
0.0
 11
2325.4452512996
 21
1637.0379042389
 31
0.0
  0
LWPOLYLINE
  5
489
330
1F
100
AcDbEntity
  8
0
  6
Continuous
 62
     7
370
    25
100
AcDbPolyline
 90
        9
 70
   128
 43
0.0
 10
2325.4452512996
 20
1637.0379042389
 10
2325.4335837846
 20
1636.8667085244
 10
2325.4139094998
 20
1636.7057174625
 10
2325.3868412373
 20
1636.5599454198
 10
2325.3532220888
 20
1636.4339327384
 10
2325.3140991852
 20
1636.331604318
 10
2325.2706910823
 20
1636.2561473681
 10
2325.2243498064
 20
1636.2099121359
 10
2325.1765187428
 20
1636.194338704
  0
LWPOLYLINE
  5
48A
330
1F
100
AcDbEntity
  8
0
  6
Continuous
 62
     7
370
    25
100
AcDbPolyline
 90
        3
 70
   128
 43
0.0
 10
2321.9905934321
 20
1636.194338704
 10
2322.0257138217
 20
1636.2561473675
 10
2322.0491928784
 20
1636.4339327363
  0
LWPOLYLINE
  5
48B
330
1F
100
AcDbEntity
  8
0
  6
Continuous
 62
     7
370
    25
100
AcDbPolyline
 90
        3
 70
   128
 43
0.0
 10
2316.1102189501
 20
1636.4339327363
 10
2316.2749505122
 20
1636.7057174611
 10
2316.3455433411
 20
1637.0379042389
  0
LINE
  5
48C
330
1F
100
AcDbEntity
  8
0
  6
Continuous
 62
     7
370
    25
100
AcDbLine
 10
2316.3455433411
 20
1637.0379042389
 30
0.0
 11
2318.0811561628
 21
1637.0379042389
 31
0.0
  0
LWPOLYLINE
  5
48D
330
1F
100
AcDbEntity
  8
0
  6
Continuous
 62
     7
370
    25
100
AcDbPolyline
 90
        3
 70
   128
 43
0.0
 10
2315.603265674
 20
1636.194338704
 10
2315.8754146156
 20
1636.2561473675
 10
2316.1102189501
 20
1636.4339327363
  0
ARC
  5
48E
330
1F
100
AcDbEntity
  8
0
  6
Continuous
 62
     7
370
    25
100
AcDbCircle
 10
2326.8985908536
 20
1637.1687147689
 30
0.0
 40
0.974495382306368
100
AcDbArc
 50
187.7143350976
 51
269.1033892401
  0
LWPOLYLINE
  5
48F
330
1F
100
AcDbEntity
  8
0
  6
Continuous
 62
     7
370
    25
100
AcDbPolyline
 90
        8
 70
   128
 43
0.0
 10
2325.4452512994
 20
1637.0379042327
 10
2325.5990475928
 20
1636.9930335647
 10
2325.6791232106
 20
1636.9801747812
 10
2325.7535427878
 20
1636.975852607
 10
2325.818507223
 20
1636.9802493234
 10
2325.8679615304
 20
1636.9920105921
 10
2325.906914657
 20
1637.0112180978
 10
2325.9329149994
 20
1637.0379042389
  0
LWPOLYLINE
  5
490
330
1F
100
AcDbEntity
  8
0
  6
Continuous
 62
     7
370
    25
100
AcDbPolyline
 90
        3
 70
   128
 43
0.0
 10
2327.1926069357
 20
1636.4339327384
 10
2327.4677975534
 20
1636.2561473681
 10
2327.7841600886
 20
1636.194338704
  0
LINE
  5
491
330
1F
100
AcDbEntity
  8
0
  6
Continuous
 62
     7
370
    25
100
AcDbLine
 10
2325.9329149994
 20
1637.0379042389
 30
0.0
 11
2326.9005209068
 21
1637.0379042389
 31
0.0
  0
LWPOLYLINE
  5
492
330
1F
100
AcDbEntity
  8
0
  6
Continuous
 62
     7
370
    25
100
AcDbPolyline
 90
        3
 70
   128
 43
0.0
 10
2326.9005209068
 20
1637.0379042389
 10
2326.9946705908
 20
1636.7057174625
 10
2327.1926069357
 20
1636.4339327384
  0
ARC
  5
493
330
1F
100
AcDbEntity
  8
0
  6
Continuous
 62
     7
370
    25
100
AcDbCircle
 10
2320.4822647064
 20
1637.4858396906
 30
0.0
 40
1.671108753576668
100
AcDbArc
 50
320.9892283136
 51
327.624310647
  0
ARC
  5
494
330
1F
100
AcDbEntity
  8
0
  6
Continuous
 62
     7
370
    25
100
AcDbCircle
 10
2322.7520090942
 20
1637.285645965
 30
0.0
 40
1.10424909195386
100
AcDbArc
 50
218.9803668016
 51
230.4712529787
  0
LINE
  5
495
330
1F
100
AcDbEntity
  8
0
  6
Continuous
 62
     7
370
    25
100
AcDbLine
 10
2321.8697305585
 20
1637.025369698
 30
0.0
 11
2321.7228129237
 21
1637.0379042389
 31
0.0
  0
ARC
  5
496
330
1F
100
AcDbEntity
  8
0
  6
Continuous
 62
     7
370
    25
100
AcDbCircle
 10
2328.2267602377
 20
1637.1569979796
 30
0.0
 40
6.358392236780804
100
AcDbArc
 50
181.1861930228
 51
185.1068718152
  0
LINE
  5
497
330
1F
100
AcDbEntity
  8
0
  6
Continuous
 62
     7
370
    25
100
AcDbLine
 10
2322.0231181905
 20
1637.0379042389
 30
0.0
 11
2321.8697305585
 21
1637.025369698
 31
0.0
  0
LWPOLYLINE
  5
498
330
1F
100
AcDbEntity
  8
0
  6
Continuous
 62
     7
370
    25
100
AcDbPolyline
 90
        3
 70
   128
 43
0.0
 10
2315.8980729191
 20
1636.4339327384
 10
2315.756489963
 20
1636.2561473681
 10
2315.603265674
 20
1636.194338704
  0
LWPOLYLINE
  5
499
330
1F
100
AcDbEntity
  8
0
  6
Continuous
 62
     7
370
    25
100
AcDbPolyline
 90
        9
 70
   128
 43
0.0
 10
2312.4173403996
 20
1636.194338704
 10
2312.4651714632
 20
1636.2099121359
 10
2312.5115127391
 20
1636.2561473681
 10
2312.554920842
 20
1636.331604318
 10
2312.5940437456
 20
1636.4339327384
 10
2312.6276628941
 20
1636.5599454198
 10
2312.6547311566
 20
1636.7057174625
 10
2312.6744054414
 20
1636.8667085244
 10
2312.6860729565
 20
1637.0379042389
  0
LINE
  5
49A
330
1F
100
AcDbEntity
  8
0
  6
Continuous
 62
     7
370
    25
100
AcDbLine
 10
2312.6860729565
 20
1637.0379042389
 30
0.0
 11
2316.1082060291
 21
1637.0379042389
 31
0.0
  0
LWPOLYLINE
  5
49B
330
1F
100
AcDbEntity
  8
0
  6
Continuous
 62
     7
370
    25
100
AcDbPolyline
 90
        3
 70
   128
 43
0.0
 10
2316.1082060291
 20
1637.0379042389
 10
2316.0178122796
 20
1636.7057174625
 10
2315.8980729191
 20
1636.4339327384
  0
ARC
  5
49C
330
1F
100
AcDbEntity
  8
0
  6
Continuous
 62
     7
370
    25
100
AcDbCircle
 10
2315.4199964902
 20
1637.3332774798
 30
0.0
 40
1.018517567730809
100
AcDbArc
 50
297.994354949
 51
313.2167180071
  0
ARC
  5
49D
330
1F
100
AcDbEntity
  8
0
  6
Continuous
 62
     7
370
    25
100
AcDbCircle
 10
2315.6516282965
 20
1636.5337098689
 30
0.0
 40
0.4693195753578587
100
AcDbArc
 50
347.7252635696
 51
7.013291438
  0
ARC
  5
49E
330
1F
100
AcDbEntity
  8
0
  6
Continuous
 62
     7
370
    25
100
AcDbCircle
 10
2314.8999126663
 20
1637.1820855463
 30
0.0
 40
1.353414193790619
100
AcDbArc
 50
334.1047902994
 51
353.3506380244
  0
LINE
  5
49F
330
1F
100
AcDbEntity
  8
0
  6
Continuous
 62
     7
370
    25
100
AcDbLine
 10
2316.3455433411
 20
1637.0379042389
 30
0.0
 11
2316.244223157
 21
1637.025369698
 31
0.0
  0
LINE
  5
4A0
330
1F
100
AcDbEntity
  8
0
  6
Continuous
 62
     7
370
    25
100
AcDbLine
 10
2316.244223157
 20
1637.025369698
 30
0.0
 11
2316.1082060291
 21
1637.0379042389
 31
0.0
  0
LINE
  5
4A1
330
1F
100
AcDbEntity
  8
0
  6
Continuous
 62
     7
370
    25
100
AcDbLine
 10
2311.6036489823
 20
1636.2050830451
 30
0.0
 11
2311.4629684718
 21
1636.194338704
 31
0.0
  0
LWPOLYLINE
  5
4A2
330
1F
100
AcDbEntity
  8
0
  6
Continuous
 62
     7
370
    25
100
AcDbPolyline
 90
        8
 70
   128
 43
0.0
 10
2312.4133952545
 20
1637.0379042327
 10
2312.3914629647
 20
1636.9930335647
 10
2312.4051463003
 20
1636.9801747812
 10
2312.4363385292
 20
1636.975852607
 10
2312.4834240825
 20
1636.9802493234
 10
2312.5392055281
 20
1636.9920105921
 10
2312.6071688932
 20
1637.0112180978
 10
2312.6860729565
 20
1637.0379042389
  0
LWPOLYLINE
  5
4A3
330
1F
100
AcDbEntity
  8
0
  6
Continuous
 62
     7
370
    25
100
AcDbPolyline
 90
        3
 70
   128
 43
0.0
 10
2327.3600789442
 20
1636.4339327363
 10
2327.1976602743
 20
1636.7057174611
 10
2327.0878793759
 20
1637.0379042389
  0
LINE
  5
4A4
330
1F
100
AcDbEntity
  8
0
  6
Continuous
 62
     7
370
    25
100
AcDbLine
 10
2327.0878793759
 20
1637.0379042389
 30
0.0
 11
2330.1918936095
 21
1637.0379042389
 31
0.0
  0
LWPOLYLINE
  5
4A5
330
1F
100
AcDbEntity
  8
0
  6
Continuous
 62
     7
370
    25
100
AcDbPolyline
 90
        9
 70
   128
 43
0.0
 10
2330.1918936095
 20
1637.0379042389
 10
2330.2128218492
 20
1636.8667085244
 10
2330.2481119818
 20
1636.7057174625
 10
2330.2966648301
 20
1636.5599454198
 10
2330.3569681253
 20
1636.4339327384
 10
2330.4271436087
 20
1636.331604318
 10
2330.5050055343
 20
1636.2561473681
 10
2330.5881287472
 20
1636.2099121359
 10
2330.6739242199
 20
1636.194338704
  0
LWPOLYLINE
  5
4A6
330
1F
100
AcDbEntity
  8
0
  6
Continuous
 62
     7
370
    25
100
AcDbPolyline
 90
        3
 70
   128
 43
0.0
 10
2327.7841600886
 20
1636.194338704
 10
2327.5616788782
 20
1636.2561473675
 10
2327.3600789442
 20
1636.4339327363
  0
ARC
  5
4A7
330
1F
100
AcDbEntity
  8
0
  6
Continuous
 62
     7
370
    25
100
AcDbCircle
 10
2327.4855287566
 20
1636.6353143948
 30
0.0
 40
0.3554683736718157
100
AcDbArc
 50
187.1591901875
 51
214.5082446733
  0
ARC
  5
4A8
330
1F
100
AcDbEntity
  8
0
  6
Continuous
 62
     7
370
    25
100
AcDbCircle
 10
2327.774545678
 20
1637.2764559256
 30
0.0
 40
0.9389504767992529
100
AcDbArc
 50
226.8871512525
 51
243.8058075802
  0
LINE
  5
4A9
330
1F
100
AcDbEntity
  8
0
  6
Continuous
 62
     7
370
    25
100
AcDbLine
 10
2326.9722766906
 20
1637.025369698
 30
0.0
 11
2326.9005209068
 21
1637.0379042389
 31
0.0
  0
ARC
  5
4AA
330
1F
100
AcDbEntity
  8
0
  6
Continuous
 62
     7
370
    25
100
AcDbCircle
 10
2328.1056725045
 20
1637.1974647046
 30
0.0
 40
1.146386562291837
100
AcDbArc
 50
188.633850404
 51
211.938656767
  0
LINE
  5
4AB
330
1F
100
AcDbEntity
  8
0
  6
Continuous
 62
     7
370
    25
100
AcDbLine
 10
2327.0878793759
 20
1637.0379042389
 30
0.0
 11
2326.9722766906
 21
1637.025369698
 31
0.0
  0
LWPOLYLINE
  5
4AC
330
1F
100
AcDbEntity
  8
0
  6
Continuous
 62
     7
370
    25
100
AcDbPolyline
 90
        9
 70
   128
 43
0.0
 10
2330.1918936099
 20
1637.0379042327
 10
2330.2641247554
 20
1637.0107763675
 10
2330.3224568112
 20
1636.991399124
 10
2330.3657233052
 20
1636.9797038705
 10
2330.393434748
 20
1636.9757652338
 10
2330.4058962194
 20
1636.9796975488
 10
2330.4024608538
 20
1636.9913913793
 10
2330.381993205
 20
1637.0107710484
 10
2330.343911667
 20
1637.0379042389
  0
ARC
  5
4AD
330
1F
100
AcDbEntity
  8
0
  6
Continuous
 62
     7
370
    25
100
AcDbCircle
 10
2312.5047540002
 20
1623.1181528317
 30
0.0
 40
6.752098515211992
100
AcDbArc
 50
162.0921195466
 51
171.7423680328
  0
LWPOLYLINE
  5
4AE
330
1F
100
AcDbEntity
  8
0
  6
Continuous
 62
     7
370
    25
100
AcDbPolyline
 90
       11
 70
   128
 43
0.0
 10
2306.0797803362
 20
1625.194338704
 10
2306.0797570663
 20
1625.1942426422
 10
2306.0795774846
 20
1625.1934501715
 10
2306.0790819085
 20
1625.1912168784
 10
2306.0772125827
 20
1625.1827160104
 10
2306.0699612365
 20
1625.149577147
 10
2305.8577510986
 20
1624.1893801275
 10
2305.6507668822
 20
1623.3074840174
 10
2305.4525417364
 20
1622.5560924312
 10
2305.1156683048
 20
1621.5976906321
 10
2304.7574906554
 20
1621.194338704
  0
LINE
  5
4AF
330
1F
100
AcDbEntity
  8
0
  6
Continuous
 62
     7
370
    25
100
AcDbLine
 10
2306.0797803362
 20
1616.194338704
 30
0.0
 11
2281.4809490155
 21
1616.1943387039
 31
0.0
  0
LINE
  5
4B0
330
1F
100
AcDbEntity
  8
0
  6
Continuous
 62
     7
370
    25
100
AcDbLine
 10
2281.4809490155
 20
1621.1943387039
 30
0.0
 11
2281.4809490155
 21
1616.1943387039
 31
0.0
  0
LINE
  5
4B1
330
1F
100
AcDbEntity
  8
0
  6
Continuous
 62
     7
370
    25
100
AcDbLine
 10
2304.7574906554
 20
1621.194338704
 30
0.0
 11
2281.4809490155
 21
1621.1943387039
 31
0.0
  0
LINE
  5
4B2
330
1F
100
AcDbEntity
  8
0
  6
Continuous
 62
     7
370
    25
100
AcDbLine
 10
2282.4740956483
 20
1615.1943387039
 30
0.0
 11
2281.4809490155
 21
1616.1943387039
 31
0.0
  0
LINE
  5
4B3
330
1F
100
AcDbEntity
  8
0
  6
Continuous
 62
     7
370
    25
100
AcDbLine
 10
2307.0729269691
 20
1615.194338704
 30
0.0
 11
2282.4740956483
 21
1615.1943387039
 31
0.0
  0
ARC
  5
4B4
330
1F
100
AcDbEntity
  8
0
  6
Continuous
 62
     7
370
    25
100
AcDbCircle
 10
2310.6938811262
 20
1637.11189557
 30
0.0
 40
0.9191498472658373
100
AcDbArc
 50
273.3737472448
 51
355.3827081649
  0
LINE
  5
4B5
330
1F
100
AcDbEntity
  8
0
  6
Continuous
 62
     7
370
    25
100
AcDbLine
 10
2282.4740956483
 20
1622.1943387039
 30
0.0
 11
2281.4809490155
 21
1621.1943387039
 31
0.0
  0
LINE
  5
4B6
330
1F
100
AcDbEntity
  8
0
  6
Continuous
 62
     7
370
    25
100
AcDbLine
 10
2282.4740956483
 20
1622.1943387039
 30
0.0
 11
2305.3253871134
 21
1622.194338704
 31
0.0
  0
LINE
  5
4B7
330
1F
100
AcDbEntity
  8
0
  6
Continuous
 62
     7
370
    25
100
AcDbLine
 10
2281.3684792236
 20
1616.1943387039
 30
0.0
 11
2281.4809490155
 21
1616.1943387039
 31
0.0
  0
LINE
  5
4B8
330
1F
100
AcDbEntity
  8
0
  6
Continuous
 62
     7
370
    25
100
AcDbLine
 10
2281.3684792236
 20
1616.1943387039
 30
0.0
 11
2281.3684792236
 21
1621.1943387039
 31
0.0
  0
LINE
  5
4B9
330
1F
100
AcDbEntity
  8
0
  6
Continuous
 62
     7
370
    25
100
AcDbLine
 10
2281.4809490155
 20
1621.1943387039
 30
0.0
 11
2281.3684792236
 21
1621.1943387039
 31
0.0
  0
LINE
  5
4BA
330
1F
100
AcDbEntity
  8
0
  6
Continuous
 62
     7
370
    25
100
AcDbLine
 10
2282.3638752523
 20
1615.1943387039
 30
0.0
 11
2281.3684792236
 21
1616.1943387039
 31
0.0
  0
LINE
  5
4BB
330
1F
100
AcDbEntity
  8
0
  6
Continuous
 62
     7
370
    25
100
AcDbLine
 10
2282.4740956483
 20
1615.1943387039
 30
0.0
 11
2282.3638752523
 21
1615.1943387039
 31
0.0
  0
LINE
  5
4BC
330
1F
100
AcDbEntity
  8
0
  6
Continuous
 62
     7
370
    25
100
AcDbLine
 10
2281.3684792236
 20
1621.1943387039
 30
0.0
 11
2282.3638752523
 21
1622.1943387039
 31
0.0
  0
LINE
  5
4BD
330
1F
100
AcDbEntity
  8
0
  6
Continuous
 62
     7
370
    25
100
AcDbLine
 10
2282.3638752523
 20
1622.1943387039
 30
0.0
 11
2282.4740956483
 21
1622.1943387039
 31
0.0
  0
LINE
  5
4BE
330
1F
100
AcDbEntity
  8
0
  6
Continuous
 62
     7
370
    25
100
AcDbLine
 10
2264.2730195414
 20
1615.1943387038
 30
0.0
 11
2263.2776235127
 21
1616.1943387038
 31
0.0
  0
LINE
  5
4BF
330
1F
100
AcDbEntity
  8
0
  6
Continuous
 62
     7
370
    25
100
AcDbLine
 10
2281.3684792236
 20
1616.1943387039
 30
0.0
 11
2263.2776235127
 21
1616.1943387038
 31
0.0
  0
LINE
  5
4C0
330
1F
100
AcDbEntity
  8
0
  6
Continuous
 62
     7
370
    25
100
AcDbLine
 10
2282.3638752523
 20
1615.1943387039
 30
0.0
 11
2264.2730195414
 21
1615.1943387038
 31
0.0
  0
LINE
  5
4C1
330
1F
100
AcDbEntity
  8
0
  6
Continuous
 62
     7
370
    25
100
AcDbLine
 10
2263.2776235127
 20
1621.1943387038
 30
0.0
 11
2264.2730195414
 21
1622.1943387038
 31
0.0
  0
LINE
  5
4C2
330
1F
100
AcDbEntity
  8
0
  6
Continuous
 62
     7
370
    25
100
AcDbLine
 10
2281.3684792236
 20
1621.1943387039
 30
0.0
 11
2263.2776235127
 21
1621.1943387038
 31
0.0
  0
LINE
  5
4C3
330
1F
100
AcDbEntity
  8
0
  6
Continuous
 62
     7
370
    25
100
AcDbLine
 10
2264.2730195414
 20
1622.1943387038
 30
0.0
 11
2282.3638752523
 21
1622.1943387039
 31
0.0
  0
LINE
  5
4C4
330
1F
100
AcDbEntity
  8
0
  6
Continuous
 62
     7
370
    25
100
AcDbLine
 10
2263.2776235127
 20
1616.1943387038
 30
0.0
 11
2263.2776235127
 21
1621.1943387038
 31
0.0
  0
LINE
  5
4C5
330
1F
100
AcDbEntity
  8
0
  6
Continuous
 62
     7
370
    25
100
AcDbLine
 10
2263.2776235127
 20
1616.1943387038
 30
0.0
 11
2263.2269798284
 21
1616.1943387038
 31
0.0
  0
LINE
  5
4C6
330
1F
100
AcDbEntity
  8
0
  6
Continuous
 62
     7
370
    25
100
AcDbLine
 10
2264.2730195414
 20
1615.1943387038
 30
0.0
 11
2264.2269798284
 21
1615.1943387038
 31
0.0
  0
LINE
  5
4C7
330
1F
100
AcDbEntity
  8
0
  6
Continuous
 62
     7
370
    25
100
AcDbLine
 10
2263.2776235127
 20
1621.1943387038
 30
0.0
 11
2263.2269798284
 21
1621.1943387038
 31
0.0
  0
LINE
  5
4C8
330
1F
100
AcDbEntity
  8
0
  6
Continuous
 62
     7
370
    25
100
AcDbLine
 10
2264.2269798284
 20
1622.1943387038
 30
0.0
 11
2264.2730195414
 21
1622.1943387038
 31
0.0
  0
LINE
  5
4C9
330
1F
100
AcDbEntity
  8
0
  6
Continuous
 62
     7
370
    25
100
AcDbLine
 10
2261.4769798272
 20
1612.1943387057
 30
0.0
 11
2260.9769798272
 21
1612.1943387057
 31
0.0
  0
LINE
  5
4CA
330
1F
100
AcDbEntity
  8
0
  6
Continuous
 62
     7
370
    25
100
AcDbLine
 10
2261.4769798272
 20
1612.1943387057
 30
0.0
 11
2261.4769798272
 21
1596.1943387057
 31
0.0
  0
LINE
  5
4CB
330
1F
100
AcDbEntity
  8
0
  6
Continuous
 62
     7
370
    25
100
AcDbLine
 10
2260.9769798272
 20
1596.1943387057
 30
0.0
 11
2261.4769798272
 21
1596.1943387057
 31
0.0
  0
LINE
  5
4CC
330
1F
100
AcDbEntity
  8
0
  6
Continuous
 62
     7
370
    25
100
AcDbLine
 10
2260.9769798272
 20
1612.1943387057
 30
0.0
 11
2260.9769798272
 21
1596.1943387057
 31
0.0
  0
LINE
  5
4CD
330
1F
100
AcDbEntity
  8
0
  6
Continuous
 62
     7
370
    25
100
AcDbLine
 10
2261.4769798272
 20
1596.1943387057
 30
0.0
 11
2261.4769798272
 21
1595.6943387057
 31
0.0
  0
ARC
  5
4CE
330
1F
100
AcDbEntity
  8
0
  6
Continuous
 62
     7
370
    25
100
AcDbCircle
 10
2261.4769798272
 20
1596.1943387057
 30
0.0
 40
0.4999999999997726
100
AcDbArc
 50
180.0
 51
270.0000000001
  0
LINE
  5
4CF
330
1F
100
AcDbEntity
  8
0
  6
Continuous
 62
     7
370
    25
100
AcDbLine
 10
2288.4769798272
 20
1612.1943387057
 30
0.0
 11
2288.4769798272
 21
1612.6943387057
 31
0.0
  0
LINE
  5
4D0
330
1F
100
AcDbEntity
  8
0
  6
Continuous
 62
     7
370
    25
100
AcDbLine
 10
2288.4769798272
 20
1612.1943387057
 30
0.0
 11
2261.4769798272
 21
1612.1943387057
 31
0.0
  0
LINE
  5
4D1
330
1F
100
AcDbEntity
  8
0
  6
Continuous
 62
     7
370
    25
100
AcDbLine
 10
2261.4769798272
 20
1612.6943387057
 30
0.0
 11
2261.4769798272
 21
1612.1943387057
 31
0.0
  0
LINE
  5
4D2
330
1F
100
AcDbEntity
  8
0
  6
Continuous
 62
     7
370
    25
100
AcDbLine
 10
2288.4769798272
 20
1612.6943387057
 30
0.0
 11
2261.4769798272
 21
1612.6943387057
 31
0.0
  0
LINE
  5
4D3
330
1F
100
AcDbEntity
  8
0
  6
Continuous
 62
     7
370
    25
100
AcDbLine
 10
2261.4769798272
 20
1596.1943387057
 30
0.0
 11
2288.4769798272
 21
1596.1943387057
 31
0.0
  0
LINE
  5
4D4
330
1F
100
AcDbEntity
  8
0
  6
Continuous
 62
     7
370
    25
100
AcDbLine
 10
2288.4769798272
 20
1596.1943387057
 30
0.0
 11
2288.4769798272
 21
1612.1943387057
 31
0.0
  0
LINE
  5
4D5
330
1F
100
AcDbEntity
  8
0
  6
Continuous
 62
     7
370
    25
100
AcDbLine
 10
2288.4769798272
 20
1595.6943387057
 30
0.0
 11
2288.4769798272
 21
1596.1943387057
 31
0.0
  0
LINE
  5
4D6
330
1F
100
AcDbEntity
  8
0
  6
Continuous
 62
     7
370
    25
100
AcDbLine
 10
2261.4769798272
 20
1595.6943387057
 30
0.0
 11
2288.4769798272
 21
1595.6943387057
 31
0.0
  0
ARC
  5
4D7
330
1F
100
AcDbEntity
  8
0
  6
Continuous
 62
     7
370
    25
100
AcDbCircle
 10
2261.4769798272
 20
1612.1943387057
 30
0.0
 40
0.5
100
AcDbArc
 50
89.9999999999
 51
180.0
  0
LINE
  5
4D8
330
1F
100
AcDbEntity
  8
0
  6
Continuous
 62
     7
370
    25
100
AcDbLine
 10
2288.9769798272
 20
1612.1943387057
 30
0.0
 11
2288.4769798272
 21
1612.1943387057
 31
0.0
  0
LINE
  5
4D9
330
1F
100
AcDbEntity
  8
0
  6
Continuous
 62
     7
370
    25
100
AcDbLine
 10
2288.9769798272
 20
1596.1943387057
 30
0.0
 11
2288.9769798272
 21
1612.1943387057
 31
0.0
  0
LINE
  5
4DA
330
1F
100
AcDbEntity
  8
0
  6
Continuous
 62
     7
370
    25
100
AcDbLine
 10
2288.4769798272
 20
1596.1943387057
 30
0.0
 11
2288.9769798272
 21
1596.1943387057
 31
0.0
  0
ARC
  5
4DB
330
1F
100
AcDbEntity
  8
0
  6
Continuous
 62
     7
370
    25
100
AcDbCircle
 10
2288.4769798272
 20
1612.1943387057
 30
0.0
 40
0.5
100
AcDbArc
 50
360.0
 51
90.0
  0
ARC
  5
4DC
330
1F
100
AcDbEntity
  8
0
  6
Continuous
 62
     7
370
    25
100
AcDbCircle
 10
2288.4769798272
 20
1596.1943387057
 30
0.0
 40
0.5000000000009095
100
AcDbArc
 50
270.0
 51
0.0
  0
LINE
  5
4DD
330
1F
100
AcDbEntity
  8
0
  6
Continuous
 62
     7
370
    25
100
AcDbLine
 10
2305.9769798292
 20
1625.194338704
 30
0.0
 11
2306.0797803362
 21
1625.194338704
 31
0.0
  0
LINE
  5
4DE
330
1F
100
AcDbEntity
  8
0
  6
Continuous
 62
     7
370
    25
100
AcDbLine
 10
2318.6736734382
 20
1637.9383227349
 30
0.0
 11
2318.6187987233
 21
1637.0379042389
 31
0.0
  0
LINE
  5
4DF
330
1F
100
AcDbEntity
  8
0
  6
Continuous
 62
     7
370
    25
100
AcDbLine
 10
2318.0811561623
 20
1637.0379042389
 30
0.0
 11
2318.1360308753
 21
1637.9383227349
 31
0.0
  0
LINE
  5
4E0
330
1F
100
AcDbEntity
  8
0
  6
Continuous
 62
     7
370
    25
100
AcDbLine
 10
2316.4411890148
 20
1637.9383227349
 30
0.0
 11
2316.3455433411
 21
1637.0379042389
 31
0.0
  0
LINE
  5
4E1
330
1F
100
AcDbEntity
  8
0
  6
Continuous
 62
     7
370
    25
100
AcDbLine
 10
2321.7228129237
 20
1637.0379042389
 30
0.0
 11
2321.7047718159
 21
1637.9383227349
 31
0.0
  0
LINE
  5
4E2
330
1F
100
AcDbEntity
  8
0
  6
Continuous
 62
     7
370
    25
100
AcDbLine
 10
2325.4452512987
 20
1637.0379042389
 30
0.0
 11
2325.3468214932
 21
1637.9383227349
 31
0.0
  0
LINE
  5
4E3
330
1F
100
AcDbEntity
  8
0
  6
Continuous
 62
     7
370
    25
100
AcDbLine
 10
2322.0050770827
 20
1637.9383227349
 30
0.0
 11
2322.0231181905
 21
1637.0379042389
 31
0.0
  0
LINE
  5
4E4
330
1F
100
AcDbEntity
  8
0
  6
Continuous
 62
     7
370
    25
100
AcDbLine
 10
2325.8344851976
 20
1637.9383227349
 30
0.0
 11
2325.9329149994
 21
1637.0379042389
 31
0.0
  0
LINE
  5
4E5
330
1F
100
AcDbEntity
  8
0
  6
Continuous
 62
     7
370
    25
100
AcDbLine
 10
2326.9005209068
 20
1637.0379042389
 30
0.0
 11
2326.7793612538
 21
1637.9383227349
 31
0.0
  0
LINE
  5
4E6
330
1F
100
AcDbEntity
  8
0
  6
Continuous
 62
     7
370
    25
100
AcDbLine
 10
2316.1082060291
 20
1637.0379042389
 30
0.0
 11
2316.2038517028
 21
1637.9383227349
 31
0.0
  0
LINE
  5
4E7
330
1F
100
AcDbEntity
  8
0
  6
Continuous
 62
     7
370
    25
100
AcDbLine
 10
2312.8621073243
 20
1637.938322735
 30
0.0
 11
2312.6860729565
 21
1637.0379042389
 31
0.0
  0
LINE
  5
4E8
330
1F
100
AcDbEntity
  8
0
  6
Continuous
 62
     7
370
    25
100
AcDbLine
 10
2326.9667197229
 20
1637.9383227349
 30
0.0
 11
2327.0878793759
 21
1637.0379042389
 31
0.0
  0
LINE
  5
4E9
330
1F
100
AcDbEntity
  8
0
  6
Continuous
 62
     7
370
    25
100
AcDbLine
 10
2330.1918936086
 20
1637.0379042389
 30
0.0
 11
2329.9978181297
 21
1637.9383227349
 31
0.0
  0
LINE
  5
4EA
330
1F
100
AcDbEntity
  8
0
  6
Continuous
 62
     7
370
    25
100
AcDbLine
 10
2311.6100479913
 20
1637.0379042389
 30
0.0
 11
2312.3982267402
 21
1637.0379042389
 31
0.0
  0
LINE
  5
4EB
330
1F
100
AcDbEntity
  8
0
  6
Continuous
 62
     7
370
    25
100
AcDbLine
 10
2311.8041234669
 20
1637.938322735
 30
0.0
 11
2311.6100479913
 21
1637.0379042389
 31
0.0
  0
LWPOLYLINE
  5
4EC
330
1F
100
AcDbEntity
  8
0
  6
Continuous
 62
     7
370
    25
100
AcDbPolyline
 90
        3
 70
   128
 43
0.0
 10
2311.5495452631
 20
1636.984597035
 10
2311.5529994912
 20
1636.9930195832
 10
2311.6100479913
 20
1637.0379042389
  0
LINE
  5
4ED
330
1F
100
AcDbEntity
  8
FORMAT
370
    25
100
AcDbLine
 10
2310.9769798295
 20
1834.8977827263
 30
0.0
 11
2310.9769798295
 21
1921.3928910921
 31
0.0
  0
LINE
  5
4EE
330
1F
100
AcDbEntity
  8
FORMAT
370
    25
100
AcDbLine
 10
2230.9769798295
 20
1834.8977827263
 30
0.0
 11
2230.9769798295
 21
1921.3928910921
 31
0.0
  0
DIMENSION
  5
4EF
330
1F
100
AcDbEntity
  8
FORMAT
100
AcDbDimension
  2
_D_20
 10
2310.9769798295
 20
1885.5828143802
 30
0.0
 11
2377.6388149395
 21
1885.5828143802
 31
0.0
 70
   160
  1
max. +<>
 71
     2
 42
-1.0
  3
SLDDIMSTYLE4
100
AcDbAlignedDimension
 13
2260.9769798295
 23
1826.1943387039
 33
0.0
 14
2310.9769798295
 24
1921.3928910921
 34
0.0
 50
0.0
100
AcDbRotatedDimension
  0
DIMENSION
  5
500
330
1F
100
AcDbEntity
  8
FORMAT
100
AcDbDimension
  2
_D_21
 10
2230.9769798295
 20
1885.5828143802
 30
0.0
 11
2173.6808570905
 21
1885.5828143802
 31
0.0
 70
   160
  1
max. -<>
 71
     2
 42
-1.0
  3
SLDDIMSTYLE4
100
AcDbAlignedDimension
 13
2260.9769798295
 23
1826.1943387039
 33
0.0
 14
2230.9769798295
 24
1921.3928910921
 34
0.0
100
AcDbRotatedDimension
  0
DIMENSION
  5
50B
330
1F
100
AcDbEntity
  8
FORMAT
100
AcDbDimension
  2
_D_22
 10
2288.9769798272
 20
1507.4702603733
 30
0.0
 11
2343.1822771542
 21
1507.4702603733
 31
0.0
 70
   160
  1
<>
 71
     2
 42
-1.0
  3
SLDDIMSTYLE1
100
AcDbAlignedDimension
 13
2260.9769798295
 23
1621.1943387039
 33
0.0
 14
2288.9769798272
 24
1596.1943387057
 34
0.0
100
AcDbRotatedDimension
  0
DIMENSION
  5
516
330
1F
100
AcDbEntity
  8
FORMAT
100
AcDbDimension
  2
_D_23
 10
2380.9769798292
 20
1455.6072862485
 30
0.0
 11
2320.9769798294
 21
1455.6072862485
 31
0.0
 70
   160
  1
<>
 71
     2
 42
-1.0
  3
SLDDIMSTYLE0
100
AcDbAlignedDimension
 13
2260.9769798295
 23
1326.1943387039
 33
0.0
 14
2380.9769798292
 24
1662.6943387039
 34
0.0
 50
0.0
100
AcDbRotatedDimension
  0
DIMENSION
  5
51F
330
1F
100
AcDbEntity
  8
FORMAT
100
AcDbDimension
  2
_D_24
 10
2446.0378101699
 20
1752.6943387039
 30
0.0
 11
2446.0378101699
 21
1674.1943387048
 31
0.0
 70
   160
  1
<>
 71
     2
 42
-1.0
  3
SLDDIMSTYLE0
100
AcDbAlignedDimension
 13
2288.4769798272
 23
1595.6943387057
 33
0.0
 14
2375.9769798292
 24
1752.6943387039
 34
0.0
 50
90.0
100
AcDbRotatedDimension
  0
DIMENSION
  5
529
330
1F
100
AcDbEntity
  8
FORMAT
100
AcDbDimension
  2
_D_25
 10
2150.8504735441
 20
1753.6943387039
 30
0.0
 11
2150.8504735441
 21
1689.9443387039
 31
0.0
 70
   160
  1
<>
 71
     2
 42
-1.0
  3
SLDDIMSTYLE0
100
AcDbAlignedDimension
 13
2230.9769798295
 23
1626.1943387039
 33
0.0
 14
2261.9769798292
 24
1753.6943387039
 34
0.0
 50
90.0
100
AcDbRotatedDimension
  0
MTEXT
  5
533
330
1F
100
AcDbEntity
  8
FORMAT
100
AcDbMText
 10
2254.6432881852
 20
1983.3142955615
 30
0.0
 40
35.0
 41
0.0
 71
     2
 72
     1
  1
A-A
  7
SLDTEXTSTYLE0
 73
     1
 44
1.0
  0
MTEXT
  5
534
330
1F
100
AcDbEntity
  8
FORMAT
100
AcDbMText
 10
2190.6451860294
 20
1307.2009462206
 30
0.0
 40
18.5208333333
 41
0.0
 71
     1
 72
     1
  1
** Sturztiefe
  7
SLDTEXTSTYLE0
 73
     1
 44
1.0
  0
CIRCLE
  5
535
330
1F
100
AcDbEntity
  8
0
  6
Continuous
 62
     7
370
    18
100
AcDbCircle
 10
2234.9132393602
 20
1710.6864216679
 30
0.0
 40
159.3335296657087
  0
MTEXT
  5
536
330
1F
100
AcDbEntity
  8
0
  6
Continuous
 62
     7
370
    18
100
AcDbMText
 10
2378.6368787485
 20
1856.5462418471
 30
0.0
 40
35.0
 41
0.0
 71
     1
 72
     1
  1
B
  7
SLDTEXTSTYLE0
 73
     1
 44
1.0
  0
LINE
  5
537
330
1F
100
AcDbEntity
  8
0
  6
Continuous
 62
     7
370
    25
100
AcDbLine
 10
2345.5000668657
 20
727.9441398164
 30
0.0
 11
2345.5000668657
 21
755.6025613626
 31
0.0
  0
LINE
  5
538
330
1F
100
AcDbEntity
  8
0
  6
Continuous
 62
     7
370
    25
100
AcDbLine
 10
2303.5000651967
 20
754.2025585254
 30
0.0
 11
2303.5000651967
 21
727.9441398164
 31
0.0
  0
LINE
  5
539
330
1F
100
AcDbEntity
  8
0
  6
Continuous
 62
     7
370
    25
100
AcDbLine
 10
2356.7000634861
 20
888.6025492628
 30
0.0
 11
2356.7000634861
 21
890.0025521
 31
0.0
  0
LINE
  5
53A
330
1F
100
AcDbEntity
  8
0
  6
Continuous
 62
     7
370
    25
100
AcDbLine
 10
2249.2500647795
 20
695.4025593181
 30
0.0
 11
2249.2500647795
 21
692.6025588592
 31
0.0
  0
LINE
  5
53B
330
1F
100
AcDbEntity
  8
0
  6
Continuous
 62
     7
370
    25
100
AcDbLine
 10
2268.8500660364
 20
692.6025588592
 30
0.0
 11
2268.8500660364
 21
695.4025593181
 31
0.0
  0
LINE
  5
53C
330
1F
100
AcDbEntity
  8
0
  6
Continuous
 62
     7
370
    25
100
AcDbLine
 10
2266.0500655775
 20
695.4025593181
 30
0.0
 11
2266.0500655775
 21
696.1025607367
 31
0.0
  0
LINE
  5
53D
330
1F
100
AcDbEntity
  8
0
  6
Continuous
 62
     7
370
    25
100
AcDbLine
 10
2252.0500652385
 20
696.1025607367
 30
0.0
 11
2252.0500652385
 21
695.4025593181
 31
0.0
  0
LINE
  5
53E
330
1F
100
AcDbEntity
  8
0
  6
Continuous
 62
     7
370
    25
100
AcDbLine
 10
2303.5000651967
 20
725.2225582083
 30
0.0
 11
2303.5000651967
 21
710.1025578161
 31
0.0
  0
LINE
  5
53F
330
1F
100
AcDbEntity
  8
0
  6
Continuous
 62
     7
370
    25
100
AcDbLine
 10
2345.5000668657
 20
697.5025583585
 30
0.0
 11
2345.5000668657
 21
725.2225582083
 31
0.0
  0
LINE
  5
540
330
1F
100
AcDbEntity
  8
0
  6
Continuous
 62
     7
370
    25
100
AcDbLine
 10
2344.1000640285
 20
696.1025607367
 30
0.0
 11
2345.5000668657
 21
697.5025583585
 31
0.0
  0
LINE
  5
541
330
1F
100
AcDbEntity
  8
0
  6
Continuous
 62
     7
370
    25
100
AcDbLine
 10
2345.5000668657
 20
725.2225582083
 30
0.0
 11
2345.2200673413
 21
725.5025577327
 31
0.0
  0
LINE
  5
542
330
1F
100
AcDbEntity
  8
0
  6
Continuous
 62
     7
370
    25
100
AcDbLine
 10
2303.7800647211
 20
725.5025577327
 30
0.0
 11
2303.5000651967
 21
725.2225582083
 31
0.0
  0
LWPOLYLINE
  5
543
330
1F
100
AcDbEntity
  8
0
  6
Continuous
 62
     7
370
    25
100
AcDbPolyline
 90
       12
 70
   128
 43
0.0
 10
2312.4800719213
 20
726.633732446
 10
2312.3261053008
 20
726.2150656958
 10
2312.0676349741
 20
725.8843724211
 10
2311.9122862708
 20
725.7578779539
 10
2311.7529034507
 20
725.6607253631
 10
2311.6040557516
 20
725.5923357387
 10
2311.4800281715
 20
725.548322924
 10
2311.3944303137
 20
725.5227204939
 10
2311.3602381092
 20
725.5096506854
 10
2311.3894000542
 20
725.5041901549
 10
2311.4914368731
 20
725.5026620408
 10
2311.6112451893
 20
725.5025942405
  0
LINE
  5
544
330
1F
100
AcDbEntity
  8
0
  6
Continuous
 62
     7
370
    25
100
AcDbLine
 10
2312.7362605077
 20
727.9441398164
 30
0.0
 11
2312.4616876137
 21
726.5396882375
 31
0.0
  0
LWPOLYLINE
  5
545
330
1F
100
AcDbEntity
  8
0
  6
Continuous
 62
     7
370
    25
100
AcDbPolyline
 90
        4
 70
   128
 43
0.0
 10
2338.8224795353
 20
725.5025890251
 10
2338.8779297364
 20
725.5026255329
 10
2338.9138117325
 20
725.5040962776
 10
2338.9127895129
 20
725.5043153246
  0
ARC
  5
546
330
1F
100
AcDbEntity
  8
0
  6
Continuous
 62
     7
370
    25
100
AcDbCircle
 10
2339.089904472
 20
726.9182123152
 30
0.0
 40
1.422867958274684
100
AcDbArc
 50
192.614243731
 51
261.832694584
  0
LWPOLYLINE
  5
547
330
1F
100
AcDbEntity
  8
0
  6
Continuous
 62
     7
370
    25
100
AcDbPolyline
 90
        3
 70
   128
 43
0.0
 10
2303.2870080215
 20
708.6220291038
 10
2303.1971465689
 20
708.1409756621
 10
2303.0769027662
 20
707.59729562
  0
LINE
  5
548
330
1F
100
AcDbEntity
  8
0
  6
Continuous
 62
     7
370
    25
100
AcDbLine
 10
2337.7013862026
 20
726.6074728747
 30
0.0
 11
2337.4132819366
 21
727.9441398164
 31
0.0
  0
ARC
  5
549
330
1F
100
AcDbEntity
  8
0
  6
Continuous
 62
     7
370
    25
100
AcDbCircle
 10
2299.3000793764
 20
710.1025614715
 30
0.0
 40
4.199985820376923
100
AcDbArc
 50
347.4491213423
 51
359.9999501334
  0
LINE
  5
54A
330
1F
100
AcDbEntity
  8
0
  6
Continuous
 62
     7
370
    25
100
AcDbLine
 10
2311.5868501258
 20
727.9441398164
 30
0.0
 11
2311.2987484676
 21
726.6074728747
 31
0.0
  0
ARC
  5
54B
330
1F
100
AcDbEntity
  8
0
  6
Continuous
 62
     7
370
    25
100
AcDbCircle
 10
2309.8569143294
 20
726.9486812145
 30
0.0
 40
1.481656253689189
100
AcDbArc
 50
282.5733271632
 51
346.686151955
  0
LINE
  5
54C
330
1F
100
AcDbEntity
  8
0
  6
Continuous
 62
     7
370
    25
100
AcDbLine
 10
2243.6500664693
 20
697.5025583585
 30
0.0
 11
2245.0500666988
 21
696.1025607367
 31
0.0
  0
LINE
  5
54D
330
1F
100
AcDbEntity
  8
0
  6
Continuous
 62
     7
370
    25
100
AcDbLine
 10
2245.0500666988
 20
705.9025597354
 30
0.0
 11
2243.6500664693
 21
704.5025621136
 31
0.0
  0
LINE
  5
54E
330
1F
100
AcDbEntity
  8
0
  6
Continuous
 62
     7
370
    25
100
AcDbLine
 10
2243.6500664693
 20
704.5025621136
 30
0.0
 11
2243.6500664693
 21
697.5025583585
 31
0.0
  0
ARC
  5
54F
330
1F
100
AcDbEntity
  8
0
  6
Continuous
 62
     7
370
    18
100
AcDbCircle
 10
2204.010826258
 20
829.7914861543
 30
0.0
 40
223.0669515722726
100
AcDbArc
 50
253.9932732324
 51
279.4147399404
  0
LINE
  5
550
330
1F
100
AcDbEntity
  8
0
  6
Continuous
 62
     7
370
    25
100
AcDbLine
 10
2142.5000674915
 20
615.3729901244
 30
0.0
 11
2142.5000674915
 21
739.5025600274
 31
0.0
  0
LINE
  5
551
330
1F
100
AcDbEntity
  8
0
  6
Continuous
 62
     7
370
    25
100
AcDbLine
 10
2198.5000662398
 20
704.5025621136
 30
0.0
 11
2198.5000662398
 21
739.5025600274
 31
0.0
  0
LINE
  5
552
330
1F
100
AcDbEntity
  8
0
  6
Continuous
 62
     7
370
    25
100
AcDbLine
 10
2198.5000662398
 20
704.5025621136
 30
0.0
 11
2240.5000653011
 21
704.5025621136
 31
0.0
  0
LINE
  5
553
330
1F
100
AcDbEntity
  8
0
  6
Continuous
 62
     7
370
    25
100
AcDbLine
 10
2240.5000653011
 20
704.5025621136
 30
0.0
 11
2240.5000653011
 21
691.9025574406
 31
0.0
  0
LINE
  5
554
330
1F
100
AcDbEntity
  8
0
  6
Continuous
 62
     7
370
    25
100
AcDbLine
 10
2240.5000653011
 20
669.5025589844
 30
0.0
 11
2240.5000653011
 21
609.7292215159
 31
0.0
  0
LINE
  5
555
330
1F
100
AcDbEntity
  8
0
  6
Continuous
 62
     7
370
    25
100
AcDbLine
 10
2142.5000674915
 20
739.5025600274
 30
0.0
 11
2198.5000662398
 21
739.5025600274
 31
0.0
  0
LINE
  5
556
330
1F
100
AcDbEntity
  8
0
  6
Continuous
 62
     7
370
    25
100
AcDbLine
 10
2240.5000653011
 20
991.5025596102
 30
0.0
 11
2240.5000653011
 21
888.6025492628
 31
0.0
  0
LINE
  5
557
330
1F
100
AcDbEntity
  8
0
  6
Continuous
 62
     7
370
    25
100
AcDbLine
 10
2240.5000653011
 20
755.6025613626
 30
0.0
 11
2240.5000653011
 21
711.5025606533
 31
0.0
  0
LINE
  5
558
330
1F
100
AcDbEntity
  8
0
  6
Continuous
 62
     7
370
    25
100
AcDbLine
 10
2240.5000653011
 20
711.5025606533
 30
0.0
 11
2198.5000662398
 21
711.5025606533
 31
0.0
  0
LINE
  5
559
330
1F
100
AcDbEntity
  8
0
  6
Continuous
 62
     7
370
    25
100
AcDbLine
 10
2198.5000662398
 20
711.5025606533
 30
0.0
 11
2198.5000662398
 21
746.5025637825
 31
0.0
  0
LINE
  5
55A
330
1F
100
AcDbEntity
  8
0
  6
Continuous
 62
     7
370
    25
100
AcDbLine
 10
2198.5000662398
 20
746.5025637825
 30
0.0
 11
2142.5000674915
 21
746.5025637825
 31
0.0
  0
LINE
  5
55B
330
1F
100
AcDbEntity
  8
0
  6
Continuous
 62
     7
370
    25
100
AcDbLine
 10
2142.5000674915
 20
991.5025596102
 30
0.0
 11
2240.5000653011
 21
991.5025596102
 31
0.0
  0
LINE
  5
55C
330
1F
100
AcDbEntity
  8
0
  6
Continuous
 62
     7
370
    25
100
AcDbLine
 10
2142.5000674915
 20
991.5025596102
 30
0.0
 11
2142.5000674915
 21
746.5025637825
 31
0.0
  0
LINE
  5
55D
330
1F
100
AcDbEntity
  8
0
  6
Continuous
 62
     7
370
    25
100
AcDbLine
 10
2240.5000653011
 20
704.5025621136
 30
0.0
 11
2240.5000653011
 21
711.5025606533
 31
0.0
  0
LINE
  5
55E
330
1F
100
AcDbEntity
  8
0
  6
Continuous
 62
     7
370
    25
100
AcDbLine
 10
2142.5000674915
 20
746.5025637825
 30
0.0
 11
2142.5000674915
 21
739.5025600274
 31
0.0
  0
LINE
  5
55F
330
1F
100
AcDbEntity
  8
0
  6
Continuous
 62
     7
370
    25
100
AcDbLine
 10
2306.001775701
 20
727.9441398164
 30
0.0
 11
2345.5000668657
 21
727.9441398164
 31
0.0
  0
LINE
  5
560
330
1F
100
AcDbEntity
  8
0
  6
Continuous
 62
     7
370
    25
100
AcDbLine
 10
2303.5000651967
 20
727.9441398164
 30
0.0
 11
2306.001775701
 21
727.9441398164
 31
0.0
  0
LINE
  5
561
330
1F
100
AcDbEntity
  8
0
  6
Continuous
 62
     7
370
    25
100
AcDbLine
 10
2241.9000655305
 20
888.6025492628
 30
0.0
 11
2241.9000655305
 21
890.0025521
 31
0.0
  0
LINE
  5
562
330
1F
100
AcDbEntity
  8
0
  6
Continuous
 62
     7
370
    25
100
AcDbLine
 10
2241.9000655305
 20
890.0025521
 30
0.0
 11
2324.5000660312
 21
890.0025521
 31
0.0
  0
LINE
  5
563
330
1F
100
AcDbEntity
  8
0
  6
Continuous
 62
     7
370
    25
100
AcDbLine
 10
2324.5000660312
 20
890.0025521
 30
0.0
 11
2324.5000660312
 21
888.6025492628
 31
0.0
  0
LINE
  5
564
330
1F
100
AcDbEntity
  8
0
  6
Continuous
 62
     7
370
    25
100
AcDbLine
 10
2324.5000660312
 20
890.0025521
 30
0.0
 11
2356.7000634861
 21
890.0025521
 31
0.0
  0
LINE
  5
565
330
1F
100
AcDbEntity
  8
0
  6
Continuous
 62
     7
370
    25
100
AcDbLine
 10
2320.3000679505
 20
755.6025613626
 30
0.0
 11
2320.3000679505
 21
754.2025585254
 31
0.0
  0
LINE
  5
566
330
1F
100
AcDbEntity
  8
0
  6
Continuous
 62
     7
370
    25
100
AcDbLine
 10
2241.9000655305
 20
754.2025585254
 30
0.0
 11
2241.9000655305
 21
755.6025613626
 31
0.0
  0
LINE
  5
567
330
1F
100
AcDbEntity
  8
0
  6
Continuous
 62
     7
370
    25
100
AcDbLine
 10
2320.3000679505
 20
754.2025585254
 30
0.0
 11
2241.9000655305
 21
754.2025585254
 31
0.0
  0
LINE
  5
568
330
1F
100
AcDbEntity
  8
0
  6
Continuous
 62
     7
370
    25
100
AcDbLine
 10
2401.5000708294
 20
762.6025546869
 30
0.0
 11
2401.5000708294
 21
881.6025559386
 31
0.0
  0
LINE
  5
569
330
1F
100
AcDbEntity
  8
0
  6
Continuous
 62
     7
370
    25
100
AcDbLine
 10
2240.5000653011
 20
762.6025546869
 30
0.0
 11
2401.5000708294
 21
762.6025546869
 31
0.0
  0
LINE
  5
56A
330
1F
100
AcDbEntity
  8
0
  6
Continuous
 62
     7
370
    25
100
AcDbLine
 10
2240.5000653011
 20
881.6025559386
 30
0.0
 11
2240.5000653011
 21
762.6025546869
 31
0.0
  0
LINE
  5
56B
330
1F
100
AcDbEntity
  8
0
  6
Continuous
 62
     7
370
    25
100
AcDbLine
 10
2401.5000708294
 20
881.6025559386
 30
0.0
 11
2240.5000653011
 21
881.6025559386
 31
0.0
  0
LINE
  5
56C
330
1F
100
AcDbEntity
  8
0
  6
Continuous
 62
     7
370
    25
100
AcDbLine
 10
2257.3000654471
 20
863.4025607785
 30
0.0
 11
2257.3000654471
 21
780.8025602778
 31
0.0
  0
ARC
  5
56D
330
1F
100
AcDbEntity
  8
0
  6
Continuous
 62
     7
370
    25
100
AcDbCircle
 10
2261.5000583378
 20
780.8025550877
 30
0.0
 40
4.199992890686214
100
AcDbArc
 50
179.999929198
 51
270.0001063759
  0
LINE
  5
56E
330
1F
100
AcDbEntity
  8
0
  6
Continuous
 62
     7
370
    25
100
AcDbLine
 10
2261.5000661355
 20
776.6025621971
 30
0.0
 11
2381.9000624013
 21
776.6025621971
 31
0.0
  0
ARC
  5
56F
330
1F
100
AcDbEntity
  8
0
  6
Continuous
 62
     7
370
    25
100
AcDbCircle
 10
2381.9000668931
 20
780.8025662168
 30
0.0
 40
4.20000401973595
100
AcDbArc
 50
269.9999387234
 51
359.9999189811
  0
LINE
  5
570
330
1F
100
AcDbEntity
  8
0
  6
Continuous
 62
     7
370
    25
100
AcDbLine
 10
2386.1000709128
 20
780.8025602778
 30
0.0
 11
2386.1000709128
 21
863.4025607785
 31
0.0
  0
ARC
  5
571
330
1F
100
AcDbEntity
  8
0
  6
Continuous
 62
     7
370
    25
100
AcDbCircle
 10
2381.9000312798
 20
863.402529657
 30
0.0
 40
4.200039633140729
100
AcDbArc
 50
0.0004245507
 51
89.9995754494
  0
LINE
  5
572
330
1F
100
AcDbEntity
  8
0
  6
Continuous
 62
     7
370
    25
100
AcDbLine
 10
2381.9000624013
 20
867.60256929
 30
0.0
 11
2261.5000661355
 21
867.60256929
 31
0.0
  0
ARC
  5
573
330
1F
100
AcDbEntity
  8
0
  6
Continuous
 62
     7
370
    25
100
AcDbCircle
 10
2261.5000939509
 20
863.4025407862
 30
0.0
 40
4.200028503890113
100
AcDbArc
 50
90.0003794511
 51
179.9997272705
  0
LINE
  5
574
330
1F
100
AcDbEntity
  8
0
  6
Continuous
 62
     7
370
    25
100
AcDbLine
 10
2401.5000708294
 20
885.8025644501
 30
0.0
 11
2252.4000659478
 21
885.8025644501
 31
0.0
  0
LINE
  5
575
330
1F
100
AcDbEntity
  8
0
  6
Continuous
 62
     7
370
    25
100
AcDbLine
 10
2401.5000708294
 20
881.6025559386
 30
0.0
 11
2401.5000708294
 21
885.8025644501
 31
0.0
  0
LINE
  5
576
330
1F
100
AcDbEntity
  8
0
  6
Continuous
 62
     7
370
    25
100
AcDbLine
 10
2240.5000653011
 20
881.6025559386
 30
0.0
 11
2240.5000653011
 21
885.8025644501
 31
0.0
  0
LINE
  5
577
330
1F
100
AcDbEntity
  8
0
  6
Continuous
 62
     7
370
    25
100
AcDbLine
 10
2245.4000648004
 20
885.8025644501
 30
0.0
 11
2240.5000653011
 21
885.8025644501
 31
0.0
  0
ARC
  5
578
330
1F
100
AcDbEntity
  8
0
  6
Continuous
 62
     7
370
    25
100
AcDbCircle
 10
2248.9000653741
 20
887.6692304912
 30
0.0
 40
3.966666878480581
100
AcDbArc
 50
208.0724750633
 51
331.9275249367
  0
LINE
  5
579
330
1F
100
AcDbEntity
  8
0
  6
Continuous
 62
     7
370
    25
100
AcDbLine
 10
2240.5000653011
 20
758.4025566061
 30
0.0
 11
2245.4000648004
 21
758.4025566061
 31
0.0
  0
LINE
  5
57A
330
1F
100
AcDbEntity
  8
0
  6
Continuous
 62
     7
370
    25
100
AcDbLine
 10
2240.5000653011
 20
758.4025566061
 30
0.0
 11
2240.5000653011
 21
762.6025546869
 31
0.0
  0
LINE
  5
57B
330
1F
100
AcDbEntity
  8
0
  6
Continuous
 62
     7
370
    25
100
AcDbLine
 10
2401.5000708294
 20
758.4025566061
 30
0.0
 11
2401.5000708294
 21
762.6025546869
 31
0.0
  0
LINE
  5
57C
330
1F
100
AcDbEntity
  8
0
  6
Continuous
 62
     7
370
    25
100
AcDbLine
 10
2252.4000659478
 20
758.4025566061
 30
0.0
 11
2401.5000708294
 21
758.4025566061
 31
0.0
  0
ARC
  5
57D
330
1F
100
AcDbEntity
  8
0
  6
Continuous
 62
     7
370
    25
100
AcDbCircle
 10
2248.9000653741
 20
756.5358971621
 30
0.0
 40
3.966663773988007
100
AcDbArc
 50
28.0723909839
 51
151.9276090161
  0
LINE
  5
57E
330
1F
100
AcDbEntity
  8
0
  6
Continuous
 62
     7
370
    25
100
AcDbLine
 10
2405.7000689101
 20
762.6025546869
 30
0.0
 11
2405.7000689101
 21
881.6025559386
 31
0.0
  0
LINE
  5
57F
330
1F
100
AcDbEntity
  8
0
  6
Continuous
 62
     7
370
    25
100
AcDbLine
 10
2401.5000708294
 20
762.6025546869
 30
0.0
 11
2405.7000689101
 21
762.6025546869
 31
0.0
  0
LINE
  5
580
330
1F
100
AcDbEntity
  8
0
  6
Continuous
 62
     7
370
    25
100
AcDbLine
 10
2405.7000689101
 20
881.6025559386
 30
0.0
 11
2401.5000708294
 21
881.6025559386
 31
0.0
  0
ARC
  5
581
330
1F
100
AcDbEntity
  8
0
  6
Continuous
 62
     7
370
    25
100
AcDbCircle
 10
2401.5000470837
 20
762.6025784326
 30
0.0
 40
4.200021826480502
100
AcDbArc
 50
270.0003239334
 51
359.9996760666
  0
ARC
  5
582
330
1F
100
AcDbEntity
  8
0
  6
Continuous
 62
     7
370
    25
100
AcDbCircle
 10
2401.5000648904
 20
881.6025604304
 30
0.0
 40
4.200004019735516
100
AcDbArc
 50
359.9999387234
 51
89.9999189811
  0
LINE
  5
583
330
1F
100
AcDbEntity
  8
0
  6
Continuous
 62
     7
370
    25
100
AcDbLine
 10
2240.5000653011
 20
888.6025492628
 30
0.0
 11
2401.5000708294
 21
888.6025492628
 31
0.0
  0
ARC
  5
584
330
1F
100
AcDbEntity
  8
0
  6
Continuous
 62
     7
370
    25
100
AcDbCircle
 10
2401.500093067
 20
881.6025781762
 30
0.0
 40
6.999971086655103
100
AcDbArc
 50
359.9998179815
 51
90.0001820185
  0
LINE
  5
585
330
1F
100
AcDbEntity
  8
0
  6
Continuous
 62
     7
370
    25
100
AcDbLine
 10
2408.5000641537
 20
881.6025559386
 30
0.0
 11
2408.5000641537
 21
762.6025546869
 31
0.0
  0
ARC
  5
586
330
1F
100
AcDbEntity
  8
0
  6
Continuous
 62
     7
370
    25
100
AcDbCircle
 10
2401.5000752606
 20
762.6025502556
 30
0.0
 40
6.999988893060087
100
AcDbArc
 50
269.9999637299
 51
0.0000362701
  0
LINE
  5
587
330
1F
100
AcDbEntity
  8
0
  6
Continuous
 62
     7
370
    25
100
AcDbLine
 10
2401.5000708294
 20
755.6025613626
 30
0.0
 11
2240.5000653011
 21
755.6025613626
 31
0.0
  0
LINE
  5
588
330
1F
100
AcDbEntity
  8
0
  6
Continuous
 62
     7
370
    25
100
AcDbLine
 10
2240.5000653011
 20
885.8025644501
 30
0.0
 11
2240.5000653011
 21
888.6025492628
 31
0.0
  0
LINE
  5
589
330
1F
100
AcDbEntity
  8
0
  6
Continuous
 62
     7
370
    25
100
AcDbLine
 10
2240.5000653011
 20
755.6025613626
 30
0.0
 11
2240.5000653011
 21
758.4025566061
 31
0.0
  0
LINE
  5
58A
330
1F
100
AcDbEntity
  8
0
  6
Continuous
 62
     7
370
    25
100
AcDbLine
 10
2249.2554470789
 20
695.4025593181
 30
0.0
 11
2249.2500647795
 21
695.4025593181
 31
0.0
  0
LINE
  5
58B
330
1F
100
AcDbEntity
  8
0
  6
Continuous
 62
     7
370
    25
100
AcDbLine
 10
2268.8500660364
 20
695.4025593181
 30
0.0
 11
2249.2554470789
 21
695.4025593181
 31
0.0
  0
LINE
  5
58C
330
1F
100
AcDbEntity
  8
0
  6
Continuous
 62
     7
370
    25
100
AcDbLine
 10
2345.5000668657
 20
697.5025583585
 30
0.0
 11
2303.6439869445
 21
697.5025583585
 31
0.0
  0
LINE
  5
58D
330
1F
100
AcDbEntity
  8
0
  6
Continuous
 62
     7
370
    25
100
AcDbLine
 10
2303.6439869445
 20
697.5025583585
 30
0.0
 11
2303.6439869445
 21
710.1025578161
 31
0.0
  0
LINE
  5
58E
330
1F
100
AcDbEntity
  8
0
  6
Continuous
 62
     7
370
    25
100
AcDbLine
 10
2345.5000668657
 20
725.2225582083
 30
0.0
 11
2303.5000651967
 21
725.2225582083
 31
0.0
  0
LINE
  5
58F
330
1F
100
AcDbEntity
  8
0
  6
Continuous
 62
     7
370
    25
100
AcDbLine
 10
2344.1000640285
 20
696.1025607367
 30
0.0
 11
2305.0343908262
 21
696.1025607367
 31
0.0
  0
LINE
  5
590
330
1F
100
AcDbEntity
  8
0
  6
Continuous
 62
     7
370
    25
100
AcDbLine
 10
2305.0343908262
 20
696.1025607367
 30
0.0
 11
2303.6439869445
 21
697.5025583585
 31
0.0
  0
LINE
  5
591
330
1F
100
AcDbEntity
  8
0
  6
Continuous
 62
     7
370
    25
100
AcDbLine
 10
2345.2200673413
 20
725.5025577327
 30
0.0
 11
2303.7800647211
 21
725.5025577327
 31
0.0
  0
LWPOLYLINE
  5
592
330
1F
100
AcDbEntity
  8
0
  6
Continuous
 62
     7
370
    25
100
AcDbPolyline
 90
        9
 70
   128
 43
0.0
 10
2321.873456974
 20
725.5025577327
 10
2321.7533409488
 20
725.5243633469
 10
2321.6369695854
 20
725.5890917559
 10
2321.5279623759
 20
725.6947298129
 10
2321.4297145498
 20
725.8379918118
 10
2321.3452927661
 20
726.0144081493
 10
2321.2773203742
 20
726.2184922179
 10
2321.2279096138
 20
726.4438760062
 10
2321.198614676
 20
726.6835500081
  0
ARC
  5
593
330
1F
100
AcDbEntity
  8
0
  6
Continuous
 62
     7
370
    25
100
AcDbCircle
 10
2319.1632732407
 20
726.7871420526
 30
0.0
 40
1.286814831186422
100
AcDbArc
 50
273.3739959661
 51
355.3825395405
  0
ARC
  5
594
330
1F
100
AcDbEntity
  8
0
  6
Continuous
 62
     7
370
    25
100
AcDbCircle
 10
2320.8222631258
 20
727.4304282898
 30
0.0
 40
0.8363418301896369
100
AcDbArc
 50
243.2564904478
 51
296.7435095522
  0
LWPOLYLINE
  5
595
330
1F
100
AcDbEntity
  8
0
  6
Continuous
 62
     7
370
    25
100
AcDbPolyline
 90
        3
 70
   128
 43
0.0
 10
2325.6253629815
 20
725.8379918118
 10
2325.7576256883
 20
725.5890917559
 10
2325.9191259634
 20
725.5025577327
  0
LINE
  5
596
330
1F
100
AcDbEntity
  8
0
  6
Continuous
 62
     7
370
    25
100
AcDbLine
 10
2321.198614676
 20
726.6835500081
 30
0.0
 11
2325.5442321193
 21
726.6835500081
 31
0.0
  0
LWPOLYLINE
  5
597
330
1F
100
AcDbEntity
  8
0
  6
Continuous
 62
     7
370
    25
100
AcDbPolyline
 90
        3
 70
   128
 43
0.0
 10
2325.5442321193
 20
726.6835500081
 10
2325.5479507041
 20
726.2184922179
 10
2325.6253629815
 20
725.8379918118
  0
LWPOLYLINE
  5
598
330
1F
100
AcDbEntity
  8
0
  6
Continuous
 62
     7
370
    25
100
AcDbPolyline
 90
        3
 70
   128
 43
0.0
 10
2326.0011643064
 20
725.8379918118
 10
2326.0034538698
 20
726.2184922179
 10
2325.9646616769
 20
726.6835500081
  0
LINE
  5
599
330
1F
100
AcDbEntity
  8
0
  6
Continuous
 62
     7
370
    25
100
AcDbLine
 10
2325.9646616769
 20
726.6835500081
 30
0.0
 11
2330.7556435358
 21
726.6835500081
 31
0.0
  0
LWPOLYLINE
  5
59A
330
1F
100
AcDbEntity
  8
0
  6
Continuous
 62
     7
370
    25
100
AcDbPolyline
 90
        9
 70
   128
 43
0.0
 10
2330.7556435358
 20
726.6835500081
 10
2330.7393088829
 20
726.4438760062
 10
2330.7117663216
 20
726.2184922179
 10
2330.6738711786
 20
726.0144081493
 10
2330.6268073511
 20
725.8379918118
 10
2330.5720351529
 20
725.6947298129
 10
2330.5112600219
 20
725.5890917559
 10
2330.4463855815
 20
725.5243633469
 10
2330.3794197631
 20
725.5025577327
  0
LWPOLYLINE
  5
59B
330
1F
100
AcDbEntity
  8
0
  6
Continuous
 62
     7
370
    25
100
AcDbPolyline
 90
        3
 70
   128
 43
0.0
 10
2325.9191259634
 20
725.5025577327
 10
2325.9682915997
 20
725.5890917559
 10
2326.0011643064
 20
725.8379918118
  0
LWPOLYLINE
  5
59C
330
1F
100
AcDbEntity
  8
0
  6
Continuous
 62
     7
370
    25
100
AcDbPolyline
 90
        3
 70
   128
 43
0.0
 10
2317.6866017175
 20
725.8379918118
 10
2317.9172243816
 20
726.2184922179
 10
2318.0160537255
 20
726.6835500081
  0
LINE
  5
59D
330
1F
100
AcDbEntity
  8
0
  6
Continuous
 62
     7
370
    25
100
AcDbLine
 10
2318.0160537255
 20
726.6835500081
 30
0.0
 11
2320.4459115755
 21
726.6835500081
 31
0.0
  0
LWPOLYLINE
  5
59E
330
1F
100
AcDbEntity
  8
0
  6
Continuous
 62
     7
370
    25
100
AcDbPolyline
 90
        3
 70
   128
 43
0.0
 10
2316.9768657428
 20
725.5025577327
 10
2317.3578746509
 20
725.5890917559
 10
2317.6866017175
 20
725.8379918118
  0
ARC
  5
59F
330
1F
100
AcDbEntity
  8
0
  6
Continuous
 62
     7
370
    25
100
AcDbCircle
 10
2332.7903267258
 20
726.8666883844
 30
0.0
 40
1.364297774919348
100
AcDbArc
 50
187.7144649984
 51
269.1031788837
  0
LWPOLYLINE
  5
5A0
330
1F
100
AcDbEntity
  8
0
  6
Continuous
 62
     7
370
    25
100
AcDbPolyline
 90
        8
 70
   128
 43
0.0
 10
2330.7556435358
 20
726.6835500081
 10
2330.9709615898
 20
726.6207304378
 10
2331.0830667508
 20
726.6027320703
 10
2331.1872549248
 20
726.5966769834
 10
2331.2782063973
 20
726.6028363784
 10
2331.3474409175
 20
726.6193014165
 10
2331.401973207
 20
726.646192052
 10
2331.4383767438
 20
726.6835500081
  0
LWPOLYLINE
  5
5A1
330
1F
100
AcDbEntity
  8
0
  6
Continuous
 62
     7
370
    25
100
AcDbPolyline
 90
        3
 70
   128
 43
0.0
 10
2333.2019455624
 20
725.8379918118
 10
2333.5872128498
 20
725.5890917559
 10
2334.0301155937
 20
725.5025577327
  0
LINE
  5
5A2
330
1F
100
AcDbEntity
  8
0
  6
Continuous
 62
     7
370
    25
100
AcDbLine
 10
2331.4383767438
 20
726.6835500081
 30
0.0
 11
2332.7930211913
 21
726.6835500081
 31
0.0
  0
LWPOLYLINE
  5
5A3
330
1F
100
AcDbEntity
  8
0
  6
Continuous
 62
     7
370
    25
100
AcDbPolyline
 90
        3
 70
   128
 43
0.0
 10
2332.7930211913
 20
726.6835500081
 10
2332.9248353732
 20
726.2184922179
 10
2333.2019455624
 20
725.8379918118
  0
ARC
  5
5A4
330
1F
100
AcDbEntity
  8
0
  6
Continuous
 62
     7
370
    25
100
AcDbCircle
 10
2323.8067741014
 20
727.3111682735
 30
0.0
 40
2.340409024543266
100
AcDbArc
 50
320.9902547497
 51
327.6229096897
  0
ARC
  5
5A5
330
1F
100
AcDbEntity
  8
0
  6
Continuous
 62
     7
370
    25
100
AcDbCircle
 10
2326.9845724758
 20
727.0298506438
 30
0.0
 40
1.545192254353265
100
AcDbArc
 50
218.9773404454
 51
230.4738039074
  0
LINE
  5
5A6
330
1F
100
AcDbEntity
  8
0
  6
Continuous
 62
     7
370
    25
100
AcDbLine
 10
2325.7499173176
 20
726.666005381
 30
0.0
 11
2325.5442321193
 21
726.6835500081
 31
0.0
  0
ARC
  5
5A7
330
1F
100
AcDbEntity
  8
0
  6
Continuous
 62
     7
370
    25
100
AcDbCircle
 10
2334.6471888839
 20
726.8501696738
 30
0.0
 40
8.899177367135957
100
AcDbArc
 50
181.1857938762
 51
185.1076204835
  0
LINE
  5
5A8
330
1F
100
AcDbEntity
  8
0
  6
Continuous
 62
     7
370
    25
100
AcDbLine
 10
2325.9646616769
 20
726.6835500081
 30
0.0
 11
2325.7499173176
 21
726.666005381
 31
0.0
  0
LWPOLYLINE
  5
5A9
330
1F
100
AcDbEntity
  8
0
  6
Continuous
 62
     7
370
    25
100
AcDbPolyline
 90
        3
 70
   128
 43
0.0
 10
2317.3895973605
 20
725.8379918118
 10
2317.1913806242
 20
725.5890917559
 10
2316.9768657428
 20
725.5025577327
  0
LWPOLYLINE
  5
5AA
330
1F
100
AcDbEntity
  8
0
  6
Continuous
 62
     7
370
    25
100
AcDbPolyline
 90
        9
 70
   128
 43
0.0
 10
2312.5165693355
 20
725.5025577327
 10
2312.5835351539
 20
725.5243633469
 10
2312.648412202
 20
725.5890917559
 10
2312.7091821176
 20
725.6947298129
 10
2312.7639543158
 20
725.8379918118
 10
2312.8110233587
 20
726.0144081493
 10
2312.8489185017
 20
726.2184922179
 10
2312.876461063
 20
726.4438760062
 10
2312.8927957159
 20
726.6835500081
  0
LINE
  5
5AB
330
1F
100
AcDbEntity
  8
0
  6
Continuous
 62
     7
370
    25
100
AcDbLine
 10
2312.8927957159
 20
726.6835500081
 30
0.0
 11
2317.6837827903
 21
726.6835500081
 31
0.0
  0
LWPOLYLINE
  5
5AC
330
1F
100
AcDbEntity
  8
0
  6
Continuous
 62
     7
370
    25
100
AcDbPolyline
 90
        3
 70
   128
 43
0.0
 10
2317.6837827903
 20
726.6835500081
 10
2317.5572309536
 20
726.2184922179
 10
2317.3895973605
 20
725.8379918118
  0
ARC
  5
5AD
330
1F
100
AcDbEntity
  8
0
  6
Continuous
 62
     7
370
    25
100
AcDbCircle
 10
2316.7203378519
 20
727.0970000872
 30
0.0
 40
1.425836641151339
100
AcDbArc
 50
297.9940724442
 51
313.2172983785
  0
ARC
  5
5AE
330
1F
100
AcDbEntity
  8
0
  6
Continuous
 62
     7
370
    25
100
AcDbCircle
 10
2317.044502231
 20
725.9776766968
 30
0.0
 40
0.657117658829676
100
AcDbArc
 50
347.7268730104
 51
7.0127770874
  0
ARC
  5
5AF
330
1F
100
AcDbEntity
  8
0
  6
Continuous
 62
     7
370
    25
100
AcDbCircle
 10
2315.9923262929
 20
726.8853589263
 30
0.0
 40
1.894619705586201
100
AcDbArc
 50
334.1040000741
 51
353.3515519006
  0
LINE
  5
5B0
330
1F
100
AcDbEntity
  8
0
  6
Continuous
 62
     7
370
    25
100
AcDbLine
 10
2318.0160537255
 20
726.6835500081
 30
0.0
 11
2317.8742077094
 21
726.666005381
 31
0.0
  0
LINE
  5
5B1
330
1F
100
AcDbEntity
  8
0
  6
Continuous
 62
     7
370
    25
100
AcDbLine
 10
2317.8742077094
 20
726.666005381
 30
0.0
 11
2317.6837827903
 21
726.6835500081
 31
0.0
  0
LINE
  5
5B2
330
1F
100
AcDbEntity
  8
0
  6
Continuous
 62
     7
370
    25
100
AcDbLine
 10
2311.3774020117
 20
725.5176041802
 30
0.0
 11
2311.1804500115
 21
725.5025577327
 31
0.0
  0
LWPOLYLINE
  5
5B3
330
1F
100
AcDbEntity
  8
0
  6
Continuous
 62
     7
370
    25
100
AcDbPolyline
 90
        8
 70
   128
 43
0.0
 10
2312.5110462201
 20
726.6835500081
 10
2312.4803431225
 20
726.6207304378
 10
2312.4994993102
 20
726.6027320703
 10
2312.5431679082
 20
726.5966769834
 10
2312.6090880376
 20
726.6028363784
 10
2312.6871809256
 20
726.6193014165
 10
2312.7823308003
 20
726.646192052
 10
2312.8927957159
 20
726.6835500081
  0
LWPOLYLINE
  5
5B4
330
1F
100
AcDbEntity
  8
0
  6
Continuous
 62
     7
370
    25
100
AcDbPolyline
 90
        3
 70
   128
 43
0.0
 10
2333.4364041579
 20
725.8379918118
 10
2333.2090176535
 20
726.2184922179
 10
2333.0553248417
 20
726.6835500081
  0
LINE
  5
5B5
330
1F
100
AcDbEntity
  8
0
  6
Continuous
 62
     7
370
    25
100
AcDbLine
 10
2333.0553248417
 20
726.6835500081
 30
0.0
 11
2337.4009475005
 21
726.6835500081
 31
0.0
  0
LWPOLYLINE
  5
5B6
330
1F
100
AcDbEntity
  8
0
  6
Continuous
 62
     7
370
    25
100
AcDbPolyline
 90
        9
 70
   128
 43
0.0
 10
2337.4009475005
 20
726.6835500081
 10
2337.4302424383
 20
726.4438760062
 10
2337.4796531987
 20
726.2184922179
 10
2337.5476255906
 20
726.0144081493
 10
2337.6320473742
 20
725.8379918118
 10
2337.7302952003
 20
725.6947298129
 10
2337.8393024099
 20
725.5890917559
 10
2337.9556737733
 20
725.5243633469
 10
2338.0757897985
 20
725.5025577327
  0
LWPOLYLINE
  5
5B7
330
1F
100
AcDbEntity
  8
0
  6
Continuous
 62
     7
370
    25
100
AcDbPolyline
 90
        3
 70
   128
 43
0.0
 10
2334.0301155937
 20
725.5025577327
 10
2333.718646307
 20
725.5890917559
 10
2333.4364041579
 20
725.8379918118
  0
ARC
  5
5B8
330
1F
100
AcDbEntity
  8
0
  6
Continuous
 62
     7
370
    25
100
AcDbCircle
 10
2333.6119206095
 20
726.1198847544
 30
0.0
 40
0.4975371045290644
100
AcDbArc
 50
187.1561471726
 51
214.5118536045
  0
ARC
  5
5B9
330
1F
100
AcDbEntity
  8
0
  6
Continuous
 62
     7
370
    25
100
AcDbCircle
 10
2334.0165555804
 20
727.0173737983
 30
0.0
 40
1.314350616516834
100
AcDbArc
 50
226.8859609303
 51
243.8069020008
  0
LINE
  5
5BA
330
1F
100
AcDbEntity
  8
0
  6
Continuous
 62
     7
370
    25
100
AcDbLine
 10
2332.8934803498
 20
726.666005381
 30
0.0
 11
2332.7930211913
 21
726.6835500081
 31
0.0
  0
ARC
  5
5BB
330
1F
100
AcDbEntity
  8
0
  6
Continuous
 62
     7
370
    25
100
AcDbCircle
 10
2334.4801572229
 20
726.906911705
 30
0.0
 40
1.60486116430221
100
AcDbArc
 50
188.6333234674
 51
211.9394076497
  0
LINE
  5
5BC
330
1F
100
AcDbEntity
  8
0
  6
Continuous
 62
     7
370
    25
100
AcDbLine
 10
2333.0553248417
 20
726.6835500081
 30
0.0
 11
2332.8934803498
 21
726.666005381
 31
0.0
  0
LWPOLYLINE
  5
5BD
330
1F
100
AcDbEntity
  8
0
  6
Continuous
 62
     7
370
    25
100
AcDbPolyline
 90
        9
 70
   128
 43
0.0
 10
2337.4009475005
 20
726.6835500081
 10
2337.5020690155
 20
726.6455714186
 10
2337.5837318492
 20
726.6184460898
 10
2337.6443087947
 20
726.6020697137
 10
2337.6831009877
 20
726.5965570291
 10
2337.7005465221
 20
726.6020644983
 10
2337.6957379174
 20
726.618435659
 10
2337.6670844746
 20
726.6455662032
 10
2337.6137725902
 20
726.6835500081
  0
ARC
  5
5BE
330
1F
100
AcDbEntity
  8
0
  6
Continuous
 62
     7
370
    25
100
AcDbCircle
 10
2312.6197653923
 20
707.2003505584
 30
0.0
 40
9.433313612425122
100
AcDbArc
 50
162.0820260162
 51
171.7523922046
  0
LWPOLYLINE
  5
5BF
330
1F
100
AcDbEntity
  8
0
  6
Continuous
 62
     7
370
    25
100
AcDbPolyline
 90
       11
 70
   128
 43
0.0
 10
2303.6439869445
 20
710.1025578161
 10
2303.6439530444
 20
710.102427431
 10
2303.6437027049
 20
710.1013165494
 10
2303.6430090558
 20
710.0981873055
 10
2303.6403909218
 20
710.0862857481
 10
2303.6302391332
 20
710.039894708
 10
2303.3331461143
 20
708.6956184884
 10
2303.043367703
 20
707.4609648963
 10
2302.7658533198
 20
706.4090174218
 10
2302.2942293328
 20
705.0672498127
 10
2301.7927810442
 20
704.5025621136
  0
LINE
  5
5C0
330
1F
100
AcDbEntity
  8
0
  6
Continuous
 62
     7
370
    25
100
AcDbLine
 10
2303.6439869445
 20
697.5025583585
 30
0.0
 11
2269.2056224574
 21
697.5025583585
 31
0.0
  0
LINE
  5
5C1
330
1F
100
AcDbEntity
  8
0
  6
Continuous
 62
     7
370
    25
100
AcDbLine
 10
2269.2056224574
 20
704.5025621136
 30
0.0
 11
2269.2056224574
 21
697.5025583585
 31
0.0
  0
LINE
  5
5C2
330
1F
100
AcDbEntity
  8
0
  6
Continuous
 62
     7
370
    25
100
AcDbLine
 10
2301.7927810442
 20
704.5025621136
 30
0.0
 11
2269.2056224574
 21
704.5025621136
 31
0.0
  0
LINE
  5
5C3
330
1F
100
AcDbEntity
  8
0
  6
Continuous
 62
     7
370
    25
100
AcDbLine
 10
2270.5960279689
 20
696.1025607367
 30
0.0
 11
2269.2056224574
 21
697.5025583585
 31
0.0
  0
LINE
  5
5C4
330
1F
100
AcDbEntity
  8
0
  6
Continuous
 62
     7
370
    25
100
AcDbLine
 10
2305.0343908262
 20
696.1025607367
 30
0.0
 11
2270.5960279689
 21
696.1025607367
 31
0.0
  0
ARC
  5
5C5
330
1F
100
AcDbEntity
  8
0
  6
Continuous
 62
     7
370
    25
100
AcDbCircle
 10
2310.1037192978
 20
726.7871467647
 30
0.0
 40
1.286819643351054
100
AcDbArc
 50
273.3740653827
 51
355.3823463569
  0
LINE
  5
5C6
330
1F
100
AcDbEntity
  8
0
  6
Continuous
 62
     7
370
    25
100
AcDbLine
 10
2270.5960279689
 20
705.9025597354
 30
0.0
 11
2269.2056224574
 21
704.5025621136
 31
0.0
  0
LINE
  5
5C7
330
1F
100
AcDbEntity
  8
0
  6
Continuous
 62
     7
370
    25
100
AcDbLine
 10
2270.5960279689
 20
705.9025597354
 30
0.0
 11
2302.5878358525
 21
705.9025597354
 31
0.0
  0
LINE
  5
5C8
330
1F
100
AcDbEntity
  8
0
  6
Continuous
 62
     7
370
    25
100
AcDbLine
 10
2269.0481647742
 20
697.5025583585
 30
0.0
 11
2269.2056224574
 21
697.5025583585
 31
0.0
  0
LINE
  5
5C9
330
1F
100
AcDbEntity
  8
0
  6
Continuous
 62
     7
370
    25
100
AcDbLine
 10
2269.0481647742
 20
697.5025583585
 30
0.0
 11
2269.0481647742
 21
704.5025621136
 31
0.0
  0
LINE
  5
5CA
330
1F
100
AcDbEntity
  8
0
  6
Continuous
 62
     7
370
    25
100
AcDbLine
 10
2269.2056224574
 20
704.5025621136
 30
0.0
 11
2269.0481647742
 21
704.5025621136
 31
0.0
  0
LINE
  5
5CB
330
1F
100
AcDbEntity
  8
0
  6
Continuous
 62
     7
370
    25
100
AcDbLine
 10
2270.4417194132
 20
696.1025607367
 30
0.0
 11
2269.0481647742
 21
697.5025583585
 31
0.0
  0
LINE
  5
5CC
330
1F
100
AcDbEntity
  8
0
  6
Continuous
 62
     7
370
    25
100
AcDbLine
 10
2270.5960279689
 20
696.1025607367
 30
0.0
 11
2270.4417194132
 21
696.1025607367
 31
0.0
  0
LINE
  5
5CD
330
1F
100
AcDbEntity
  8
0
  6
Continuous
 62
     7
370
    25
100
AcDbLine
 10
2269.0481647742
 20
704.5025621136
 30
0.0
 11
2270.4417194132
 21
705.9025597354
 31
0.0
  0
LINE
  5
5CE
330
1F
100
AcDbEntity
  8
0
  6
Continuous
 62
     7
370
    25
100
AcDbLine
 10
2270.4417194132
 20
705.9025597354
 30
0.0
 11
2270.5960279689
 21
705.9025597354
 31
0.0
  0
LINE
  5
5CF
330
1F
100
AcDbEntity
  8
0
  6
Continuous
 62
     7
370
    25
100
AcDbLine
 10
2245.114521299
 20
696.1025607367
 30
0.0
 11
2243.7209673118
 21
697.5025583585
 31
0.0
  0
LINE
  5
5D0
330
1F
100
AcDbEntity
  8
0
  6
Continuous
 62
     7
370
    25
100
AcDbLine
 10
2269.0481647742
 20
697.5025583585
 30
0.0
 11
2243.7209673118
 21
697.5025583585
 31
0.0
  0
LINE
  5
5D1
330
1F
100
AcDbEntity
  8
0
  6
Continuous
 62
     7
370
    25
100
AcDbLine
 10
2270.4417194132
 20
696.1025607367
 30
0.0
 11
2245.114521299
 21
696.1025607367
 31
0.0
  0
LINE
  5
5D2
330
1F
100
AcDbEntity
  8
0
  6
Continuous
 62
     7
370
    25
100
AcDbLine
 10
2243.7209673118
 20
704.5025621136
 30
0.0
 11
2245.114521299
 21
705.9025597354
 31
0.0
  0
LINE
  5
5D3
330
1F
100
AcDbEntity
  8
0
  6
Continuous
 62
     7
370
    25
100
AcDbLine
 10
2269.0481647742
 20
704.5025621136
 30
0.0
 11
2243.7209673118
 21
704.5025621136
 31
0.0
  0
LINE
  5
5D4
330
1F
100
AcDbEntity
  8
0
  6
Continuous
 62
     7
370
    25
100
AcDbLine
 10
2245.114521299
 20
705.9025597354
 30
0.0
 11
2270.4417194132
 21
705.9025597354
 31
0.0
  0
LINE
  5
5D5
330
1F
100
AcDbEntity
  8
0
  6
Continuous
 62
     7
370
    25
100
AcDbLine
 10
2243.7209673118
 20
697.5025583585
 30
0.0
 11
2243.7209673118
 21
704.5025621136
 31
0.0
  0
LINE
  5
5D6
330
1F
100
AcDbEntity
  8
0
  6
Continuous
 62
     7
370
    25
100
AcDbLine
 10
2243.7209673118
 20
697.5025583585
 30
0.0
 11
2243.6500664693
 21
697.5025583585
 31
0.0
  0
LINE
  5
5D7
330
1F
100
AcDbEntity
  8
0
  6
Continuous
 62
     7
370
    25
100
AcDbLine
 10
2245.114521299
 20
696.1025607367
 30
0.0
 11
2245.0500666988
 21
696.1025607367
 31
0.0
  0
LINE
  5
5D8
330
1F
100
AcDbEntity
  8
0
  6
Continuous
 62
     7
370
    25
100
AcDbLine
 10
2243.7209673118
 20
704.5025621136
 30
0.0
 11
2243.6500664693
 21
704.5025621136
 31
0.0
  0
LINE
  5
5D9
330
1F
100
AcDbEntity
  8
0
  6
Continuous
 62
     7
370
    25
100
AcDbLine
 10
2245.0500666988
 20
705.9025597354
 30
0.0
 11
2245.114521299
 21
705.9025597354
 31
0.0
  0
LINE
  5
5DA
330
1F
100
AcDbEntity
  8
0
  6
Continuous
 62
     7
370
    25
100
AcDbLine
 10
2241.2000667196
 20
691.9025574406
 30
0.0
 11
2240.5000653011
 21
691.9025574406
 31
0.0
  0
LINE
  5
5DB
330
1F
100
AcDbEntity
  8
0
  6
Continuous
 62
     7
370
    25
100
AcDbLine
 10
2241.2000667196
 20
691.9025574406
 30
0.0
 11
2241.2000667196
 21
669.5025589844
 31
0.0
  0
LINE
  5
5DC
330
1F
100
AcDbEntity
  8
0
  6
Continuous
 62
     7
370
    25
100
AcDbLine
 10
2240.5000653011
 20
669.5025589844
 30
0.0
 11
2241.2000667196
 21
669.5025589844
 31
0.0
  0
LINE
  5
5DD
330
1F
100
AcDbEntity
  8
0
  6
Continuous
 62
     7
370
    25
100
AcDbLine
 10
2240.5000653011
 20
691.9025574406
 30
0.0
 11
2240.5000653011
 21
669.5025589844
 31
0.0
  0
LINE
  5
5DE
330
1F
100
AcDbEntity
  8
0
  6
Continuous
 62
     7
370
    25
100
AcDbLine
 10
2241.2000667196
 20
669.5025589844
 30
0.0
 11
2241.2000667196
 21
668.8025601735
 31
0.0
  0
ARC
  5
5DF
330
1F
100
AcDbEntity
  8
0
  6
Continuous
 62
     7
370
    25
100
AcDbCircle
 10
2241.200065971
 20
669.5025608434
 30
0.0
 40
0.70000066996155
100
AcDbArc
 50
180.0001521671
 51
270.0000612763
  0
LINE
  5
5E0
330
1F
100
AcDbEntity
  8
0
  6
Continuous
 62
     7
370
    25
100
AcDbLine
 10
2279.0000657444
 20
691.9025574406
 30
0.0
 11
2279.0000657444
 21
692.6025588592
 31
0.0
  0
LINE
  5
5E1
330
1F
100
AcDbEntity
  8
0
  6
Continuous
 62
     7
370
    25
100
AcDbLine
 10
2279.0000657444
 20
691.9025574406
 30
0.0
 11
2241.2000667196
 21
691.9025574406
 31
0.0
  0
LINE
  5
5E2
330
1F
100
AcDbEntity
  8
0
  6
Continuous
 62
     7
370
    25
100
AcDbLine
 10
2241.2000667196
 20
692.6025588592
 30
0.0
 11
2241.2000667196
 21
691.9025574406
 31
0.0
  0
LINE
  5
5E3
330
1F
100
AcDbEntity
  8
0
  6
Continuous
 62
     7
370
    25
100
AcDbLine
 10
2279.0000657444
 20
692.6025588592
 30
0.0
 11
2241.2000667196
 21
692.6025588592
 31
0.0
  0
LINE
  5
5E4
330
1F
100
AcDbEntity
  8
0
  6
Continuous
 62
     7
370
    25
100
AcDbLine
 10
2241.2000667196
 20
669.5025589844
 30
0.0
 11
2279.0000657444
 21
669.5025589844
 31
0.0
  0
LINE
  5
5E5
330
1F
100
AcDbEntity
  8
0
  6
Continuous
 62
     7
370
    25
100
AcDbLine
 10
2279.0000657444
 20
669.5025589844
 30
0.0
 11
2279.0000657444
 21
691.9025574406
 31
0.0
  0
LINE
  5
5E6
330
1F
100
AcDbEntity
  8
0
  6
Continuous
 62
     7
370
    25
100
AcDbLine
 10
2279.0000657444
 20
668.8025601735
 30
0.0
 11
2279.0000657444
 21
669.5025589844
 31
0.0
  0
LINE
  5
5E7
330
1F
100
AcDbEntity
  8
0
  6
Continuous
 62
     7
370
    25
100
AcDbLine
 10
2241.2000667196
 20
668.8025601735
 30
0.0
 11
2279.0000657444
 21
668.8025601735
 31
0.0
  0
ARC
  5
5E8
330
1F
100
AcDbEntity
  8
0
  6
Continuous
 62
     7
370
    25
100
AcDbCircle
 10
2241.2000615194
 20
691.9025626408
 30
0.0
 40
0.6999962183892768
100
AcDbArc
 50
89.9995743539
 51
180.0004256462
  0
LINE
  5
5E9
330
1F
100
AcDbEntity
  8
0
  6
Continuous
 62
     7
370
    25
100
AcDbLine
 10
2279.7000658591
 20
691.9025574406
 30
0.0
 11
2279.0000657444
 21
691.9025574406
 31
0.0
  0
LINE
  5
5EA
330
1F
100
AcDbEntity
  8
0
  6
Continuous
 62
     7
370
    25
100
AcDbLine
 10
2279.7000658591
 20
669.5025589844
 30
0.0
 11
2279.7000658591
 21
691.9025574406
 31
0.0
  0
LINE
  5
5EB
330
1F
100
AcDbEntity
  8
0
  6
Continuous
 62
     7
370
    25
100
AcDbLine
 10
2279.0000657444
 20
669.5025589844
 30
0.0
 11
2279.7000658591
 21
669.5025589844
 31
0.0
  0
ARC
  5
5EC
330
1F
100
AcDbEntity
  8
0
  6
Continuous
 62
     7
370
    25
100
AcDbCircle
 10
2279.0000696407
 20
691.9025626408
 30
0.0
 40
0.699996218374725
100
AcDbArc
 50
359.9995743533
 51
90.0003189251
  0
ARC
  5
5ED
330
1F
100
AcDbEntity
  8
0
  6
Continuous
 62
     7
370
    25
100
AcDbCircle
 10
2279.0000651891
 20
669.5025608434
 30
0.0
 40
0.70000066996155
100
AcDbArc
 50
270.0000454453
 51
359.9998478329
  0
LINE
  5
5EE
330
1F
100
AcDbEntity
  8
0
  6
Continuous
 62
     7
370
    25
100
AcDbLine
 10
2303.5000651967
 20
710.1025578161
 30
0.0
 11
2303.6439869445
 21
710.1025578161
 31
0.0
  0
LINE
  5
5EF
330
1F
100
AcDbEntity
  8
0
  6
Continuous
 62
     7
370
    25
100
AcDbLine
 10
2321.2754376125
 20
727.9441398164
 30
0.0
 11
2321.198614676
 21
726.6835500081
 31
0.0
  0
LINE
  5
5F0
330
1F
100
AcDbEntity
  8
0
  6
Continuous
 62
     7
370
    25
100
AcDbLine
 10
2320.4459115755
 20
726.6835500081
 30
0.0
 11
2320.5227397275
 21
727.9441398164
 31
0.0
  0
LINE
  5
5F1
330
1F
100
AcDbEntity
  8
0
  6
Continuous
 62
     7
370
    25
100
AcDbLine
 10
2318.1499592852
 20
727.9441398164
 30
0.0
 11
2318.0160537255
 21
726.6835500081
 31
0.0
  0
LINE
  5
5F2
330
1F
100
AcDbEntity
  8
0
  6
Continuous
 62
     7
370
    25
100
AcDbLine
 10
2325.5442321193
 20
726.6835500081
 30
0.0
 11
2325.518973906
 21
727.9441398164
 31
0.0
  0
LINE
  5
5F3
330
1F
100
AcDbEntity
  8
0
  6
Continuous
 62
     7
370
    25
100
AcDbLine
 10
2330.7556435358
 20
726.6835500081
 30
0.0
 11
2330.6178420675
 21
727.9441398164
 31
0.0
  0
LINE
  5
5F4
330
1F
100
AcDbEntity
  8
0
  6
Continuous
 62
     7
370
    25
100
AcDbLine
 10
2325.9394034636
 20
727.9441398164
 30
0.0
 11
2325.9646616769
 21
726.6835500081
 31
0.0
  0
LINE
  5
5F5
330
1F
100
AcDbEntity
  8
0
  6
Continuous
 62
     7
370
    25
100
AcDbLine
 10
2331.3005752754
 20
727.9441398164
 30
0.0
 11
2331.4383767438
 21
726.6835500081
 31
0.0
  0
LINE
  5
5F6
330
1F
100
AcDbEntity
  8
0
  6
Continuous
 62
     7
370
    25
100
AcDbLine
 10
2332.7930211913
 20
726.6835500081
 30
0.0
 11
2332.6234005284
 21
727.9441398164
 31
0.0
  0
LINE
  5
5F7
330
1F
100
AcDbEntity
  8
0
  6
Continuous
 62
     7
370
    25
100
AcDbLine
 10
2317.6837827903
 20
726.6835500081
 30
0.0
 11
2317.8176857424
 21
727.9441398164
 31
0.0
  0
LINE
  5
5F8
330
1F
100
AcDbEntity
  8
0
  6
Continuous
 62
     7
370
    25
100
AcDbLine
 10
2313.1392445308
 20
727.9441398164
 30
0.0
 11
2312.8927957159
 21
726.6835500081
 31
0.0
  0
LINE
  5
5F9
330
1F
100
AcDbEntity
  8
0
  6
Continuous
 62
     7
370
    25
100
AcDbLine
 10
2332.8857041788
 20
727.9441398164
 30
0.0
 11
2333.0553248417
 21
726.6835500081
 31
0.0
  0
LINE
  5
5FA
330
1F
100
AcDbEntity
  8
0
  6
Continuous
 62
     7
370
    25
100
AcDbLine
 10
2337.4009475005
 20
726.6835500081
 30
0.0
 11
2337.1292404723
 21
727.9441398164
 31
0.0
  0
LINE
  5
5FB
330
1F
100
AcDbEntity
  8
0
  6
Continuous
 62
     7
370
    25
100
AcDbLine
 10
2311.38636208
 20
726.6835500081
 30
0.0
 11
2312.4898116928
 21
726.6835500081
 31
0.0
  0
LINE
  5
5FC
330
1F
100
AcDbEntity
  8
0
  6
Continuous
 62
     7
370
    25
100
AcDbLine
 10
2311.6580665004
 20
727.9441398164
 30
0.0
 11
2311.38636208
 21
726.6835500081
 31
0.0
  0
LWPOLYLINE
  5
5FD
330
1F
100
AcDbEntity
  8
0
  6
Continuous
 62
     7
370
    25
100
AcDbPolyline
 90
        3
 70
   128
 43
0.0
 10
2311.3016586643
 20
726.6089227577
 10
2311.3064933461
 20
726.6207147916
 10
2311.38636208
 20
726.6835500081
  0
LINE
  5
5FE
330
1F
100
AcDbEntity
  8
FORMAT
370
    25
100
AcDbLine
 10
2240.5000658223
 20
782.2025596102
 30
0.0
 11
2244.7000658223
 21
782.2025596102
 31
0.0
  0
LINE
  5
5FF
330
1F
100
AcDbEntity
  8
FORMAT
370
    25
100
AcDbLine
 10
2244.7000658223
 20
792.0025596102
 30
0.0
 11
2240.5000658223
 21
792.0025596102
 31
0.0
  0
LINE
  5
600
330
1F
100
AcDbEntity
  8
FORMAT
370
    25
100
AcDbLine
 10
2240.5000658223
 20
794.1025596102
 30
0.0
 11
2244.7000658223
 21
794.1025596102
 31
0.0
  0
LINE
  5
601
330
1F
100
AcDbEntity
  8
FORMAT
370
    25
100
AcDbLine
 10
2244.7000658223
 20
808.1025596102
 30
0.0
 11
2240.5000658223
 21
808.1025596102
 31
0.0
  0
LINE
  5
602
330
1F
100
AcDbEntity
  8
FORMAT
370
    25
100
AcDbLine
 10
2240.5000658223
 20
810.2025596102
 30
0.0
 11
2244.7000658223
 21
810.2025596102
 31
0.0
  0
LINE
  5
603
330
1F
100
AcDbEntity
  8
FORMAT
370
    25
100
AcDbLine
 10
2244.7000658223
 20
820.0025596102
 30
0.0
 11
2240.5000658223
 21
820.0025596102
 31
0.0
  0
LINE
  5
604
330
1F
100
AcDbEntity
  8
FORMAT
370
    25
100
AcDbLine
 10
2240.5000658223
 20
824.2025596102
 30
0.0
 11
2244.7000658223
 21
824.2025596102
 31
0.0
  0
LINE
  5
605
330
1F
100
AcDbEntity
  8
FORMAT
370
    25
100
AcDbLine
 10
2244.7000658223
 20
834.0025596102
 30
0.0
 11
2240.5000658223
 21
834.0025596102
 31
0.0
  0
LINE
  5
606
330
1F
100
AcDbEntity
  8
FORMAT
370
    25
100
AcDbLine
 10
2240.5000658223
 20
836.1025596102
 30
0.0
 11
2244.7000658223
 21
836.1025596102
 31
0.0
  0
LINE
  5
607
330
1F
100
AcDbEntity
  8
FORMAT
370
    25
100
AcDbLine
 10
2244.7000658223
 20
850.1025596102
 30
0.0
 11
2240.5000658223
 21
850.1025596102
 31
0.0
  0
LINE
  5
608
330
1F
100
AcDbEntity
  8
FORMAT
370
    25
100
AcDbLine
 10
2240.5000658223
 20
852.2025596102
 30
0.0
 11
2244.7000658223
 21
852.2025596102
 31
0.0
  0
LINE
  5
609
330
1F
100
AcDbEntity
  8
FORMAT
370
    25
100
AcDbLine
 10
2244.7000658223
 20
862.0025596102
 30
0.0
 11
2240.5000658223
 21
862.0025596102
 31
0.0
  0
LINE
  5
60A
330
1F
100
AcDbEntity
  8
FORMAT
  6
CENTERX2
370
    25
100
AcDbLine
 10
2233.4332368299
 20
867.5323838732
 30
0.0
 11
2254.5550698074
 21
867.5323838732
 31
0.0
  0
LINE
  5
60B
330
1F
100
AcDbEntity
  8
FORMAT
  6
CENTERX2
370
    25
100
AcDbLine
 10
2233.4332368299
 20
867.5323838732
 30
0.0
 11
2233.4332368299
 21
776.6054687382
 31
0.0
  0
LINE
  5
60C
330
1F
100
AcDbEntity
  8
FORMAT
  6
CENTERX2
370
    25
100
AcDbLine
 10
2233.4332368299
 20
776.6054687382
 30
0.0
 11
2254.5550698074
 21
776.6054687382
 31
0.0
  0
LINE
  5
60D
330
1F
100
AcDbEntity
  8
FORMAT
  6
CENTERX2
370
    25
100
AcDbLine
 10
2254.5550698074
 20
867.5323838732
 30
0.0
 11
2254.5550698074
 21
776.6054687382
 31
0.0
  0
ARC
  5
60E
330
1F
100
AcDbEntity
  8
FORMAT
370
    25
100
AcDbCircle
 10
2244.7000658223
 20
787.1025596102
 30
0.0
 40
4.900000000000091
100
AcDbArc
 50
270.0
 51
90.0
  0
ARC
  5
60F
330
1F
100
AcDbEntity
  8
FORMAT
370
    25
100
AcDbCircle
 10
2244.7000658223
 20
801.1025596102
 30
0.0
 40
7.0
100
AcDbArc
 50
270.0
 51
90.0
  0
ARC
  5
610
330
1F
100
AcDbEntity
  8
FORMAT
370
    25
100
AcDbCircle
 10
2244.7000658223
 20
815.1025596102
 30
0.0
 40
4.900000000000091
100
AcDbArc
 50
270.0
 51
90.0
  0
ARC
  5
611
330
1F
100
AcDbEntity
  8
FORMAT
370
    25
100
AcDbCircle
 10
2244.7000658223
 20
829.1025596102
 30
0.0
 40
4.899999999999977
100
AcDbArc
 50
270.0
 51
90.0
  0
ARC
  5
612
330
1F
100
AcDbEntity
  8
FORMAT
370
    25
100
AcDbCircle
 10
2244.7000658223
 20
843.1025596102
 30
0.0
 40
7.0
100
AcDbArc
 50
270.0
 51
90.0
  0
ARC
  5
613
330
1F
100
AcDbEntity
  8
FORMAT
370
    25
100
AcDbCircle
 10
2244.7000658223
 20
857.1025596102
 30
0.0
 40
4.899999999999864
100
AcDbArc
 50
270.0
 51
90.0
  0
DIMENSION
  5
614
330
1F
100
AcDbEntity
  8
FORMAT
100
AcDbDimension
  2
_D_26
 10
2279.7000658195
 20
560.1181247819
 30
0.0
 11
2335.3703437178
 21
560.1181247819
 31
0.0
 70
   160
  1
(<>)
 71
     2
 42
-1.0
  3
SLDDIMSTYLE5
100
AcDbAlignedDimension
 13
2240.5000658228
 23
609.7292215159
 33
0.0
 14
2279.7000658195
 24
669.5025596128
 34
0.0
100
AcDbRotatedDimension
  0
DIMENSION
  5
623
330
1F
100
AcDbEntity
  8
FORMAT
100
AcDbDimension
  2
_D_27
 10
2429.640732034
 20
692.6025596128
 30
0.0
 11
2429.640732034
 21
587.3889020156
 31
0.0
 70
   160
  1
(<>)
 71
     2
 42
-1.0
  3
SLDDIMSTYLE5
100
AcDbAlignedDimension
 13
2279.0000658195
 23
668.8025596128
 33
0.0
 14
2279.0000658195
 24
692.6025596128
 34
0.0
 50
90.0
100
AcDbRotatedDimension
  0
DIMENSION
  5
631
330
1F
100
AcDbEntity
  8
FORMAT
100
AcDbDimension
  2
_D_28
 10
2478.5000658223
 20
696.1025596104
 30
0.0
 11
2478.5000658223
 21
587.3889942467
 31
0.0
 70
   160
  1
<>
 71
     2
 42
-1.0
  3
SLDDIMSTYLE5
100
AcDbAlignedDimension
 13
2279.0000658195
 23
692.6025596128
 33
0.0
 14
2305.0343918182
 24
696.1025596104
 34
0.0
 50
90.0
100
AcDbRotatedDimension
  0
DIMENSION
  5
63D
330
1F
100
AcDbEntity
  8
FORMAT
100
AcDbDimension
  2
_D_29
 10
2520.5000658223
 20
755.6025596102
 30
0.0
 11
2520.5000658223
 21
820.2393189242
 31
0.0
 70
   160
  1
<>
 71
     2
 42
-1.0
  3
SLDDIMSTYLE5
100
AcDbAlignedDimension
 13
2305.0343918182
 23
696.1025596104
 33
0.0
 14
2401.5000658223
 24
755.6025596102
 34
0.0
 50
90.0
100
AcDbRotatedDimension
  0
DIMENSION
  5
649
330
1F
100
AcDbEntity
  8
FORMAT
100
AcDbDimension
  2
_D_30
 10
2114.7420719228
 20
705.9025596103
 30
0.0
 11
2114.7420719228
 21
632.5737097314
 31
0.0
 70
   160
  1
<>*
 71
     2
 42
-1.0
  3
SLDDIMSTYLE6
100
AcDbAlignedDimension
 13
2198.5000658228
 23
711.5025596102
 33
0.0
 14
2270.5960279692
 24
705.9025596103
 34
0.0
 50
90.0
100
AcDbRotatedDimension
  0
DIMENSION
  5
657
330
1F
100
AcDbEntity
  8
FORMAT
100
AcDbDimension
  2
_D_31
 10
2054.9644815792
 20
668.8025596128
 30
0.0
 11
2054.9644815792
 21
602.3711474045
 31
0.0
 70
   160
  1
<>
 71
     2
 42
-1.0
  3
SLDDIMSTYLE7
100
AcDbAlignedDimension
 13
2198.5000658228
 23
711.5025596102
 33
0.0
 14
2241.2000658195
 24
668.8025596128
 34
0.0
 50
90.0
100
AcDbRotatedDimension
  0
DIMENSION
  5
664
330
1F
100
AcDbEntity
  8
FORMAT
100
AcDbDimension
  2
_D_32
 10
2054.9644815792
 20
755.6025596102
 30
0.0
 11
2054.9644815792
 21
820.2393189243
 31
0.0
 70
   160
  1
<>
 71
     2
 42
-1.0
  3
SLDDIMSTYLE7
100
AcDbAlignedDimension
 13
2198.5000658228
 23
711.5025596102
 33
0.0
 14
2240.5000658223
 24
755.6025596102
 34
0.0
 50
90.0
100
AcDbRotatedDimension
  0
MTEXT
  5
670
330
1F
100
AcDbEntity
  8
FORMAT
100
AcDbMText
 10
2214.407152504
 20
1112.0465031301
 30
0.0
 40
35.0
 41
0.0
 71
     2
 72
     1
  1
B (1 : 5)
  7
SLDTEXTSTYLE0
 73
     1
 44
1.0
  0
MTEXT
  5
671
330
1F
100
AcDbEntity
  8
FORMAT
100
AcDbMText
 10
1956.3546504377
 20
534.4945177914
 30
0.0
 40
18.5208333333
 41
0.0
 71
     1
 72
     1
  1
GB 18
  7
SLDTEXTSTYLE0
 73
     1
 44
1.0
  0
LEADER
  5
672
330
1F
100
AcDbEntity
  8
FORMAT
100
AcDbLeader
  3
SLDDIMSTYLE3
 76
     3
 10
2249.2500658212
 20
694.086007895
 30
0.0
 10
2073.8689807909
 20
525.984860923
 30
0.0
 10
2029.4189807909
 20
525.984860923
 30
0.0
  0
MTEXT
  5
673
330
1F
100
AcDbEntity
  8
FORMAT
100
AcDbMText
 10
2454.9893135416
 20
942.1374540515
 30
0.0
 40
18.5208333333
 41
0.0
 71
     1
 72
     1
  1
AV 30
  7
SLDTEXTSTYLE0
 73
     1
 44
1.0
  0
LEADER
  5
675
330
1F
100
AcDbEntity
  8
FORMAT
100
AcDbLeader
  3
SLDDIMSTYLE8
 76
     3
 10
2325.7810614235
 20
741.8655734188
 30
0.0
 10
2406.7440486169
 20
933.1935784419
 30
0.0
 10
2451.1940486169
 20
933.1935784419
 30
0.0
  0
MTEXT
  5
676
330
1F
100
AcDbEntity
  8
FORMAT
100
AcDbMText
 10
1704.7738942361
 20
930.2695064601
 30
0.0
 40
18.5208333333
 41
0.0
 71
     1
 72
     1
  1
aufliegende Kabelzuführung (optional)
  7
SLDTEXTSTYLE0
 73
     1
 44
1.0
  0
LEADER
  5
677
330
1F
100
AcDbEntity
  8
FORMAT
100
AcDbLeader
  3
SLDDIMSTYLE3
 76
     3
 10
2233.4332368299
 20
851.5409925115
 30
0.0
 10
2169.2446566214
 20
920.8717008224
 30
0.0
 10
2124.7946566214
 20
920.8717008224
 30
0.0
  0
MTEXT
  5
678
330
1F
100
AcDbEntity
  8
FORMAT
100
AcDbMText
 10
2143.7856560163
 20
521.4861617477
 30
0.0
 40
18.5208333333
 41
0.0
 71
     1
 72
     1
  1
* Abstand Oberkante Hebel zu Unterkante Türrahmen
  7
SLDTEXTSTYLE0
 73
     1
 44
1.0
  0
CIRCLE
  5
679
330
1F
100
AcDbEntity
  8
0
  6
Continuous
 62
     7
370
    18
100
AcDbCircle
 10
1812.2050753505
 20
280.8199937585
 30
0.0
 40
79.28639724770346
  0
ARC
  5
67A
330
1F
100
AcDbEntity
  8
0
  6
Continuous
 62
     7
370
    25
100
AcDbCircle
 10
1823.6789703403
 20
333.9141162707
 30
0.0
 40
4.200008151989287
100
AcDbArc
 50
9.5942083945
 51
170.4057916055
  0
ARC
  5
67B
330
1F
100
AcDbEntity
  8
0
  6
Continuous
 62
     7
370
    25
100
AcDbCircle
 10
1801.2789666686
 20
333.9141243747
 30
0.0
 40
4.549995541921937
100
AcDbArc
 50
8.8499349891
 51
171.1500650109
  0
ARC
  5
67C
330
1F
100
AcDbEntity
  8
0
  6
Continuous
 62
     7
370
    25
100
AcDbCircle
 10
1801.2789666686
 20
227.5141296925
 30
0.0
 40
4.549993645416754
100
AcDbArc
 50
8.8497816055
 51
171.1502183945
  0
ARC
  5
67D
330
1F
100
AcDbEntity
  8
0
  6
Continuous
 62
     7
370
    25
100
AcDbCircle
 10
1823.6789703403
 20
227.5141092612
 30
0.0
 40
4.200008151989278
100
AcDbArc
 50
9.5942083945
 51
170.4057916055
  0
ARC
  5
67E
330
1F
100
AcDbEntity
  8
0
  6
Continuous
 62
     7
370
    25
100
AcDbCircle
 10
1801.2789666686
 20
333.9141036546
 30
0.0
 40
4.549991748950099
100
AcDbArc
 50
188.8496282222
 51
351.1503717778
  0
ARC
  5
67F
330
1F
100
AcDbEntity
  8
0
  6
Continuous
 62
     7
370
    25
100
AcDbCircle
 10
1823.6789703403
 20
333.9141364131
 30
0.0
 40
4.200008151989297
100
AcDbArc
 50
189.5942083945
 51
350.4057916055
  0
ARC
  5
680
330
1F
100
AcDbEntity
  8
0
  6
Continuous
 62
     7
370
    25
100
AcDbCircle
 10
1801.2789666686
 20
227.5141212997
 30
0.0
 40
4.549995541921954
100
AcDbArc
 50
188.8499349891
 51
351.1500650109
  0
ARC
  5
681
330
1F
100
AcDbEntity
  8
0
  6
Continuous
 62
     7
370
    25
100
AcDbCircle
 10
1823.6789703403
 20
227.5141294036
 30
0.0
 40
4.200008151989292
100
AcDbArc
 50
189.5942083945
 51
350.4057916055
  0
LINE
  5
682
330
1F
100
AcDbEntity
  8
0
  6
Continuous
 62
     7
370
    25
100
AcDbLine
 10
1859.5556885038
 20
344.4141267592
 30
0.0
 11
1764.8544639383
 21
344.4141267592
 31
0.0
  0
LINE
  5
683
330
1F
100
AcDbEntity
  8
0
  6
Continuous
 62
     7
370
    25
100
AcDbLine
 10
1765.1393502984
 20
217.0141189152
 30
0.0
 11
1859.270781282
 21
217.0141189152
 31
0.0
  0
ARC
  5
684
330
1F
100
AcDbEntity
  8
0
  6
Continuous
 62
     7
370
    25
100
AcDbCircle
 10
1823.6747243248
 20
333.9137577797
 30
0.0
 40
4.204254542279175
100
AcDbArc
 50
0.0048806324
 51
9.5893813036
  0
ARC
  5
685
330
1F
100
AcDbEntity
  8
0
  6
Continuous
 62
     7
370
    25
100
AcDbCircle
 10
1801.2777091489
 20
333.9138364004
 30
0.0
 40
4.55128239531812
100
AcDbArc
 50
0.0035187408
 51
8.8510815906
  0
ARC
  5
686
330
1F
100
AcDbEntity
  8
0
  6
Continuous
 62
     7
370
    25
100
AcDbCircle
 10
1823.6832163558
 20
333.9137577797
 30
0.0
 40
4.204254542279625
100
AcDbArc
 50
170.4106186964
 51
179.9951193676
  0
ARC
  5
687
330
1F
100
AcDbEntity
  8
0
  6
Continuous
 62
     7
370
    25
100
AcDbCircle
 10
1801.2724023453
 20
333.9147128131
 30
0.0
 40
4.543418859659138
100
AcDbArc
 50
171.14466171
 51
180.0075273634
  0
ARC
  5
688
330
1F
100
AcDbEntity
  8
0
  6
Continuous
 62
     7
370
    25
100
AcDbCircle
 10
1801.2719997788
 20
227.5147369577
 30
0.0
 40
4.54301629592218
100
AcDbArc
 50
171.1442683659
 51
180.0077893885
  0
ARC
  5
689
330
1F
100
AcDbEntity
  8
0
  6
Continuous
 62
     7
370
    25
100
AcDbCircle
 10
1823.674910577
 20
227.5137663956
 30
0.0
 40
4.204068289652686
100
AcDbArc
 50
0.0048100526
 51
9.5895941816
  0
ARC
  5
68A
330
1F
100
AcDbEntity
  8
0
  6
Continuous
 62
     7
370
    25
100
AcDbCircle
 10
1823.6830301036
 20
227.5137663956
 30
0.0
 40
4.204068289653136
100
AcDbArc
 50
170.4104058184
 51
179.9951899474
  0
ARC
  5
68B
330
1F
100
AcDbEntity
  8
0
  6
Continuous
 62
     7
370
    25
100
AcDbCircle
 10
1801.2781123507
 20
227.5138606051
 30
0.0
 40
4.550879192321624
100
AcDbArc
 50
0.0032573891
 51
8.8514743612
  0
ARC
  5
68C
330
1F
100
AcDbEntity
  8
0
  6
Continuous
 62
     7
370
    25
100
AcDbCircle
 10
1801.2781122024
 20
333.9143850847
 30
0.0
 40
4.550879341280411
100
AcDbArc
 50
351.1485257344
 51
359.9966110924
  0
ARC
  5
68D
330
1F
100
AcDbEntity
  8
0
  6
Continuous
 62
     7
370
    25
100
AcDbCircle
 10
1823.682843868
 20
333.9144636544
 30
0.0
 40
4.203882053658451
100
AcDbArc
 50
180.0047394813
 51
189.5898070552
  0
ARC
  5
68E
330
1F
100
AcDbEntity
  8
0
  6
Continuous
 62
     7
370
    25
100
AcDbCircle
 10
1801.2719995211
 20
333.9135086877
 30
0.0
 40
4.543016036886948
100
AcDbArc
 50
179.9923417963
 51
188.8557317722
  0
ARC
  5
68F
330
1F
100
AcDbEntity
  8
0
  6
Continuous
 62
     7
370
    25
100
AcDbCircle
 10
1823.6750968125
 20
333.9144636544
 30
0.0
 40
4.203882053658003
100
AcDbArc
 50
350.4101929448
 51
359.9952605187
  0
ARC
  5
690
330
1F
100
AcDbEntity
  8
0
  6
Continuous
 62
     7
370
    25
100
AcDbCircle
 10
1823.6747241956
 20
227.514487911
 30
0.0
 40
4.204254672336001
100
AcDbArc
 50
350.4106187712
 51
359.9949769946
  0
ARC
  5
691
330
1F
100
AcDbEntity
  8
0
  6
Continuous
 62
     7
370
    25
100
AcDbCircle
 10
1801.2722009242
 20
227.5135172692
 30
0.0
 40
4.54321743932334
100
AcDbArc
 50
179.9924072126
 51
188.8555350331
  0
ARC
  5
692
330
1F
100
AcDbEntity
  8
0
  6
Continuous
 62
     7
370
    25
100
AcDbCircle
 10
1823.6832164849
 20
227.514487911
 30
0.0
 40
4.20425467233645
100
AcDbArc
 50
180.0050230054
 51
189.5893812288
  0
ARC
  5
693
330
1F
100
AcDbEntity
  8
0
  6
Continuous
 62
     7
370
    25
100
AcDbCircle
 10
1801.2779106847
 20
227.514393674
 30
0.0
 40
4.551080859295838
100
AcDbArc
 50
351.1487220699
 51
359.9965461798
  0
DIMENSION
  5
694
330
1F
100
AcDbEntity
  8
FORMAT
100
AcDbDimension
  2
_D_33
 10
1704.7599702326
 20
227.5141219187
 30
0.0
 11
1704.7599702326
 21
171.3764456829
 31
0.0
 70
   160
  1
<>
 71
     2
 42
-1.0
  3
SLDDIMSTYLE5
100
AcDbAlignedDimension
 13
1765.1393502984
 23
217.0141219187
 33
0.0
 14
1801.2789768491
 24
227.5141219187
 34
0.0
 50
90.0
100
AcDbRotatedDimension
  0
DIMENSION
  5
6A0
330
1F
100
AcDbEntity
  8
FORMAT
100
AcDbDimension
  2
_D_34
 10
1658.627348598
 20
333.9141219187
 30
0.0
 11
1658.627348598
 21
280.7141219187
 31
0.0
 70
   160
  1
<>
 71
     2
 42
-1.0
  3
SLDDIMSTYLE9
100
AcDbAlignedDimension
 13
1793.2289768491
 23
227.5141219187
 33
0.0
 14
1793.2289768491
 24
333.9141219187
 34
0.0
 50
90.0
100
AcDbRotatedDimension
  0
MTEXT
  5
6AB
330
1F
100
AcDbEntity
  8
FORMAT
100
AcDbMText
 10
1805.753867532
 20
453.5197744727
 30
0.0
 40
35.0
 41
0.0
 71
     2
 72
     1
  1
C (1 : 5)
  7
SLDTEXTSTYLE0
 73
     1
 44
1.0
  0
INSERT
  5
6B7
330
1F
100
AcDbEntity
  8
FORMAT
100
AcDbBlockReference
  2
SW_CENTERMARKSYMBOL_12
 10
1801.2789875302
 20
333.9141159111
 30
0.0
  0
INSERT
  5
6C3
330
1F
100
AcDbEntity
  8
FORMAT
100
AcDbBlockReference
  2
SW_CENTERMARKSYMBOL_13
 10
1801.2789875302
 20
227.5141193324
 30
0.0
  0
ENDSEC
  0
SECTION
  2
OBJECTS
  0
DICTIONARY
  5
C
330
0
100
AcDbDictionary
281
     1
  3
ACAD_GROUP
350
D
  3
ACAD_LAYOUT
350
1A
  3
ACAD_MLINESTYLE
350
17
  3
ACAD_PLOTSETTINGS
350
19
  3
ACAD_PLOTSTYLENAME
350
E
  3
ACAD_SCALELIST
350
47
  3
DWGPROPS
350
6C4
  0
DICTIONARY
  5
D
102
{ACAD_REACTORS
330
C
102
}
330
C
100
AcDbDictionary
281
     1
  0
DICTIONARY
  5
1A
102
{ACAD_REACTORS
330
C
102
}
330
C
100
AcDbDictionary
281
     1
  3
Layout1
350
1E
  3
Layout2
350
26
  3
Model
350
22
  0
DICTIONARY
  5
17
102
{ACAD_REACTORS
330
C
102
}
330
C
100
AcDbDictionary
281
     1
  3
Standard
350
18
  0
DICTIONARY
  5
19
102
{ACAD_REACTORS
330
C
102
}
330
C
100
AcDbDictionary
281
     1
  0
ACDBDICTIONARYWDFLT
  5
E
102
{ACAD_REACTORS
330
C
102
}
330
C
100
AcDbDictionary
281
     1
  3
Normal
350
F
100
AcDbDictionaryWithDefault
340
F
  0
DICTIONARY
  5
47
102
{ACAD_REACTORS
330
C
102
}
330
C
100
AcDbDictionary
281
     1
  3
A0
350
48
  3
A1
350
49
  3
A2
350
4A
  3
A3
350
4B
  3
A4
350
4C
  3
A5
350
4D
  3
A6
350
4E
  3
A7
350
4F
  3
A8
350
50
  3
A9
350
51
  3
B0
350
52
  3
B1
350
53
  3
B2
350
54
  3
B3
350
55
  3
B4
350
56
  3
B5
350
57
  3
B6
350
58
  3
B7
350
59
  3
B8
350
5A
  3
B9
350
5B
  3
C0
350
5C
  3
C1
350
5D
  3
C2
350
5E
  3
C3
350
5F
  3
C4
350
60
  3
C5
350
61
  3
C6
350
62
  3
C7
350
63
  3
C8
350
64
  3
C9
350
65
  3
D0
350
66
  3
D1
350
67
  3
D2
350
68
  0
XRECORD
  5
6C4
102
{ACAD_REACTORS
330
C
102
}
330
C
100
AcDbXrecord
280
     1
  1
DWGPROPS COOKIE
  2

  3

  4

  6

  7

  8
l.eckardt
  9

300
=
301
=
302
=
303
=
304
=
305
=
306
=
307
=
308
=
309
=
 40
0.0
 41
2460077.383501227
 42
2460077.383505463
  1

 90
        0
  0
LAYOUT
  5
1E
102
{ACAD_REACTORS
330
1A
102
}
330
1A
100
AcDbPlotSettings
  1

  2
none_device
  4

  6

 40
0.0
 41
0.0
 42
0.0
 43
0.0
 44
0.0
 45
0.0
 46
0.0
 47
0.0
 48
0.0
 49
0.0
140
0.0
141
0.0
142
1.0
143
1.0
 70
   688
 72
     1
 73
     0
 74
     5
  7

 75
    16
147
1.0
148
0.0
149
0.0
100
AcDbLayout
  1
Layout1
 70
     1
 71
     1
 10
0.0
 20
0.0
 11
420.0
 21
297.0
 12
0.0
 22
0.0
 32
0.0
 14
1.0000000000E+20
 24
1.0000000000E+20
 34
1.0000000000E+20
 15
-1.0000000000E+20
 25
-1.0000000000E+20
 35
-1.0000000000E+20
146
0.0
 13
0.0
 23
0.0
 33
0.0
 16
1.0
 26
0.0
 36
0.0
 17
0.0
 27
1.0
 37
0.0
 76
     0
330
1B
  0
LAYOUT
  5
26
102
{ACAD_REACTORS
330
1A
102
}
330
1A
100
AcDbPlotSettings
  1

  2
none_device
  4

  6

 40
0.0
 41
0.0
 42
0.0
 43
0.0
 44
0.0
 45
0.0
 46
0.0
 47
0.0
 48
0.0
 49
0.0
140
0.0
141
0.0
142
1.0
143
1.0
 70
   688
 72
     1
 73
     0
 74
     5
  7

 75
    16
147
1.0
148
0.0
149
0.0
100
AcDbLayout
  1
Layout2
 70
     1
 71
     2
 10
0.0
 20
0.0
 11
0.0
 21
0.0
 12
0.0
 22
0.0
 32
0.0
 14
0.0
 24
0.0
 34
0.0
 15
0.0
 25
0.0
 35
0.0
146
0.0
 13
0.0
 23
0.0
 33
0.0
 16
1.0
 26
0.0
 36
0.0
 17
0.0
 27
1.0
 37
0.0
 76
     0
330
23
  0
LAYOUT
  5
22
102
{ACAD_REACTORS
330
1A
102
}
330
1A
100
AcDbPlotSettings
  1

  2
none_device
  4
Letter_(8.50_x_11.00_Inches)
  6

 40
6.35
 41
6.35
 42
6.35000508
 43
6.35000508
 44
215.9
 45
279.4
 46
0.0
 47
0.0
 48
0.0
 49
0.0
140
0.0
141
0.0
142
1.0
143
1.0
 70
  1712
 72
     1
 73
     0
 74
     0
  7

 75
     0
147
1.0
148
0.0
149
0.0
100
AcDbLayout
  1
Model
 70
     1
 71
     0
 10
0.0
 20
0.0
 11
2940.0
 21
2079.0
 12
0.0
 22
0.0
 32
0.0
 14
0.0
 24
0.0
 34
0.0
 15
2940.0
 25
2079.0
 35
0.0
146
0.0
 13
0.0
 23
0.0
 33
0.0
 16
1.0
 26
0.0
 36
0.0
 17
0.0
 27
1.0
 37
0.0
 76
     0
330
1F
331
29
  0
MLINESTYLE
  5
18
102
{ACAD_REACTORS
330
17
102
}
330
17
100
AcDbMlineStyle
  2
Standard
 70
     0
  3

 62
   256
 51
90.0
 52
90.0
 71
     2
 49
0.5
 62
   256
  6
BYLAYER
 49
-0.5
 62
   256
  6
BYLAYER
  0
ACDBPLACEHOLDER
  5
F
102
{ACAD_REACTORS
330
E
102
}
330
E
  0
SCALE
  5
48
102
{ACAD_REACTORS
330
47
102
}
330
47
100
AcDbScale
 70
     0
300
1:1
140
1.0
141
1.0
290
     1
  0
SCALE
  5
49
102
{ACAD_REACTORS
330
47
102
}
330
47
100
AcDbScale
 70
     0
300
1:2
140
1.0
141
2.0
290
     0
  0
SCALE
  5
4A
102
{ACAD_REACTORS
330
47
102
}
330
47
100
AcDbScale
 70
     0
300
1:4
140
1.0
141
4.0
290
     0
  0
SCALE
  5
4B
102
{ACAD_REACTORS
330
47
102
}
330
47
100
AcDbScale
 70
     0
300
1:5
140
1.0
141
5.0
290
     0
  0
SCALE
  5
4C
102
{ACAD_REACTORS
330
47
102
}
330
47
100
AcDbScale
 70
     0
300
1:8
140
1.0
141
8.0
290
     0
  0
SCALE
  5
4D
102
{ACAD_REACTORS
330
47
102
}
330
47
100
AcDbScale
 70
     0
300
1:10
140
1.0
141
10.0
290
     0
  0
SCALE
  5
4E
102
{ACAD_REACTORS
330
47
102
}
330
47
100
AcDbScale
 70
     0
300
1:16
140
1.0
141
16.0
290
     0
  0
SCALE
  5
4F
102
{ACAD_REACTORS
330
47
102
}
330
47
100
AcDbScale
 70
     0
300
1:20
140
1.0
141
20.0
290
     0
  0
SCALE
  5
50
102
{ACAD_REACTORS
330
47
102
}
330
47
100
AcDbScale
 70
     0
300
1:30
140
1.0
141
30.0
290
     0
  0
SCALE
  5
51
102
{ACAD_REACTORS
330
47
102
}
330
47
100
AcDbScale
 70
     0
300
1:40
140
1.0
141
40.0
290
     0
  0
SCALE
  5
52
102
{ACAD_REACTORS
330
47
102
}
330
47
100
AcDbScale
 70
     0
300
1:50
140
1.0
141
50.0
290
     0
  0
SCALE
  5
53
102
{ACAD_REACTORS
330
47
102
}
330
47
100
AcDbScale
 70
     0
300
1:100
140
1.0
141
100.0
290
     0
  0
SCALE
  5
54
102
{ACAD_REACTORS
330
47
102
}
330
47
100
AcDbScale
 70
     0
300
2:1
140
2.0
141
1.0
290
     0
  0
SCALE
  5
55
102
{ACAD_REACTORS
330
47
102
}
330
47
100
AcDbScale
 70
     0
300
4:1
140
4.0
141
1.0
290
     0
  0
SCALE
  5
56
102
{ACAD_REACTORS
330
47
102
}
330
47
100
AcDbScale
 70
     0
300
8:1
140
8.0
141
1.0
290
     0
  0
SCALE
  5
57
102
{ACAD_REACTORS
330
47
102
}
330
47
100
AcDbScale
 70
     0
300
10:1
140
10.0
141
1.0
290
     0
  0
SCALE
  5
58
102
{ACAD_REACTORS
330
47
102
}
330
47
100
AcDbScale
 70
     0
300
100:1
140
100.0
141
1.0
290
     0
  0
SCALE
  5
59
102
{ACAD_REACTORS
330
47
102
}
330
47
100
AcDbScale
 70
     0
300
1/128" = 1'-0"
140
0.0078125
141
12.0
290
     0
  0
SCALE
  5
5A
102
{ACAD_REACTORS
330
47
102
}
330
47
100
AcDbScale
 70
     0
300
1/64" = 1'-0"
140
0.015625
141
12.0
290
     0
  0
SCALE
  5
5B
102
{ACAD_REACTORS
330
47
102
}
330
47
100
AcDbScale
 70
     0
300
1/32" = 1'-0"
140
0.03125
141
12.0
290
     0
  0
SCALE
  5
5C
102
{ACAD_REACTORS
330
47
102
}
330
47
100
AcDbScale
 70
     0
300
1/16" = 1'-0"
140
0.0625
141
12.0
290
     0
  0
SCALE
  5
5D
102
{ACAD_REACTORS
330
47
102
}
330
47
100
AcDbScale
 70
     0
300
3/32" = 1'-0"
140
0.09375
141
12.0
290
     0
  0
SCALE
  5
5E
102
{ACAD_REACTORS
330
47
102
}
330
47
100
AcDbScale
 70
     0
300
1/8" = 1'-0"
140
0.125
141
12.0
290
     0
  0
SCALE
  5
5F
102
{ACAD_REACTORS
330
47
102
}
330
47
100
AcDbScale
 70
     0
300
3/16" = 1'-0"
140
0.1875
141
12.0
290
     0
  0
SCALE
  5
60
102
{ACAD_REACTORS
330
47
102
}
330
47
100
AcDbScale
 70
     0
300
1/4" = 1'-0"
140
0.25
141
12.0
290
     0
  0
SCALE
  5
61
102
{ACAD_REACTORS
330
47
102
}
330
47
100
AcDbScale
 70
     0
300
3/8" = 1'-0"
140
0.375
141
12.0
290
     0
  0
SCALE
  5
62
102
{ACAD_REACTORS
330
47
102
}
330
47
100
AcDbScale
 70
     0
300
1/2" = 1'-0"
140
0.5
141
12.0
290
     0
  0
SCALE
  5
63
102
{ACAD_REACTORS
330
47
102
}
330
47
100
AcDbScale
 70
     0
300
3/4" = 1'-0"
140
0.75
141
12.0
290
     0
  0
SCALE
  5
64
102
{ACAD_REACTORS
330
47
102
}
330
47
100
AcDbScale
 70
     0
300
1" = 1'-0"
140
1.0
141
12.0
290
     0
  0
SCALE
  5
65
102
{ACAD_REACTORS
330
47
102
}
330
47
100
AcDbScale
 70
     0
300
1-1/2" = 1'-0"
140
1.5
141
12.0
290
     0
  0
SCALE
  5
66
102
{ACAD_REACTORS
330
47
102
}
330
47
100
AcDbScale
 70
     0
300
3" = 1'-0"
140
3.0
141
12.0
290
     0
  0
SCALE
  5
67
102
{ACAD_REACTORS
330
47
102
}
330
47
100
AcDbScale
 70
     0
300
6" = 1'-0"
140
6.0
141
12.0
290
     0
  0
SCALE
  5
68
102
{ACAD_REACTORS
330
47
102
}
330
47
100
AcDbScale
 70
     0
300
1'-0" = 1'-0"
140
12.0
141
12.0
290
     0
  0
ENDSEC
  0
EOF
