  0
SECTION
  2
HEADER
  9
$ACADVER
  1
AC1015
  9
$ACADMAINTVER
 70
     6
  9
$DWGCODEPAGE
  3
ANSI_1252
  9
$INSBASE
 10
0.0
 20
0.0
 30
0.0
  9
$EXTMIN
 10
0.0
 20
0.0
 30
0.0
  9
$EXTMAX
 10
2940.0
 20
2079.0
 30
0.0
  9
$LIMMIN
 10
0.0
 20
0.0
  9
$LIMMAX
 10
2940.0
 20
2079.0
  9
$ORTHOMODE
 70
     0
  9
$REGENMODE
 70
     1
  9
$FILLMODE
 70
     1
  9
$QTEXTMODE
 70
     0
  9
$MIRRTEXT
 70
     1
  9
$LTSCALE
 40
7.0
  9
$ATTMODE
 70
     1
  9
$TEXTSIZE
 40
24.5
  9
$TRACEWID
 40
1.0
  9
$TEXTSTYLE
  7
STANDARD
  9
$CLAYER
  8
0
  9
$CELTYPE
  6
ByLayer
  9
$CECOLOR
 62
   256
  9
$CELTSCALE
 40
1.0
  9
$DISPSILH
 70
     0
  9
$DIMSCALE
 40
1.0
  9
$DIMASZ
 40
23.114
  9
$DIMEXO
 40
7.0
  9
$DIMDLI
 40
3.75
  9
$DIMRND
 40
0.0
  9
$DIMDLE
 40
0.0
  9
$DIMEXE
 40
7.0
  9
$DIMTP
 40
0.0
  9
$DIMTM
 40
0.0
  9
$DIMTXT
 40
24.5
  9
$DIMCEN
 40
2.5
  9
$DIMTSZ
 40
0.0
  9
$DIMTOL
 70
     0
  9
$DIMLIM
 70
     0
  9
$DIMTIH
 70
     1
  9
$DIMTOH
 70
     1
  9
$DIMSE1
 70
     0
  9
$DIMSE2
 70
     0
  9
$DIMTAD
 70
     1
  9
$DIMZIN
 70
     0
  9
$DIMBLK
  1

  9
$DIMASO
 70
     1
  9
$DIMSHO
 70
     1
  9
$DIMPOST
  1

  9
$DIMAPOST
  1

  9
$DIMALT
 70
     0
  9
$DIMALTD
 70
     3
  9
$DIMALTF
 40
0.0393700787
  9
$DIMLFAC
 40
1.0
  9
$DIMTOFL
 70
     1
  9
$DIMTVP
 40
0.0
  9
$DIMTIX
 70
     0
  9
$DIMSOXD
 70
     0
  9
$DIMSAH
 70
     0
  9
$DIMBLK1
  1

  9
$DIMBLK2
  1

  9
$DIMSTYLE
  2
ISO-25
  9
$DIMCLRD
 70
     0
  9
$DIMCLRE
 70
     0
  9
$DIMCLRT
 70
     0
  9
$DIMTFAC
 40
1.0
  9
$DIMGAP
 40
21.0
  9
$DIMJUST
 70
     0
  9
$DIMSD1
 70
     0
  9
$DIMSD2
 70
     0
  9
$DIMTOLJ
 70
     0
  9
$DIMTZIN
 70
     0
  9
$DIMALTZ
 70
     0
  9
$DIMALTTZ
 70
     0
  9
$DIMUPT
 70
     0
  9
$DIMDEC
 70
     2
  9
$DIMTDEC
 70
     2
  9
$DIMALTU
 70
     2
  9
$DIMALTTD
 70
     3
  9
$DIMTXSTY
  7
STANDARD
  9
$DIMAUNIT
 70
     0
  9
$DIMADEC
 70
     2
  9
$DIMALTRND
 40
0.0
  9
$DIMAZIN
 70
     0
  9
$DIMDSEP
 70
    44
  9
$DIMATFIT
 70
     3
  9
$DIMFRAC
 70
     0
  9
$DIMLDRBLK
  1

  9
$DIMLUNIT
 70
     2
  9
$DIMLWD
 70
    -2
  9
$DIMLWE
 70
    -2
  9
$DIMTMOVE
 70
     0
  9
$LUNITS
 70
     2
  9
$LUPREC
 70
     2
  9
$SKETCHINC
 40
1.0
  9
$FILLETRAD
 40
10.0
  9
$AUNITS
 70
     0
  9
$AUPREC
 70
     2
  9
$MENU
  1
.
  9
$ELEVATION
 40
0.0
  9
$PELEVATION
 40
0.0
  9
$THICKNESS
 40
0.0
  9
$LIMCHECK
 70
     0
  9
$CHAMFERA
 40
0.0
  9
$CHAMFERB
 40
0.0
  9
$CHAMFERC
 40
0.0
  9
$CHAMFERD
 40
0.0
  9
$SKPOLY
 70
     0
  9
$TDCREATE
 40
2460077.463499757
  9
$TDUCREATE
 40
2460077.380166424
  9
$TDUPDATE
 40
2460077.463504074
  9
$TDUUPDATE
 40
2460077.380170741
  9
$TDINDWG
 40
0.0000000116
  9
$TDUSRTIMER
 40
0.0000000116
  9
$USRTIMER
 70
     1
  9
$ANGBASE
 50
0.0
  9
$ANGDIR
 70
     0
  9
$PDMODE
 70
     0
  9
$PDSIZE
 40
-1.0
  9
$PLINEWID
 40
0.0
  9
$SPLFRAME
 70
     0
  9
$SPLINETYPE
 70
     6
  9
$SPLINESEGS
 70
     8
  9
$HANDSEED
  5
6C3
  9
$SURFTAB1
 70
     6
  9
$SURFTAB2
 70
     6
  9
$SURFTYPE
 70
     6
  9
$SURFU
 70
     6
  9
$SURFV
 70
     6
  9
$UCSBASE
  2

  9
$UCSNAME
  2

  9
$UCSORG
 10
0.0
 20
0.0
 30
0.0
  9
$UCSXDIR
 10
1.0
 20
0.0
 30
0.0
  9
$UCSYDIR
 10
0.0
 20
1.0
 30
0.0
  9
$UCSORTHOREF
  2

  9
$UCSORTHOVIEW
 70
     0
  9
$UCSORGTOP
 10
0.0
 20
0.0
 30
0.0
  9
$UCSORGBOTTOM
 10
0.0
 20
0.0
 30
0.0
  9
$UCSORGLEFT
 10
0.0
 20
0.0
 30
0.0
  9
$UCSORGRIGHT
 10
0.0
 20
0.0
 30
0.0
  9
$UCSORGFRONT
 10
0.0
 20
0.0
 30
0.0
  9
$UCSORGBACK
 10
0.0
 20
0.0
 30
0.0
  9
$PUCSBASE
  2

  9
$PUCSNAME
  2

  9
$PUCSORG
 10
0.0
 20
0.0
 30
0.0
  9
$PUCSXDIR
 10
1.0
 20
0.0
 30
0.0
  9
$PUCSYDIR
 10
0.0
 20
1.0
 30
0.0
  9
$PUCSORTHOREF
  2

  9
$PUCSORTHOVIEW
 70
     0
  9
$PUCSORGTOP
 10
0.0
 20
0.0
 30
0.0
  9
$PUCSORGBOTTOM
 10
0.0
 20
0.0
 30
0.0
  9
$PUCSORGLEFT
 10
0.0
 20
0.0
 30
0.0
  9
$PUCSORGRIGHT
 10
0.0
 20
0.0
 30
0.0
  9
$PUCSORGFRONT
 10
0.0
 20
0.0
 30
0.0
  9
$PUCSORGBACK
 10
0.0
 20
0.0
 30
0.0
  9
$USERI1
 70
     0
  9
$USERI2
 70
     0
  9
$USERI3
 70
     0
  9
$USERI4
 70
     0
  9
$USERI5
 70
     0
  9
$USERR1
 40
0.0
  9
$USERR2
 40
0.0
  9
$USERR3
 40
0.0
  9
$USERR4
 40
0.0
  9
$USERR5
 40
0.0
  9
$WORLDVIEW
 70
     1
  9
$SHADEDGE
 70
     3
  9
$SHADEDIF
 70
    70
  9
$TILEMODE
 70
     1
  9
$MAXACTVP
 70
    64
  9
$PINSBASE
 10
0.0
 20
0.0
 30
0.0
  9
$PLIMCHECK
 70
     0
  9
$PEXTMIN
 10
1.0000000000E+20
 20
1.0000000000E+20
 30
1.0000000000E+20
  9
$PEXTMAX
 10
-1.0000000000E+20
 20
-1.0000000000E+20
 30
-1.0000000000E+20
  9
$PLIMMIN
 10
0.0
 20
0.0
  9
$PLIMMAX
 10
420.0
 20
297.0
  9
$UNITMODE
 70
     0
  9
$VISRETAIN
 70
     1
  9
$PLINEGEN
 70
     0
  9
$PSLTSCALE
 70
     1
  9
$TREEDEPTH
 70
  3020
  9
$CMLSTYLE
  2
Standard
  9
$CMLJUST
 70
     0
  9
$CMLSCALE
 40
20.0
  9
$PROXYGRAPHICS
 70
     1
  9
$MEASUREMENT
 70
     1
  9
$CELWEIGHT
370
    -1
  9
$ENDCAPS
280
     0
  9
$JOINSTYLE
280
     0
  9
$LWDISPLAY
290
     1
  9
$INSUNITS
 70
     4
  9
$HYPERLINKBASE
  1

  9
$STYLESHEET
  1

  9
$XEDIT
290
     1
  9
$CEPSNTYPE
380
     0
  9
$PSTYLEMODE
290
     1
  9
$FINGERPRINTGUID
  2
{34d1ba40-60fc-44b3-ae2d-5f28f9471c8d}
  9
$VERSIONGUID
  2
{FAEB1C32-E019-11D5-929B-00C0DF256EC4}
  9
$EXTNAMES
290
     1
  9
$PSVPSCALE
 40
0.0
  9
$OLESTARTUP
290
     0
  0
ENDSEC
  0
SECTION
  2
CLASSES
  0
CLASS
  1
ACDBDICTIONARYWDFLT
  2
AcDbDictionaryWithDefault
  3
ObjectDBX Classes
 90
        0
280
     0
281
     0
  0
CLASS
  1
VISUALSTYLE
  2
AcDbVisualStyle
  3
ObjectDBX Classes
 90
     4095
280
     0
281
     0
  0
CLASS
  1
MATERIAL
  2
AcDbMaterial
  3
ObjectDBX Classes
 90
     1153
280
     0
281
     0
  0
CLASS
  1
SCALE
  2
AcDbScale
  3
ObjectDBX Classes
 90
     1153
280
     0
281
     0
  0
CLASS
  1
TABLESTYLE
  2
AcDbTableStyle
  3
ObjectDBX Classes
 90
     4095
280
     0
281
     0
  0
CLASS
  1
MLEADERSTYLE
  2
AcDbMLeaderStyle
  3
ACDB_MLEADERSTYLE_CLASS
 90
     4095
280
     0
281
     0
  0
CLASS
  1
SUN
  2
AcDbSun
  3
SCENEOE
 90
     1153
280
     0
281
     0
  0
CLASS
  1
ACDBPLACEHOLDER
  2
AcDbPlaceHolder
  3
ObjectDBX Classes
 90
        0
280
     0
281
     0
  0
CLASS
  1
LAYOUT
  2
AcDbLayout
  3
ObjectDBX Classes
 90
        0
280
     0
281
     0
  0
ENDSEC
  0
SECTION
  2
TABLES
  0
TABLE
  2
VPORT
  5
8
330
0
100
AcDbSymbolTable
 70
     1
  0
VPORT
  5
29
330
8
100
AcDbSymbolTableRecord
100
AcDbViewportTableRecord
  2
*Active
 70
     0
 10
0.0
 20
0.0
 11
1.0
 21
1.0
 12
1470.0
 22
1039.5
 13
0.0
 23
0.0
 14
10.0
 24
10.0
 15
10.0
 25
10.0
 16
0.0
 26
0.0
 36
1.0
 17
0.0
 27
0.0
 37
0.0
 40
2079.0
 41
1.4141414141
 42
50.0
 43
0.0
 44
0.0
 50
0.0
 51
0.0
 71
     0
 72
  2000
 73
     1
 74
     3
 75
     0
 76
     0
 77
     0
 78
     0
281
     0
 65
     1
110
0.0
120
0.0
130
0.0
111
1.0
121
0.0
131
0.0
112
0.0
122
1.0
132
0.0
 79
     0
146
0.0
  0
ENDTAB
  0
TABLE
  2
LTYPE
  5
5
330
0
100
AcDbSymbolTable
 70
     6
  0
LTYPE
  5
14
330
5
100
AcDbSymbolTableRecord
100
AcDbLinetypeTableRecord
  2
ByBlock
 70
     0
  3

 72
    65
 73
     0
 40
0.0
  0
LTYPE
  5
15
330
5
100
AcDbSymbolTableRecord
100
AcDbLinetypeTableRecord
  2
ByLayer
 70
     0
  3

 72
    65
 73
     0
 40
0.0
  0
LTYPE
  5
16
330
5
100
AcDbSymbolTableRecord
100
AcDbLinetypeTableRecord
  2
Continuous
 70
     0
  3
Solid line
 72
    65
 73
     0
 40
0.0
  0
LTYPE
  5
6E
330
5
100
AcDbSymbolTableRecord
100
AcDbLinetypeTableRecord
  2
HIDDEN
 70
     0
  3
Hidden __ __ __ __ __ __ __ __ __ __ __ __ __ __
 72
    65
 73
     2
 40
1.905
 49
1.27
 74
     0
 49
-0.635
 74
     0
  0
LTYPE
  5
6F
330
5
100
AcDbSymbolTableRecord
100
AcDbLinetypeTableRecord
  2
PHANTOM
 70
     0
  3
Phantom ______  __  __  ______  __  __  ______
 72
    65
 73
     6
 40
12.7
 49
6.35
 74
     0
 49
-1.27
 74
     0
 49
1.27
 74
     0
 49
-1.27
 74
     0
 49
1.27
 74
     0
 49
-1.27
 74
     0
  0
LTYPE
  5
70
330
5
100
AcDbSymbolTableRecord
100
AcDbLinetypeTableRecord
  2
CENTER
 70
     0
  3
Center ____ _ ____ _ ____ _ ____ _ ____ _ ____
 72
    65
 73
     4
 40
10.16
 49
6.35
 74
     0
 49
-1.27
 74
     0
 49
1.27
 74
     0
 49
-1.27
 74
     0
  0
LTYPE
  5
71
330
5
100
AcDbSymbolTableRecord
100
AcDbLinetypeTableRecord
  2
CENTERX2
 70
     0
  3
Center (2x) ________  __  ________  __  _____
 72
    65
 73
     4
 40
20.32
 49
12.7
 74
     0
 49
-2.54
 74
     0
 49
2.54
 74
     0
 49
-2.54
 74
     0
  0
LTYPE
  5
72
330
5
100
AcDbSymbolTableRecord
100
AcDbLinetypeTableRecord
  2
DOT2
 70
     0
  3
Dot (.5x) ........................................
 72
    65
 73
     2
 40
0.635
 49
0.0
 74
     0
 49
-0.635
 74
     0
  0
ENDTAB
  0
TABLE
  2
LAYER
  5
2
330
0
100
AcDbSymbolTable
 70
     8
  0
LAYER
  5
10
330
2
100
AcDbSymbolTableRecord
100
AcDbLayerTableRecord
  2
0
 70
     0
 62
     7
  6
Continuous
370
    -3
390
F
  0
LAYER
  5
73
330
2
100
AcDbSymbolTableRecord
100
AcDbLayerTableRecord
  2
FORMAT
 70
     0
 62
     7
  6
Continuous
370
    -3
390
F
  0
LAYER
  5
74
330
2
100
AcDbSymbolTableRecord
100
AcDbLayerTableRecord
  2
VORLAGE
 70
     0
 62
     7
  6
Continuous
370
    -3
390
F
  0
LAYER
  5
75
330
2
100
AcDbSymbolTableRecord
100
AcDbLayerTableRecord
  2
1
 70
     0
 62
   179
  6
Continuous
370
    -3
390
F
  0
LAYER
  5
76
330
2
100
AcDbSymbolTableRecord
100
AcDbLayerTableRecord
  2
LAYER0
 70
     0
 62
     7
  6
Continuous
370
    -3
390
F
  0
LAYER
  5
77
330
2
100
AcDbSymbolTableRecord
100
AcDbLayerTableRecord
  2
BEMASSUNG
 70
     0
 62
     1
  6
Continuous
370
    -3
390
F
  0
LAYER
  5
78
330
2
100
AcDbSymbolTableRecord
100
AcDbLayerTableRecord
  2
ÄNDERUNG
 70
     0
 62
     1
  6
Continuous
370
    -3
390
F
  0
LAYER
  5
79
330
2
100
AcDbSymbolTableRecord
100
AcDbLayerTableRecord
  2
KENNZEICHNUNG
 70
     0
 62
     7
  6
Continuous
370
    -3
390
F
  0
ENDTAB
  0
TABLE
  2
STYLE
  5
3
330
0
100
AcDbSymbolTable
 70
     5
  0
STYLE
  5
11
330
3
100
AcDbSymbolTableRecord
100
AcDbTextStyleTableRecord
  2
STANDARD
 70
     0
 40
0.0
 41
1.0
 50
0.0
 71
     0
 42
24.5
  3
ARIAL.TTF
  4

1001
ACAD
1000
ARIAL
1071
       34
  0
STYLE
  5
8B
330
3
100
AcDbSymbolTableRecord
100
AcDbTextStyleTableRecord
  2
SLDTEXTSTYLE0
 70
     0
 40
0.0
 41
0.948
 50
0.0
 71
     0
 42
24.5
  3
ARIAL.TTF
  4

1001
ACAD
1000
Arial
1071
      290
  0
STYLE
  5
B2
330
3
100
AcDbSymbolTableRecord
100
AcDbTextStyleTableRecord
  2
SLDTEXTSTYLE1
 70
     0
 40
0.0
 41
1.0
 50
0.0
 71
     0
 42
24.5
  3
ARIALUNI.TTF
  4

1001
ACAD
1000
Arial Unicode MS
1071
 33554722
  0
STYLE
  5
B8
330
3
100
AcDbSymbolTableRecord
100
AcDbTextStyleTableRecord
  2
SLDTEXTSTYLE2
 70
     0
 40
0.0
 41
0.87
 50
0.0
 71
     0
 42
24.5
  3
ARIALN.TTF
  4

1001
ACAD
1000
Arial Narrow
1071
      290
  0
STYLE
  5
E8
330
3
100
AcDbSymbolTableRecord
100
AcDbTextStyleTableRecord
  2
SLDTEXTSTYLE3
 70
     0
 40
0.0
 41
0.948
 50
0.0
 71
     0
 42
24.5
  3
ARIALBD.TTF
  4

1001
ACAD
1000
Arial
1071
 33554722
  0
ENDTAB
  0
TABLE
  2
VIEW
  5
6
330
0
100
AcDbSymbolTable
 70
     0
  0
ENDTAB
  0
TABLE
  2
UCS
  5
7
330
0
100
AcDbSymbolTable
 70
     0
  0
ENDTAB
  0
TABLE
  2
APPID
  5
9
330
0
100
AcDbSymbolTable
 70
     1
  0
APPID
  5
12
330
9
100
AcDbSymbolTableRecord
100
AcDbRegAppTableRecord
  2
ACAD
 70
     0
  0
ENDTAB
  0
TABLE
  2
DIMSTYLE
  5
A
330
0
100
AcDbSymbolTable
 70
    10
100
AcDbDimStyleTable
  0
DIMSTYLE
105
27
330
A
100
AcDbSymbolTableRecord
100
AcDbDimStyleTableRecord
  2
ISO-25
 70
     0
 41
2.5
 42
0.625
 43
3.75
 44
1.25
 73
     0
 74
     0
 77
     1
 78
     8
140
2.5
141
2.5
143
0.0393700787
147
0.625
171
     3
172
     1
178
     0
271
     2
272
     2
274
     3
278
    44
283
     0
284
     8
340
11
  0
DIMSTYLE
105
200
102
{ACAD_REACTORS
330
1FF
330
217
330
221
330
22B
330
2E1
330
2EB
330
30C
330
32D
330
337
330
341
330
34B
330
355
330
515
330
51E
330
528
102
}
330
A
100
AcDbSymbolTableRecord
100
AcDbDimStyleTableRecord
  2
SLDDIMSTYLE0
 70
     0
 41
23.114
 44
0.0
 45
0.000000001
 73
     0
 74
     0
 77
     1
 78
    12
 79
     3
140
24.5
147
6.125
173
     1
178
     0
271
     2
272
     2
276
     2
284
    12
340
8B
  0
DIMSTYLE
105
20B
102
{ACAD_REACTORS
330
20A
330
2F5
330
315
330
321
330
378
330
50A
102
}
330
A
100
AcDbSymbolTableRecord
100
AcDbDimStyleTableRecord
  2
SLDDIMSTYLE1
 70
     0
 41
23.114
 44
0.0
 45
0.000000001
 73
     0
 74
     0
 77
     1
 78
    12
 79
     3
140
24.5
147
6.125
172
     1
173
     1
178
     0
271
     2
272
     2
276
     2
284
    12
289
     0
340
8B
  0
DIMSTYLE
105
301
102
{ACAD_REACTORS
330
300
330
35F
330
36B
102
}
330
A
100
AcDbSymbolTableRecord
100
AcDbDimStyleTableRecord
  2
SLDDIMSTYLE2
 70
     0
 41
23.114
 44
0.0
 45
0.000000001
 73
     0
 74
     0
 77
     1
 78
    12
 79
     3
140
24.5
147
6.125
172
     1
173
     1
178
     0
271
     0
272
     2
276
     2
284
    12
289
     0
340
8B
  0
DIMSTYLE
105
387
330
A
100
AcDbSymbolTableRecord
100
AcDbDimStyleTableRecord
  2
SLDDIMSTYLE3
 70
     0
 41
23.114
 44
0.0
 45
0.000000001
146
23.114
147
0.0
173
     1
178
     0
271
     0
272
     0
276
     2
340
11
  0
DIMSTYLE
105
4EF
102
{ACAD_REACTORS
330
4EE
330
4FF
102
}
330
A
100
AcDbSymbolTableRecord
100
AcDbDimStyleTableRecord
  2
SLDDIMSTYLE4
 70
     0
 41
7.112
 44
0.0
 45
0.000000001
 73
     0
 74
     0
 77
     1
 78
    12
 79
     3
140
17.9782307943
147
4.4945576986
173
     1
178
     0
271
     2
272
     2
276
     2
284
    12
340
8B
341
4F0
343
4F0
  0
DIMSTYLE
105
615
102
{ACAD_REACTORS
330
614
330
623
330
631
330
63D
330
692
102
}
330
A
100
AcDbSymbolTableRecord
100
AcDbDimStyleTableRecord
  2
SLDDIMSTYLE5
 70
     0
 41
23.114
 44
0.0
 45
0.000000001
 73
     0
 74
     0
 77
     1
 78
    12
 79
     3
140
24.5
144
0.7142857143
147
6.125
172
     1
173
     1
178
     0
271
     2
272
     2
276
     2
284
    12
289
     0
340
8B
  0
DIMSTYLE
105
64A
102
{ACAD_REACTORS
330
649
102
}
330
A
100
AcDbSymbolTableRecord
100
AcDbDimStyleTableRecord
  2
SLDDIMSTYLE6
 70
     0
 41
23.114
 44
0.0
 45
0.000000001
 73
     0
 74
     0
 77
     1
 78
    12
 79
     3
140
24.5
144
0.7142857143
147
6.125
172
     1
173
     1
178
     0
271
     2
272
     2
276
     2
284
    12
289
     0
340
E8
  0
DIMSTYLE
105
658
102
{ACAD_REACTORS
330
657
330
664
102
}
330
A
100
AcDbSymbolTableRecord
100
AcDbDimStyleTableRecord
  2
SLDDIMSTYLE7
 70
     0
 41
7.112
 44
0.0
 45
0.000000001
 73
     0
 74
     0
 77
     1
 78
    12
 79
     3
140
24.5
144
0.7142857143
147
6.125
172
     1
173
     1
178
     0
271
     2
272
     2
276
     2
284
    12
289
     0
340
8B
341
4F0
343
4F0
  0
DIMSTYLE
105
69F
102
{ACAD_REACTORS
330
69E
102
}
330
A
100
AcDbSymbolTableRecord
100
AcDbDimStyleTableRecord
  2
SLDDIMSTYLE8
 70
     0
 41
23.114
 44
0.0
 45
0.000000001
 73
     0
 74
     0
 77
     1
 78
    12
 79
     3
140
24.5
144
0.7142857143
147
6.125
173
     1
178
     0
271
     2
272
     2
276
     2
284
    12
340
8B
  0
ENDTAB
  0
TABLE
  2
BLOCK_RECORD
  5
1
330
0
100
AcDbSymbolTable
 70
    61
  0
BLOCK_RECORD
  5
1F
330
1
100
AcDbSymbolTableRecord
100
AcDbBlockTableRecord
  2
*Model_Space
340
22
  0
BLOCK_RECORD
  5
1B
330
1
100
AcDbSymbolTableRecord
100
AcDbBlockTableRecord
  2
*Paper_Space
340
1E
  0
BLOCK_RECORD
  5
23
330
1
100
AcDbSymbolTableRecord
100
AcDbBlockTableRecord
  2
*Paper_Space0
340
26
  0
BLOCK_RECORD
  5
7A
330
1
100
AcDbSymbolTableRecord
100
AcDbBlockTableRecord
  2
Block1_3_1
340
0
102
{BLKREFS
331
D8
102
}
  0
BLOCK_RECORD
  5
88
330
1
100
AcDbSymbolTableRecord
100
AcDbBlockTableRecord
  2
SW_NOTE_0
340
0
102
{BLKREFS
331
8E
102
}
  0
BLOCK_RECORD
  5
8F
330
1
100
AcDbSymbolTableRecord
100
AcDbBlockTableRecord
  2
Block2_3_1
340
0
102
{BLKREFS
331
DA
102
}
  0
BLOCK_RECORD
  5
AF
330
1
100
AcDbSymbolTableRecord
100
AcDbBlockTableRecord
  2
SW_NOTE_0_1
340
0
102
{BLKREFS
331
B4
102
}
  0
BLOCK_RECORD
  5
B5
330
1
100
AcDbSymbolTableRecord
100
AcDbBlockTableRecord
  2
SW_NOTE_0_2
340
0
102
{BLKREFS
331
BC
102
}
  0
BLOCK_RECORD
  5
BD
330
1
100
AcDbSymbolTableRecord
100
AcDbBlockTableRecord
  2
rechtlicher_Hinweis_Katalogzeichnungen_1
340
0
102
{BLKREFS
331
D9
102
}
  0
BLOCK_RECORD
  5
C0
330
1
100
AcDbSymbolTableRecord
100
AcDbBlockTableRecord
  2
SW_NOTE_0_3
340
0
102
{BLKREFS
331
C9
102
}
  0
BLOCK_RECORD
  5
DC
330
1
100
AcDbSymbolTableRecord
100
AcDbBlockTableRecord
  2
SW_NOTE_0_4
340
0
102
{BLKREFS
331
E2
102
}
  0
BLOCK_RECORD
  5
F4
330
1
100
AcDbSymbolTableRecord
100
AcDbBlockTableRecord
  2
SW_TABLEANNOTATION_0
340
0
102
{BLKREFS
331
10E
102
}
  0
BLOCK_RECORD
  5
201
330
1
100
AcDbSymbolTableRecord
100
AcDbBlockTableRecord
  2
_D
340
0
  0
BLOCK_RECORD
  5
20C
330
1
100
AcDbSymbolTableRecord
100
AcDbBlockTableRecord
  2
_D_1
340
0
  0
BLOCK_RECORD
  5
218
330
1
100
AcDbSymbolTableRecord
100
AcDbBlockTableRecord
  2
_D_2
340
0
  0
BLOCK_RECORD
  5
222
330
1
100
AcDbSymbolTableRecord
100
AcDbBlockTableRecord
  2
_D_3
340
0
  0
BLOCK_RECORD
  5
22C
330
1
100
AcDbSymbolTableRecord
100
AcDbBlockTableRecord
  2
_D_4
340
0
  0
BLOCK_RECORD
  5
2E2
330
1
100
AcDbSymbolTableRecord
100
AcDbBlockTableRecord
  2
_D_5
340
0
  0
BLOCK_RECORD
  5
2EC
330
1
100
AcDbSymbolTableRecord
100
AcDbBlockTableRecord
  2
_D_6
340
0
  0
BLOCK_RECORD
  5
2F6
330
1
100
AcDbSymbolTableRecord
100
AcDbBlockTableRecord
  2
_D_7
340
0
  0
BLOCK_RECORD
  5
302
330
1
100
AcDbSymbolTableRecord
100
AcDbBlockTableRecord
  2
_D_8
340
0
  0
BLOCK_RECORD
  5
30D
330
1
100
AcDbSymbolTableRecord
100
AcDbBlockTableRecord
  2
_D_9
340
0
  0
BLOCK_RECORD
  5
316
330
1
100
AcDbSymbolTableRecord
100
AcDbBlockTableRecord
  2
_D_10
340
0
  0
BLOCK_RECORD
  5
322
330
1
100
AcDbSymbolTableRecord
100
AcDbBlockTableRecord
  2
_D_11
340
0
  0
BLOCK_RECORD
  5
32E
330
1
100
AcDbSymbolTableRecord
100
AcDbBlockTableRecord
  2
_D_12
340
0
  0
BLOCK_RECORD
  5
338
330
1
100
AcDbSymbolTableRecord
100
AcDbBlockTableRecord
  2
_D_13
340
0
  0
BLOCK_RECORD
  5
342
330
1
100
AcDbSymbolTableRecord
100
AcDbBlockTableRecord
  2
_D_14
340
0
  0
BLOCK_RECORD
  5
34C
330
1
100
AcDbSymbolTableRecord
100
AcDbBlockTableRecord
  2
_D_15
340
0
  0
BLOCK_RECORD
  5
356
330
1
100
AcDbSymbolTableRecord
100
AcDbBlockTableRecord
  2
_D_16
340
0
  0
BLOCK_RECORD
  5
360
330
1
100
AcDbSymbolTableRecord
100
AcDbBlockTableRecord
  2
_D_17
340
0
  0
BLOCK_RECORD
  5
36C
330
1
100
AcDbSymbolTableRecord
100
AcDbBlockTableRecord
  2
_D_18
340
0
  0
BLOCK_RECORD
  5
379
330
1
100
AcDbSymbolTableRecord
100
AcDbBlockTableRecord
  2
_D_19
340
0
  0
BLOCK_RECORD
  5
389
330
1
100
AcDbSymbolTableRecord
100
AcDbBlockTableRecord
  2
SW_NOTE_0_5
340
0
102
{BLKREFS
331
38E
102
}
  0
BLOCK_RECORD
  5
392
330
1
100
AcDbSymbolTableRecord
100
AcDbBlockTableRecord
  2
SW_CENTERMARKSYMBOL_0
340
0
102
{BLKREFS
331
39D
102
}
  0
BLOCK_RECORD
  5
39E
330
1
100
AcDbSymbolTableRecord
100
AcDbBlockTableRecord
  2
SW_CENTERMARKSYMBOL_1
340
0
102
{BLKREFS
331
3A9
102
}
  0
BLOCK_RECORD
  5
3AA
330
1
100
AcDbSymbolTableRecord
100
AcDbBlockTableRecord
  2
SW_CENTERMARKSYMBOL_2
340
0
102
{BLKREFS
331
3B5
102
}
  0
BLOCK_RECORD
  5
3B6
330
1
100
AcDbSymbolTableRecord
100
AcDbBlockTableRecord
  2
SW_CENTERMARKSYMBOL_3
340
0
102
{BLKREFS
331
3C1
102
}
  0
BLOCK_RECORD
  5
3C2
330
1
100
AcDbSymbolTableRecord
100
AcDbBlockTableRecord
  2
SW_CENTERMARKSYMBOL_4
340
0
102
{BLKREFS
331
3CD
102
}
  0
BLOCK_RECORD
  5
3CE
330
1
100
AcDbSymbolTableRecord
100
AcDbBlockTableRecord
  2
SW_CENTERMARKSYMBOL_5
340
0
102
{BLKREFS
331
3D9
102
}
  0
BLOCK_RECORD
  5
3DA
330
1
100
AcDbSymbolTableRecord
100
AcDbBlockTableRecord
  2
SW_CENTERMARKSYMBOL_6
340
0
102
{BLKREFS
331
3E5
102
}
  0
BLOCK_RECORD
  5
3E6
330
1
100
AcDbSymbolTableRecord
100
AcDbBlockTableRecord
  2
SW_CENTERMARKSYMBOL_7
340
0
102
{BLKREFS
331
3F1
102
}
  0
BLOCK_RECORD
  5
3F2
330
1
100
AcDbSymbolTableRecord
100
AcDbBlockTableRecord
  2
SW_CENTERMARKSYMBOL_8
340
0
102
{BLKREFS
331
3FD
102
}
  0
BLOCK_RECORD
  5
3FE
330
1
100
AcDbSymbolTableRecord
100
AcDbBlockTableRecord
  2
SW_CENTERMARKSYMBOL_9
340
0
102
{BLKREFS
331
409
102
}
  0
BLOCK_RECORD
  5
40A
330
1
100
AcDbSymbolTableRecord
100
AcDbBlockTableRecord
  2
SW_CENTERMARKSYMBOL_10
340
0
102
{BLKREFS
331
415
102
}
  0
BLOCK_RECORD
  5
416
330
1
100
AcDbSymbolTableRecord
100
AcDbBlockTableRecord
  2
SW_CENTERMARKSYMBOL_11
340
0
102
{BLKREFS
331
421
102
}
  0
BLOCK_RECORD
  5
4F0
330
1
100
AcDbSymbolTableRecord
100
AcDbBlockTableRecord
  2
_Dot
340
0
102
{BLKREFS
331
4F8
331
503
331
65C
331
668
102
}
  0
BLOCK_RECORD
  5
4F5
330
1
100
AcDbSymbolTableRecord
100
AcDbBlockTableRecord
  2
_D_20
340
0
  0
BLOCK_RECORD
  5
500
330
1
100
AcDbSymbolTableRecord
100
AcDbBlockTableRecord
  2
_D_21
340
0
  0
BLOCK_RECORD
  5
50B
330
1
100
AcDbSymbolTableRecord
100
AcDbBlockTableRecord
  2
_D_22
340
0
  0
BLOCK_RECORD
  5
516
330
1
100
AcDbSymbolTableRecord
100
AcDbBlockTableRecord
  2
_D_23
340
0
  0
BLOCK_RECORD
  5
51F
330
1
100
AcDbSymbolTableRecord
100
AcDbBlockTableRecord
  2
_D_24
340
0
  0
BLOCK_RECORD
  5
529
330
1
100
AcDbSymbolTableRecord
100
AcDbBlockTableRecord
  2
_D_25
340
0
  0
BLOCK_RECORD
  5
616
330
1
100
AcDbSymbolTableRecord
100
AcDbBlockTableRecord
  2
_D_26
340
0
  0
BLOCK_RECORD
  5
624
330
1
100
AcDbSymbolTableRecord
100
AcDbBlockTableRecord
  2
_D_27
340
0
  0
BLOCK_RECORD
  5
632
330
1
100
AcDbSymbolTableRecord
100
AcDbBlockTableRecord
  2
_D_28
340
0
  0
BLOCK_RECORD
  5
63E
330
1
100
AcDbSymbolTableRecord
100
AcDbBlockTableRecord
  2
_D_29
340
0
  0
BLOCK_RECORD
  5
64B
330
1
100
AcDbSymbolTableRecord
100
AcDbBlockTableRecord
  2
_D_30
340
0
  0
BLOCK_RECORD
  5
659
330
1
100
AcDbSymbolTableRecord
100
AcDbBlockTableRecord
  2
_D_31
340
0
  0
BLOCK_RECORD
  5
665
330
1
100
AcDbSymbolTableRecord
100
AcDbBlockTableRecord
  2
_D_32
340
0
  0
BLOCK_RECORD
  5
693
330
1
100
AcDbSymbolTableRecord
100
AcDbBlockTableRecord
  2
_D_33
340
0
  0
BLOCK_RECORD
  5
6A0
330
1
100
AcDbSymbolTableRecord
100
AcDbBlockTableRecord
  2
_D_34
340
0
  0
BLOCK_RECORD
  5
6AA
330
1
100
AcDbSymbolTableRecord
100
AcDbBlockTableRecord
  2
SW_CENTERMARKSYMBOL_12
340
0
102
{BLKREFS
331
6B5
102
}
  0
BLOCK_RECORD
  5
6B6
330
1
100
AcDbSymbolTableRecord
100
AcDbBlockTableRecord
  2
SW_CENTERMARKSYMBOL_13
340
0
102
{BLKREFS
331
6C1
102
}
  0
ENDTAB
  0
ENDSEC
  0
SECTION
  2
BLOCKS
  0
BLOCK
  5
20
330
1F
100
AcDbEntity
  8
0
100
AcDbBlockBegin
  2
*Model_Space
 70
     0
 10
0.0
 20
0.0
 30
0.0
  3
*Model_Space
  1

  0
ENDBLK
  5
21
330
1F
100
AcDbEntity
  8
0
100
AcDbBlockEnd
  0
BLOCK
  5
1C
330
1B
100
AcDbEntity
 67
     1
  8
0
100
AcDbBlockBegin
  2
*Paper_Space
 70
     0
 10
0.0
 20
0.0
 30
0.0
  3
*Paper_Space
  1

  0
ENDBLK
  5
1D
330
1B
100
AcDbEntity
 67
     1
  8
0
100
AcDbBlockEnd
  0
BLOCK
  5
24
330
23
100
AcDbEntity
  8
0
100
AcDbBlockBegin
  2
*Paper_Space0
 70
     0
 10
0.0
 20
0.0
 30
0.0
  3
*Paper_Space0
  1

  0
ENDBLK
  5
25
330
23
100
AcDbEntity
  8
0
100
AcDbBlockEnd
  0
BLOCK
  5
7B
330
7A
100
AcDbEntity
  8
0
100
AcDbBlockBegin
  2
Block1_3_1
 70
     0
 10
0.0
 20
0.0
 30
0.0
  3
Block1_3_1
  1

  0
CIRCLE
  5
7D
330
7A
100
AcDbEntity
  8
0
  6
Continuous
 62
     7
370
    18
100
AcDbCircle
 10
81.2962813747
 20
63.6276108944
 30
0.0
 40
8.79136307741128
  0
CIRCLE
  5
7E
330
7A
100
AcDbEntity
  8
0
  6
Continuous
 62
     7
370
    18
100
AcDbCircle
 10
81.2962813747
 20
63.6276108944
 30
0.0
 40
15.51210404558959
  0
LINE
  5
7F
330
7A
100
AcDbEntity
  8
0
  6
CENTERX2
 62
     7
370
    18
100
AcDbLine
 10
81.2962813747
 20
63.6276108944
 30
0.0
 11
55.2841773291
 21
63.6276108944
 31
0.0
  0
LINE
  5
80
330
7A
100
AcDbEntity
  8
0
  6
Continuous
 62
     7
370
    18
100
AcDbLine
 10
57.1602751158
 20
48.1155068489
 30
0.0
 11
57.1602751158
 21
79.150109214
 31
0.0
  0
LINE
  5
81
330
7A
100
AcDbEntity
  8
0
  6
Continuous
 62
     7
370
    18
100
AcDbLine
 10
18.7580035265
 20
72.4189739719
 30
0.0
 11
18.7580035265
 21
54.836247817
 31
0.0
  0
LINE
  5
82
330
7A
100
AcDbEntity
  8
0
  6
Continuous
 62
     7
370
    18
100
AcDbLine
 10
18.7580035265
 20
54.836247817
 30
0.0
 11
57.1602751158
 21
48.1155068489
 31
0.0
  0
LINE
  5
83
330
7A
100
AcDbEntity
  8
0
  6
CENTERX2
 62
     7
370
    18
100
AcDbLine
 10
67.6602751158
 20
63.6276108944
 30
0.0
 11
8.2580035265
 21
63.6276108944
 31
0.0
  0
LINE
  5
84
330
7A
100
AcDbEntity
  8
0
  6
Continuous
 62
     7
370
    18
100
AcDbLine
 10
57.1602751158
 20
79.150109214
 30
0.0
 11
18.7580035265
 21
72.4189739719
 31
0.0
  0
LINE
  5
85
330
7A
100
AcDbEntity
  8
0
  6
CENTERX2
 62
     7
370
    18
100
AcDbLine
 10
81.2962813747
 20
63.6276108944
 30
0.0
 11
81.2962813747
 21
37.6155068489
 31
0.0
  0
LINE
  5
86
330
7A
100
AcDbEntity
  8
0
  6
CENTERX2
 62
     7
370
    18
100
AcDbLine
 10
81.2962813747
 20
63.6276108944
 30
0.0
 11
81.2962813747
 21
89.63971494
 31
0.0
  0
LINE
  5
87
330
7A
100
AcDbEntity
  8
0
  6
CENTERX2
 62
     7
370
    18
100
AcDbLine
 10
81.2962813747
 20
63.6276108944
 30
0.0
 11
107.3083854203
 21
63.6276108944
 31
0.0
  0
INSERT
  5
8E
330
7A
100
AcDbEntity
  8
0
  6
Continuous
 62
     7
370
     0
100
AcDbBlockReference
  2
SW_NOTE_0
 10
14.7222830224
 20
16.6281309378
 30
0.0
  0
ENDBLK
  5
7C
330
7A
100
AcDbEntity
  8
0
100
AcDbBlockEnd
  0
BLOCK
  5
89
330
88
100
AcDbEntity
  8
0
100
AcDbBlockBegin
  2
SW_NOTE_0
 70
     0
 10
0.0
 20
0.0
 30
0.0
  3
SW_NOTE_0
  1

  0
MTEXT
  5
8C
330
88
100
AcDbEntity
  8
0
  6
Continuous
 62
     0
370
     0
100
AcDbMText
 10
46.134375
 20
17.144600939
 30
0.0
 40
13.3
 41
0.0
 71
     2
 72
     1
  1
DIN 6  T1 - 
  7
SLDTEXTSTYLE0
 73
     1
 44
1.0
  0
MTEXT
  5
8D
330
88
100
AcDbEntity
  8
0
  6
Continuous
 62
     0
370
     0
100
AcDbMText
 10
46.5984838367
 20
0.0023782104
 30
0.0
 40
13.3
 41
0.0
 71
     2
 72
     1
  1
Proj.methode 1
  7
SLDTEXTSTYLE0
 73
     1
 44
1.0
  0
ENDBLK
  5
8A
330
88
100
AcDbEntity
  8
0
100
AcDbBlockEnd
  0
BLOCK
  5
90
330
8F
100
AcDbEntity
  8
0
100
AcDbBlockBegin
  2
Block2_3_1
 70
     0
 10
0.0
 20
0.0
 30
0.0
  3
Block2_3_1
  1

  0
ARC
  5
92
330
8F
100
AcDbEntity
  8
FORMAT
100
AcDbCircle
 10
1657.2474557671
 20
399.6934206979
 30
0.0
 40
26.25000000000006
100
AcDbArc
 50
93.8225537293
 51
266.1774462707
  0
ARC
  5
93
330
8F
100
AcDbEntity
  8
FORMAT
100
AcDbCircle
 10
1657.2474557671
 20
399.6934206979
 30
0.0
 40
21.0000000000001
100
AcDbArc
 50
94.7801918472
 51
265.2198081528
  0
ARC
  5
94
330
8F
100
AcDbEntity
  8
FORMAT
100
AcDbCircle
 10
1657.2474557671
 20
399.6934206979
 30
0.0
 40
26.25000000000006
100
AcDbArc
 50
273.8225537293
 51
86.1774462707
  0
ARC
  5
95
330
8F
100
AcDbEntity
  8
FORMAT
100
AcDbCircle
 10
1657.2474557671
 20
399.6934206979
 30
0.0
 40
21.0000000000001
100
AcDbArc
 50
274.7801918472
 51
85.2198081528
  0
ARC
  5
96
330
8F
100
AcDbEntity
  8
FORMAT
100
AcDbCircle
 10
1657.2474557671
 20
407.6242915053
 30
0.0
 40
6.022819479648172
100
AcDbArc
 50
304.8395134495
 51
73.1084194601
  0
ARC
  5
97
330
8F
100
AcDbEntity
  8
FORMAT
100
AcDbCircle
 10
1657.2474557671
 20
407.6242915053
 30
0.0
 40
9.81620102162464
100
AcDbArc
 50
313.8988153445
 51
79.7306010333
  0
ARC
  5
98
330
8F
100
AcDbEntity
  8
FORMAT
100
AcDbCircle
 10
1657.2474557671
 20
388.4857005791
 30
0.0
 40
3.440714680707612
100
AcDbArc
 50
300.5716370086
 51
0.0
  0
ARC
  5
99
330
8F
100
AcDbEntity
  8
FORMAT
100
AcDbCircle
 10
1657.2474557671
 20
407.6242915053
 30
0.0
 40
9.81620102162464
100
AcDbArc
 50
100.2693989667
 51
226.1011846555
  0
ARC
  5
9A
330
8F
100
AcDbEntity
  8
FORMAT
100
AcDbCircle
 10
1657.2474557671
 20
388.4857005791
 30
0.0
 40
6.806425489791309
100
AcDbArc
 50
180.0
 51
255.1013518888
  0
ARC
  5
9B
330
8F
100
AcDbEntity
  8
FORMAT
100
AcDbCircle
 10
1657.2474557671
 20
388.4857005791
 30
0.0
 40
6.806425489791309
100
AcDbArc
 50
284.8986481112
 51
0.0
  0
ARC
  5
9C
330
8F
100
AcDbEntity
  8
FORMAT
100
AcDbCircle
 10
1657.2474557671
 20
388.4857005791
 30
0.0
 40
3.440714680707612
100
AcDbArc
 50
180.0
 51
239.4283629914
  0
ARC
  5
9D
330
8F
100
AcDbEntity
  8
FORMAT
100
AcDbCircle
 10
1657.2474557671
 20
407.6242915053
 30
0.0
 40
6.022819479648172
100
AcDbArc
 50
106.8915805399
 51
235.1604865505
  0
LINE
  5
9E
330
8F
100
AcDbEntity
  8
FORMAT
100
AcDbLine
 10
1627.7186808898
 20
370.1646458206
 30
0.0
 11
1686.7762306444
 21
370.1646458206
 31
0.0
  0
LINE
  5
9F
330
8F
100
AcDbEntity
  8
FORMAT
100
AcDbLine
 10
1627.7186808898
 20
429.2221955752
 30
0.0
 11
1686.7762306444
 21
429.2221955752
 31
0.0
  0
LINE
  5
A0
330
8F
100
AcDbEntity
  8
FORMAT
100
AcDbLine
 10
1627.7186808898
 20
429.2221955752
 30
0.0
 11
1627.7186808898
 21
370.1646458206
 31
0.0
  0
LINE
  5
A1
330
8F
100
AcDbEntity
  8
FORMAT
100
AcDbLine
 10
1686.7762306444
 20
429.2221955752
 30
0.0
 11
1686.7762306444
 21
370.1646458206
 31
0.0
  0
LINE
  5
A2
330
8F
100
AcDbEntity
  8
FORMAT
100
AcDbLine
 10
1655.4974557671
 20
425.8850224053
 30
0.0
 11
1655.4974557671
 21
420.6203769983
 31
0.0
  0
LINE
  5
A3
330
8F
100
AcDbEntity
  8
FORMAT
100
AcDbLine
 10
1658.9974557671
 20
425.8850224053
 30
0.0
 11
1658.9974557671
 21
420.6203769983
 31
0.0
  0
LINE
  5
A4
330
8F
100
AcDbEntity
  8
FORMAT
100
AcDbLine
 10
1655.4974557671
 20
378.7664643974
 30
0.0
 11
1655.4974557671
 21
373.5018189904
 31
0.0
  0
LINE
  5
A5
330
8F
100
AcDbEntity
  8
FORMAT
100
AcDbLine
 10
1658.9974557671
 20
378.7664643974
 30
0.0
 11
1658.9974557671
 21
373.5018189904
 31
0.0
  0
LINE
  5
A6
330
8F
100
AcDbEntity
  8
FORMAT
100
AcDbLine
 10
1658.9974557671
 20
417.2832408527
 30
0.0
 11
1658.9974557671
 21
413.3872642177
 31
0.0
  0
LINE
  5
A7
330
8F
100
AcDbEntity
  8
FORMAT
100
AcDbLine
 10
1655.4974557671
 20
417.2832408527
 30
0.0
 11
1655.4974557671
 21
413.3872642177
 31
0.0
  0
LINE
  5
A8
330
8F
100
AcDbEntity
  8
FORMAT
100
AcDbLine
 10
1650.4410302773
 20
388.4857005791
 30
0.0
 11
1650.4410302773
 21
400.5510762146
 31
0.0
  0
LINE
  5
A9
330
8F
100
AcDbEntity
  8
FORMAT
100
AcDbLine
 10
1664.0538812569
 20
388.4857005791
 30
0.0
 11
1664.0538812569
 21
400.5510762146
 31
0.0
  0
LINE
  5
AA
330
8F
100
AcDbEntity
  8
FORMAT
100
AcDbLine
 10
1660.6881704478
 20
388.4857005791
 30
0.0
 11
1660.6881704478
 21
402.6810297309
 31
0.0
  0
LINE
  5
AB
330
8F
100
AcDbEntity
  8
FORMAT
100
AcDbLine
 10
1653.8067410864
 20
388.4857005791
 30
0.0
 11
1653.8067410864
 21
402.6810297309
 31
0.0
  0
LINE
  5
AC
330
8F
100
AcDbEntity
  8
FORMAT
100
AcDbLine
 10
1655.4974557671
 20
385.5232661892
 30
0.0
 11
1655.4974557671
 21
381.9080925071
 31
0.0
  0
LINE
  5
AD
330
8F
100
AcDbEntity
  8
FORMAT
100
AcDbLine
 10
1658.9974557671
 20
385.5232661892
 30
0.0
 11
1658.9974557671
 21
381.9080925071
 31
0.0
  0
HATCH
  5
AE
330
8F
100
AcDbEntity
  8
FORMAT
100
AcDbHatch
 10
0.0
 20
0.0
 30
0.0
210
0.0
220
0.0
230
1.0
  2
SOLID
 70
     1
 71
     0
 91
        5
 92
        0
 93
        4
 72
     1
 10
1686.776230644441
 20
429.2221955751519
 11
1686.776230644441
 21
370.1646458205502
 72
     1
 10
1686.776230644441
 20
370.1646458205502
 11
1627.718680889839
 21
370.1646458205502
 72
     1
 10
1627.718680889839
 20
370.1646458205502
 11
1627.718680889839
 21
429.2221955751519
 72
     1
 10
1627.718680889839
 20
429.2221955751519
 11
1686.776230644441
 21
429.2221955751519
 97
        0
 92
        0
 93
        4
 72
     2
 10
1657.24745576714
 20
399.693420697851
 40
21.00000000000007
 50
94.78019184719915
 51
265.2198081528017
 73
     0
 72
     1
 10
1655.49745576714
 20
420.6203769982786
 11
1655.49745576714
 21
425.8850224052687
 72
     2
 10
1657.24745576714
 20
399.693420697851
 40
26.25000000000005
 50
93.82255372927435
 51
266.1774462707265
 73
     1
 72
     1
 10
1655.49745576714
 20
373.5018189904334
 11
1655.49745576714
 21
378.7664643974235
 97
        0
 92
        0
 93
        8
 72
     1
 10
1664.053881256931
 20
388.4857005790521
 11
1664.053881256931
 21
400.5510762145541
 72
     2
 10
1657.24745576714
 20
407.6242915052733
 40
9.816201021624591
 50
313.8988153445118
 51
439.730601033339
 73
     1
 72
     1
 10
1658.99745576714
 20
417.2832408527408
 11
1658.99745576714
 21
413.3872642177221
 72
     2
 10
1657.24745576714
 20
407.6242915052733
 40
6.022819479648148
 50
286.8915805399267
 51
415.1604865505418
 73
     0
 72
     1
 10
1660.688170447847
 20
402.6810297308583
 11
1660.688170447847
 21
388.4857005790521
 72
     2
 10
1657.24745576714
 20
388.4857005790521
 40
3.440714680707529
 50
0.0
 51
59.42836299135161
 73
     0
 72
     1
 10
1658.99745576714
 20
385.523266189224
 11
1658.99745576714
 21
381.9080925071099
 72
     2
 10
1657.24745576714
 20
388.4857005790521
 40
6.806425489791268
 50
284.8986481111874
 51
360.0000000000008
 73
     1
 97
        0
 92
        0
 93
        8
 72
     2
 10
1657.24745576714
 20
388.4857005790521
 40
3.440714680707529
 50
120.5716370086479
 51
180.0
 73
     0
 72
     1
 10
1653.806741086432
 20
388.4857005790521
 11
1653.806741086432
 21
402.6810297308583
 72
     2
 10
1657.24745576714
 20
407.6242915052733
 40
6.022819479648148
 50
124.839513449459
 51
253.1084194600749
 73
     0
 72
     1
 10
1655.49745576714
 20
413.3872642177221
 11
1655.49745576714
 21
417.2832408527408
 72
     2
 10
1657.24745576714
 20
407.6242915052733
 40
9.816201021624591
 50
100.2693989666618
 51
226.1011846554899
 73
     1
 72
     1
 10
1650.441030277349
 20
400.5510762145541
 11
1650.441030277349
 21
388.4857005790521
 72
     2
 10
1657.24745576714
 20
388.4857005790521
 40
6.806425489791268
 50
180.0
 51
255.1013518888142
 73
     1
 72
     1
 10
1655.49745576714
 20
381.9080925071099
 11
1655.49745576714
 21
385.5232661892239
 97
        0
 92
        0
 93
        4
 72
     2
 10
1657.24745576714
 20
399.693420697851
 40
21.00000000000007
 50
274.7801918471999
 51
445.2198081528016
 73
     0
 72
     1
 10
1658.99745576714
 20
378.7664643974235
 11
1658.99745576714
 21
373.5018189904334
 72
     2
 10
1657.24745576714
 20
399.693420697851
 40
26.25000000000005
 50
273.8225537292751
 51
446.1774462707265
 73
     1
 72
     1
 10
1658.99745576714
 20
425.8850224052687
 11
1658.99745576714
 21
420.6203769982786
 97
        0
 75
     0
 76
     1
 98
        1
 10
0.0
 20
0.0
  0
INSERT
  5
B4
330
8F
100
AcDbEntity
  8
FORMAT
 62
     7
100
AcDbBlockReference
  2
SW_NOTE_0_1
 10
1625.7602656139
 20
334.0630571774
 30
0.0
  0
INSERT
  5
BC
330
8F
100
AcDbEntity
  8
0
  6
Continuous
 62
     7
370
     0
100
AcDbBlockReference
  2
SW_NOTE_0_2
 10
1708.506124485
 20
399.8232127904
 30
0.0
  0
ENDBLK
  5
91
330
8F
100
AcDbEntity
  8
0
100
AcDbBlockEnd
  0
BLOCK
  5
B0
330
AF
100
AcDbEntity
  8
0
100
AcDbBlockBegin
  2
SW_NOTE_0_1
 70
     0
 10
0.0
 20
0.0
 30
0.0
  3
SW_NOTE_0_1
  1

  0
MTEXT
  5
B3
330
AF
100
AcDbEntity
  8
FORMAT
 62
     0
100
AcDbMText
 10
0.0
 20
27.0563380282
 30
0.0
 40
21.0
 41
0.0
 71
     1
 72
     1
  1
ECO
  7
SLDTEXTSTYLE1
 73
     1
 44
1.0
  0
ENDBLK
  5
B1
330
AF
100
AcDbEntity
  8
0
100
AcDbBlockEnd
  0
BLOCK
  5
B6
330
B5
100
AcDbEntity
  8
0
100
AcDbBlockBegin
  2
SW_NOTE_0_2
 70
     0
 10
0.0
 20
0.0
 30
0.0
  3
SW_NOTE_0_2
  1

  0
MTEXT
  5
B9
330
B5
100
AcDbEntity
  8
0
  6
Continuous
 62
     0
370
     0
100
AcDbMText
 10
0.0
 20
22.558685446
 30
0.0
 40
17.5
 41
0.0
 71
     1
 72
     1
  1
ECO Schulte GmbH & Co. KG
  7
SLDTEXTSTYLE2
 73
     1
 44
1.0
  0
MTEXT
  5
BA
330
B5
100
AcDbEntity
  8
0
  6
Continuous
 62
     0
370
     0
100
AcDbMText
 10
0.0
 20
-1.9413153102
 30
0.0
 40
17.5
 41
0.0
 71
     1
 72
     1
  1
Postfach 206
  7
SLDTEXTSTYLE2
 73
     1
 44
1.0
  0
MTEXT
  5
BB
330
B5
100
AcDbEntity
  8
0
  6
Continuous
 62
     0
370
     0
100
AcDbMText
 10
0.0
 20
-26.4413160665
 30
0.0
 40
17.5
 41
0.0
 71
     1
 72
     1
  1
58682 Menden
  7
SLDTEXTSTYLE2
 73
     1
 44
1.0
  0
ENDBLK
  5
B7
330
B5
100
AcDbEntity
  8
0
100
AcDbBlockEnd
  0
BLOCK
  5
BE
330
BD
100
AcDbEntity
  8
0
100
AcDbBlockBegin
  2
rechtlicher_Hinweis_Katalogzeichnungen_1
 70
     0
 10
0.0
 20
0.0
 30
0.0
  3
rechtlicher_Hinweis_Katalogzeichnungen_1
  1

  0
INSERT
  5
C9
330
BD
100
AcDbEntity
  8
0
  6
Continuous
 62
     7
370
     0
100
AcDbBlockReference
  2
SW_NOTE_0_3
 10
2.1768074632
 20
401.5030406501
 30
0.0
  0
ENDBLK
  5
BF
330
BD
100
AcDbEntity
  8
0
100
AcDbBlockEnd
  0
BLOCK
  5
C1
330
C0
100
AcDbEntity
  8
0
100
AcDbBlockBegin
  2
SW_NOTE_0_3
 70
     0
 10
0.0
 20
0.0
 30
0.0
  3
SW_NOTE_0_3
  1

  0
MTEXT
  5
C3
330
C0
100
AcDbEntity
  8
0
  6
Continuous
 62
     0
370
     0
100
AcDbMText
 10
0.0
 20
45.117370892
 30
0.0
 40
35.0
 41
0.0
 71
     1
 72
     1
  1
Technische Änderungen und Irrtümer vorbehalten. Aus dem Gebrauch der Zeichnung können keinerlei Ansprüche (inkl. 
  7
SLDTEXTSTYLE0
 73
     1
 44
1.0
  0
MTEXT
  5
C4
330
C0
100
AcDbEntity
  8
0
  6
Continuous
 62
     0
370
     0
100
AcDbMText
 10
0.0
 20
-3.8826306204
 30
0.0
 40
35.0
 41
0.0
 71
     1
 72
     1
  1
Schadenersatzansprüche) erhoben und gegen ECO Schulte geltend gemacht werden. Die Zeichnung bleibt unser 
  7
SLDTEXTSTYLE0
 73
     1
 44
1.0
  0
MTEXT
  5
C5
330
C0
100
AcDbEntity
  8
0
  6
Continuous
 62
     0
370
     0
100
AcDbMText
 10
0.0
 20
-52.8826321329
 30
0.0
 40
35.0
 41
0.0
 71
     1
 72
     1
  1
Eigentum. Sämtliche sich aus der Zeichnung ergebenden Ansprüche stehen ausschließlich ECO Schulte zu.
  7
SLDTEXTSTYLE0
 73
     1
 44
1.0
  0
MTEXT
  5
C6
330
C0
100
AcDbEntity
  8
0
  6
Continuous
 62
     0
370
     0
100
AcDbMText
 10
0.0
 20
-150.8826351579
 30
0.0
 40
35.0
 41
0.0
 71
     1
 72
     1
  1
Technical changes and errors excepted. No claims (including compensation claims) may be raised against ECO Schulte by 
  7
SLDTEXTSTYLE0
 73
     1
 44
1.0
  0
MTEXT
  5
C7
330
C0
100
AcDbEntity
  8
0
  6
Continuous
 62
     0
370
     0
100
AcDbMText
 10
0.0
 20
-199.8826366703
 30
0.0
 40
35.0
 41
0.0
 71
     1
 72
     1
  1
using of this drawing. The drawing remains the property of ECO Schulte. All claims resulting from this drawing are solely 
  7
SLDTEXTSTYLE0
 73
     1
 44
1.0
  0
MTEXT
  5
C8
330
C0
100
AcDbEntity
  8
0
  6
Continuous
 62
     0
370
     0
100
AcDbMText
 10
0.0
 20
-248.8826381828
 30
0.0
 40
35.0
 41
0.0
 71
     1
 72
     1
  1
entitled to ECO Schulte.
  7
SLDTEXTSTYLE0
 73
     1
 44
1.0
  0
ENDBLK
  5
C2
330
C0
100
AcDbEntity
  8
0
100
AcDbBlockEnd
  0
BLOCK
  5
DD
330
DC
100
AcDbEntity
  8
0
100
AcDbBlockBegin
  2
SW_NOTE_0_4
 70
     0
 10
0.0
 20
0.0
 30
0.0
  3
SW_NOTE_0_4
  1

  0
MTEXT
  5
DF
330
DC
100
AcDbEntity
  8
FORMAT
 62
     0
100
AcDbMText
 10
0.0
 20
23.8746087637
 30
0.0
 40
18.5208333333
 41
0.0
 71
     1
 72
     1
  1
\LBefestigungsmittel:
  7
SLDTEXTSTYLE0
 73
     1
 44
1.0
  0
MTEXT
  5
E0
330
DC
100
AcDbEntity
  8
FORMAT
 62
     0
100
AcDbMText
 10
0.0
 20
-9.7180977825
 30
0.0
 40
18.5208333333
 41
0.0
 71
     1
 72
     1
  1
1. Montageplatte: Stahl/Alu-Tür: 6x M6 (Einnietmutter M6) ; Holztür: 6x Senkschraube ø6x60
  7
SLDTEXTSTYLE0
 73
     1
 44
1.0
  0
MTEXT
  5
E1
330
DC
100
AcDbEntity
  8
FORMAT
 62
     0
100
AcDbMText
 10
0.0
 20
-41.4125430759
 30
0.0
 40
18.5208333333
 41
0.0
 71
     1
 72
     1
  1
2. Gleitschiene: Stahl/Alu-Tür: 2x M6 (Einnietmutter M6) ; Holztür: 2x Senkschraube ø4x30
  7
SLDTEXTSTYLE0
 73
     1
 44
1.0
  0
ENDBLK
  5
DE
330
DC
100
AcDbEntity
  8
0
100
AcDbBlockEnd
  0
BLOCK
  5
F5
330
F4
100
AcDbEntity
  8
0
100
AcDbBlockBegin
  2
SW_TABLEANNOTATION_0
 70
     0
 10
0.0
 20
0.0
 30
0.0
  3
SW_TABLEANNOTATION_0
  1

  0
LINE
  5
F7
330
F4
100
AcDbEntity
  8
FORMAT
 62
     0
100
AcDbLine
 10
0.0
 20
0.0
 30
0.0
 11
0.0
 21
-38.645834446
 31
0.0
  0
LINE
  5
F8
330
F4
100
AcDbEntity
  8
FORMAT
 62
     0
100
AcDbLine
 10
284.7702439329
 20
0.0
 30
0.0
 11
284.7702439329
 21
-38.645834446
 31
0.0
  0
LINE
  5
F9
330
F4
100
AcDbEntity
  8
FORMAT
 62
     0
100
AcDbLine
 10
0.0
 20
-38.645834446
 30
0.0
 11
0.0
 21
-77.2916688919
 31
0.0
  0
LINE
  5
FA
330
F4
100
AcDbEntity
  8
FORMAT
 62
     0
100
AcDbLine
 10
284.7702439329
 20
-38.645834446
 30
0.0
 11
284.7702439329
 21
-77.2916688919
 31
0.0
  0
LINE
  5
FB
330
F4
100
AcDbEntity
  8
FORMAT
 62
     0
100
AcDbLine
 10
0.0
 20
-77.2916688919
 30
0.0
 11
0.0
 21
-115.9375033379
 31
0.0
  0
LINE
  5
FC
330
F4
100
AcDbEntity
  8
FORMAT
 62
     0
100
AcDbLine
 10
284.7702439329
 20
-77.2916688919
 30
0.0
 11
284.7702439329
 21
-115.9375033379
 31
0.0
  0
LINE
  5
FD
330
F4
100
AcDbEntity
  8
FORMAT
 62
     0
100
AcDbLine
 10
460.0709532687
 20
0.0
 30
0.0
 11
460.0709532687
 21
-38.645834446
 31
0.0
  0
LINE
  5
FE
330
F4
100
AcDbEntity
  8
FORMAT
 62
     0
100
AcDbLine
 10
460.0709532687
 20
-38.645834446
 30
0.0
 11
460.0709532687
 21
-77.2916688919
 31
0.0
  0
LINE
  5
FF
330
F4
100
AcDbEntity
  8
FORMAT
 62
     0
100
AcDbLine
 10
460.0709532687
 20
-77.2916688919
 30
0.0
 11
460.0709532687
 21
-115.9375033379
 31
0.0
  0
LINE
  5
100
330
F4
100
AcDbEntity
  8
FORMAT
 62
     0
100
AcDbLine
 10
0.0
 20
0.0
 30
0.0
 11
284.7702439329
 21
0.0
 31
0.0
  0
LINE
  5
101
330
F4
100
AcDbEntity
  8
FORMAT
 62
     0
100
AcDbLine
 10
0.0
 20
-38.645834446
 30
0.0
 11
284.7702439329
 21
-38.645834446
 31
0.0
  0
LINE
  5
102
330
F4
100
AcDbEntity
  8
FORMAT
 62
     0
100
AcDbLine
 10
284.7702439329
 20
0.0
 30
0.0
 11
460.0709532687
 21
0.0
 31
0.0
  0
LINE
  5
103
330
F4
100
AcDbEntity
  8
FORMAT
 62
     0
100
AcDbLine
 10
284.7702439329
 20
-38.645834446
 30
0.0
 11
460.0709532687
 21
-38.645834446
 31
0.0
  0
LINE
  5
104
330
F4
100
AcDbEntity
  8
FORMAT
 62
     0
100
AcDbLine
 10
0.0
 20
-77.2916688919
 30
0.0
 11
284.7702439329
 21
-77.2916688919
 31
0.0
  0
LINE
  5
105
330
F4
100
AcDbEntity
  8
FORMAT
 62
     0
100
AcDbLine
 10
284.7702439329
 20
-77.2916688919
 30
0.0
 11
460.0709532687
 21
-77.2916688919
 31
0.0
  0
LINE
  5
106
330
F4
100
AcDbEntity
  8
FORMAT
 62
     0
100
AcDbLine
 10
0.0
 20
-115.9375033379
 30
0.0
 11
284.7702439329
 21
-115.9375033379
 31
0.0
  0
LINE
  5
107
330
F4
100
AcDbEntity
  8
FORMAT
 62
     0
100
AcDbLine
 10
284.7702439329
 20
-115.9375033379
 30
0.0
 11
460.0709532687
 21
-115.9375033379
 31
0.0
  0
MTEXT
  5
108
330
F4
100
AcDbEntity
  8
FORMAT
 62
     0
100
AcDbMText
 10
19.9361672352
 20
-6.7004728098
 30
0.0
 40
24.5
 41
0.0
 71
     1
 72
     1
  1
Sturztiefe (mm)
  7
SLDTEXTSTYLE0
 73
     1
 44
1.0
  0
MTEXT
  5
109
330
F4
100
AcDbEntity
  8
FORMAT
 62
     0
100
AcDbMText
 10
314.4883009017
 20
-6.7004728098
 30
0.0
 40
24.5
 41
0.0
 71
     1
 72
     1
  1
D (mm)
  7
SLDTEXTSTYLE0
 73
     1
 44
1.0
  0
MTEXT
  5
10A
330
F4
100
AcDbEntity
  8
FORMAT
 62
     0
100
AcDbMText
 10
66.1288719352
 20
-45.3463072558
 30
0.0
 40
24.5
 41
0.0
 71
     1
 72
     1
  1
-30 ... +10
  7
SLDTEXTSTYLE0
 73
     1
 44
1.0
  0
MTEXT
  5
10B
330
F4
100
AcDbEntity
  8
FORMAT
 62
     0
100
AcDbMText
 10
353.7053212866
 20
-45.3463072558
 30
0.0
 40
24.5
 41
0.0
 71
     1
 72
     1
  1
89
  7
SLDTEXTSTYLE0
 73
     1
 44
1.0
  0
MTEXT
  5
10C
330
F4
100
AcDbEntity
  8
FORMAT
 62
     0
100
AcDbMText
 10
61.8924168597
 20
-83.9921417017
 30
0.0
 40
24.5
 41
0.0
 71
     1
 72
     1
  1
+11 ... +50
  7
SLDTEXTSTYLE0
 73
     1
 44
1.0
  0
MTEXT
  5
10D
330
F4
100
AcDbEntity
  8
FORMAT
 62
     0
100
AcDbMText
 10
353.7053212866
 20
-83.9921417017
 30
0.0
 40
24.5
 41
0.0
 71
     1
 72
     1
  1
79
  7
SLDTEXTSTYLE0
 73
     1
 44
1.0
  0
ENDBLK
  5
F6
330
F4
100
AcDbEntity
  8
0
100
AcDbBlockEnd
  0
BLOCK
  5
202
330
201
100
AcDbEntity
  8
0
100
AcDbBlockBegin
  2
_D
 70
     0
 10
0.0
 20
0.0
 30
0.0
  3
_D
  1

  0
SOLID
  5
204
330
201
100
AcDbEntity
  8
FORMAT
100
AcDbTrace
 10
607.4814364458
 20
1437.605730913
 30
0.0
 11
630.5954364458
 21
1434.049730913
 31
0.0
 12
630.5954364458
 22
1441.161730913
 32
0.0
 13
630.5954364458
 23
1441.161730913
 33
0.0
  0
SOLID
  5
205
330
201
100
AcDbEntity
  8
FORMAT
100
AcDbTrace
 10
1260.4814364458
 20
1437.605730913
 30
0.0
 11
1237.3674364458
 21
1441.161730913
 31
0.0
 12
1237.3674364458
 22
1434.049730913
 32
0.0
 13
1237.3674364458
 23
1434.049730913
 33
0.0
  0
LINE
  5
206
330
201
100
AcDbEntity
  8
FORMAT
100
AcDbLine
 10
607.4814364458
 20
1562.7250323512
 30
0.0
 11
607.4814364458
 21
1430.605730913
 31
0.0
  0
LINE
  5
207
330
201
100
AcDbEntity
  8
FORMAT
100
AcDbLine
 10
1260.4814364458
 20
1562.7250323512
 30
0.0
 11
1260.4814364458
 21
1430.605730913
 31
0.0
  0
LINE
  5
208
330
201
100
AcDbEntity
  8
FORMAT
100
AcDbLine
 10
607.4814364458
 20
1437.605730913
 30
0.0
 11
1260.4814364458
 21
1437.605730913
 31
0.0
  0
MTEXT
  5
209
330
201
100
AcDbEntity
  8
FORMAT
100
AcDbMText
 10
905.9085204745
 20
1469.1878921672
 30
0.0
 40
24.5
 41
0.0
 71
     1
 72
     1
  1
653
  7
SLDTEXTSTYLE0
 73
     1
 44
1.0
  0
ENDBLK
  5
203
330
201
100
AcDbEntity
  8
0
100
AcDbBlockEnd
  0
BLOCK
  5
20D
330
20C
100
AcDbEntity
  8
0
100
AcDbBlockBegin
  2
_D_1
 70
     0
 10
0.0
 20
0.0
 30
0.0
  3
_D_1
  1

  0
SOLID
  5
20F
330
20C
100
AcDbEntity
  8
FORMAT
100
AcDbTrace
 10
1303.0202345932
 20
1569.2250323512
 30
0.0
 11
1299.4642345932
 21
1546.1110323512
 31
0.0
 12
1306.5762345932
 22
1546.1110323512
 32
0.0
 13
1306.5762345932
 23
1546.1110323512
 33
0.0
  0
SOLID
  5
210
330
20C
100
AcDbEntity
  8
FORMAT
100
AcDbTrace
 10
1303.0202345932
 20
1586.2250323512
 30
0.0
 11
1306.5762345932
 21
1609.3390323512
 31
0.0
 12
1299.4642345932
 22
1609.3390323512
 32
0.0
 13
1299.4642345932
 23
1609.3390323512
 33
0.0
  0
LINE
  5
211
330
20C
100
AcDbEntity
  8
FORMAT
100
AcDbLine
 10
1266.9814364458
 20
1569.2250323512
 30
0.0
 11
1310.0202345932
 21
1569.2250323512
 31
0.0
  0
LINE
  5
212
330
20C
100
AcDbEntity
  8
FORMAT
100
AcDbLine
 10
1266.9814364458
 20
1586.2250323512
 30
0.0
 11
1310.0202345932
 21
1586.2250323512
 31
0.0
  0
LINE
  5
213
330
20C
100
AcDbEntity
  8
FORMAT
100
AcDbLine
 10
1303.0202345932
 20
1569.2250323512
 30
0.0
 11
1303.0202345932
 21
1501.767218712
 31
0.0
  0
LINE
  5
214
330
20C
100
AcDbEntity
  8
FORMAT
100
AcDbLine
 10
1303.0202345932
 20
1569.2250323512
 30
0.0
 11
1303.0202345932
 21
1586.2250323512
 31
0.0
  0
LINE
  5
215
330
20C
100
AcDbEntity
  8
FORMAT
100
AcDbLine
 10
1303.0202345932
 20
1586.2250323512
 30
0.0
 11
1303.0202345932
 21
1630.6750323512
 31
0.0
  0
MTEXT
  5
216
330
20C
100
AcDbEntity
  8
FORMAT
100
AcDbMText
 10
1271.438073339
 20
1501.767218712
 30
0.0
 40
24.5
 41
0.0
 71
     1
 72
     1
  1
17
  7
SLDTEXTSTYLE0
 11
-3.269436733918102E-15
 21
1.0
 31
0.0
 73
     1
 44
1.0
  0
ENDBLK
  5
20E
330
20C
100
AcDbEntity
  8
0
100
AcDbBlockEnd
  0
BLOCK
  5
219
330
218
100
AcDbEntity
  8
0
100
AcDbBlockBegin
  2
_D_2
 70
     0
 10
0.0
 20
0.0
 30
0.0
  3
_D_2
  1

  0
SOLID
  5
21B
330
218
100
AcDbEntity
  8
FORMAT
100
AcDbTrace
 10
504.4061093794
 20
1613.225032345
 30
0.0
 11
507.9621093794
 21
1636.339032345
 31
0.0
 12
500.8501093794
 22
1636.339032345
 32
0.0
 13
500.8501093794
 23
1636.339032345
 33
0.0
  0
SOLID
  5
21C
330
218
100
AcDbEntity
  8
FORMAT
100
AcDbTrace
 10
504.4061093794
 20
1708.225032345
 30
0.0
 11
500.8501093794
 21
1685.111032345
 31
0.0
 12
507.9621093794
 22
1685.111032345
 32
0.0
 13
507.9621093794
 23
1685.111032345
 33
0.0
  0
LINE
  5
21D
330
218
100
AcDbEntity
  8
FORMAT
100
AcDbLine
 10
531.4814342162
 20
1613.225032345
 30
0.0
 11
497.4061093794
 21
1613.225032345
 31
0.0
  0
LINE
  5
21E
330
218
100
AcDbEntity
  8
FORMAT
100
AcDbLine
 10
531.4814342162
 20
1708.225032345
 30
0.0
 11
497.4061093794
 21
1708.225032345
 31
0.0
  0
LINE
  5
21F
330
218
100
AcDbEntity
  8
FORMAT
100
AcDbLine
 10
504.4061093794
 20
1613.225032345
 30
0.0
 11
504.4061093794
 21
1708.225032345
 31
0.0
  0
MTEXT
  5
220
330
218
100
AcDbEntity
  8
FORMAT
100
AcDbMText
 10
472.8239481251
 20
1642.0097550308
 30
0.0
 40
24.5
 41
0.0
 71
     1
 72
     1
  1
95
  7
SLDTEXTSTYLE0
 11
6.123233995736766E-17
 21
1.0
 31
0.0
 73
     1
 44
1.0
  0
ENDBLK
  5
21A
330
218
100
AcDbEntity
  8
0
100
AcDbBlockEnd
  0
BLOCK
  5
223
330
222
100
AcDbEntity
  8
0
100
AcDbBlockBegin
  2
_D_3
 70
     0
 10
0.0
 20
0.0
 30
0.0
  3
_D_3
  1

  0
SOLID
  5
225
330
222
100
AcDbEntity
  8
FORMAT
100
AcDbTrace
 10
528.9814342162
 20
1748.818208806
 30
0.0
 11
552.0954342162
 21
1745.262208806
 31
0.0
 12
552.0954342162
 22
1752.374208806
 32
0.0
 13
552.0954342162
 23
1752.374208806
 33
0.0
  0
SOLID
  5
226
330
222
100
AcDbEntity
  8
FORMAT
100
AcDbTrace
 10
1217.9814342162
 20
1748.818208806
 30
0.0
 11
1194.8674342162
 21
1752.374208806
 31
0.0
 12
1194.8674342162
 22
1745.262208806
 32
0.0
 13
1194.8674342162
 23
1745.262208806
 33
0.0
  0
LINE
  5
227
330
222
100
AcDbEntity
  8
FORMAT
100
AcDbLine
 10
528.9814342162
 20
1710.225032345
 30
0.0
 11
528.9814342162
 21
1755.818208806
 31
0.0
  0
LINE
  5
228
330
222
100
AcDbEntity
  8
FORMAT
100
AcDbLine
 10
1217.9814342162
 20
1710.2250323449
 30
0.0
 11
1217.9814342162
 21
1755.818208806
 31
0.0
  0
LINE
  5
229
330
222
100
AcDbEntity
  8
FORMAT
100
AcDbLine
 10
528.9814342162
 20
1748.818208806
 30
0.0
 11
1217.9814342162
 21
1748.818208806
 31
0.0
  0
MTEXT
  5
22A
330
222
100
AcDbEntity
  8
FORMAT
100
AcDbMText
 10
845.4085182449
 20
1780.4003700602
 30
0.0
 40
24.5
 41
0.0
 71
     1
 72
     1
  1
689
  7
SLDTEXTSTYLE0
 73
     1
 44
1.0
  0
ENDBLK
  5
224
330
222
100
AcDbEntity
  8
0
100
AcDbBlockEnd
  0
BLOCK
  5
22D
330
22C
100
AcDbEntity
  8
0
100
AcDbBlockBegin
  2
_D_4
 70
     0
 10
0.0
 20
0.0
 30
0.0
  3
_D_4
  1

  0
SOLID
  5
22F
330
22C
100
AcDbEntity
  8
FORMAT
100
AcDbTrace
 10
528.4814342162
 20
1384.4362569477
 30
0.0
 11
551.5954342162
 21
1380.8802569477
 31
0.0
 12
551.5954342162
 22
1387.9922569477
 32
0.0
 13
551.5954342162
 23
1387.9922569477
 33
0.0
  0
SOLID
  5
230
330
22C
100
AcDbEntity
  8
FORMAT
100
AcDbTrace
 10
808.4814342163
 20
1384.4362569477
 30
0.0
 11
785.3674342163
 21
1387.9922569477
 31
0.0
 12
785.3674342163
 22
1380.8802569477
 32
0.0
 13
785.3674342163
 23
1380.8802569477
 33
0.0
  0
LINE
  5
231
330
22C
100
AcDbEntity
  8
FORMAT
100
AcDbLine
 10
808.4814342162
 20
1573.2250323451
 30
0.0
 11
808.4814342163
 21
1377.4362569477
 31
0.0
  0
LINE
  5
232
330
22C
100
AcDbEntity
  8
FORMAT
100
AcDbLine
 10
528.4814342162
 20
1384.4362569477
 30
0.0
 11
808.4814342163
 21
1384.4362569477
 31
0.0
  0
MTEXT
  5
233
330
22C
100
AcDbEntity
  8
FORMAT
100
AcDbMText
 10
640.4085182449
 20
1416.0184182019
 30
0.0
 40
24.5
 41
0.0
 71
     1
 72
     1
  1
280
  7
SLDTEXTSTYLE0
 73
     1
 44
1.0
  0
ENDBLK
  5
22E
330
22C
100
AcDbEntity
  8
0
100
AcDbBlockEnd
  0
BLOCK
  5
2E3
330
2E2
100
AcDbEntity
  8
0
100
AcDbBlockBegin
  2
_D_5
 70
     0
 10
0.0
 20
0.0
 30
0.0
  3
_D_5
  1

  0
SOLID
  5
2E5
330
2E2
100
AcDbEntity
  8
FORMAT
100
AcDbTrace
 10
617.4814342162
 20
589.3779694965
 30
0.0
 11
640.5954342162
 21
585.8219694965
 31
0.0
 12
640.5954342162
 22
592.9339694965
 32
0.0
 13
640.5954342162
 23
592.9339694965
 33
0.0
  0
SOLID
  5
2E6
330
2E2
100
AcDbEntity
  8
FORMAT
100
AcDbTrace
 10
1250.4814342162
 20
589.3779694965
 30
0.0
 11
1227.3674342162
 21
592.9339694965
 31
0.0
 12
1227.3674342162
 22
585.8219694965
 32
0.0
 13
1227.3674342162
 23
585.8219694965
 33
0.0
  0
LINE
  5
2E7
330
2E2
100
AcDbEntity
  8
FORMAT
100
AcDbLine
 10
617.4814342162
 20
711.7076068595
 30
0.0
 11
617.4814342162
 21
582.3779694965
 31
0.0
  0
LINE
  5
2E8
330
2E2
100
AcDbEntity
  8
FORMAT
100
AcDbLine
 10
1250.4814342162
 20
711.7076068595
 30
0.0
 11
1250.4814342162
 21
582.3779694965
 31
0.0
  0
LINE
  5
2E9
330
2E2
100
AcDbEntity
  8
FORMAT
100
AcDbLine
 10
617.4814342162
 20
589.3779694965
 30
0.0
 11
1250.4814342162
 21
589.3779694965
 31
0.0
  0
MTEXT
  5
2EA
330
2E2
100
AcDbEntity
  8
FORMAT
100
AcDbMText
 10
905.9085182449
 20
620.9601307508
 30
0.0
 40
24.5
 41
0.0
 71
     1
 72
     1
  1
633
  7
SLDTEXTSTYLE0
 73
     1
 44
1.0
  0
ENDBLK
  5
2E4
330
2E2
100
AcDbEntity
  8
0
100
AcDbBlockEnd
  0
BLOCK
  5
2ED
330
2EC
100
AcDbEntity
  8
0
100
AcDbBlockBegin
  2
_D_6
 70
     0
 10
0.0
 20
0.0
 30
0.0
  3
_D_6
  1

  0
SOLID
  5
2EF
330
2EC
100
AcDbEntity
  8
FORMAT
100
AcDbTrace
 10
1256.2490122719
 20
761.4576068591
 30
0.0
 11
1259.8050122719
 21
784.5716068591
 31
0.0
 12
1252.6930122719
 22
784.5716068591
 32
0.0
 13
1252.6930122719
 23
784.5716068591
 33
0.0
  0
SOLID
  5
2F0
330
2EC
100
AcDbEntity
  8
FORMAT
100
AcDbTrace
 10
1256.2490122719
 20
852.4576068591
 30
0.0
 11
1252.6930122719
 21
829.3436068591
 31
0.0
 12
1259.8050122719
 22
829.3436068591
 32
0.0
 13
1259.8050122719
 23
829.3436068591
 33
0.0
  0
LINE
  5
2F1
330
2EC
100
AcDbEntity
  8
FORMAT
100
AcDbLine
 10
1215.4814342162
 20
761.4576068591
 30
0.0
 11
1263.2490122719
 21
761.4576068591
 31
0.0
  0
LINE
  5
2F2
330
2EC
100
AcDbEntity
  8
FORMAT
100
AcDbLine
 10
1215.4814342162
 20
852.4576068591
 30
0.0
 11
1263.2490122719
 21
852.4576068591
 31
0.0
  0
LINE
  5
2F3
330
2EC
100
AcDbEntity
  8
FORMAT
100
AcDbLine
 10
1256.2490122719
 20
761.4576068591
 30
0.0
 11
1256.2490122719
 21
852.4576068591
 31
0.0
  0
MTEXT
  5
2F4
330
2EC
100
AcDbEntity
  8
FORMAT
100
AcDbMText
 10
1224.6668510177
 20
788.2423295449
 30
0.0
 40
24.5
 41
0.0
 71
     1
 72
     1
  1
91
  7
SLDTEXTSTYLE0
 11
6.123233995736766E-17
 21
1.0
 31
0.0
 73
     1
 44
1.0
  0
ENDBLK
  5
2EE
330
2EC
100
AcDbEntity
  8
0
100
AcDbBlockEnd
  0
BLOCK
  5
2F7
330
2F6
100
AcDbEntity
  8
0
100
AcDbBlockBegin
  2
_D_7
 70
     0
 10
0.0
 20
0.0
 30
0.0
  3
_D_7
  1

  0
SOLID
  5
2F9
330
2F6
100
AcDbEntity
  8
FORMAT
100
AcDbTrace
 10
730.2457166855
 20
745.9576068595
 30
0.0
 11
726.6897166855
 21
722.8436068595
 31
0.0
 12
733.8017166855
 22
722.8436068595
 32
0.0
 13
733.8017166855
 23
722.8436068595
 33
0.0
  0
SOLID
  5
2FA
330
2F6
100
AcDbEntity
  8
FORMAT
100
AcDbTrace
 10
730.2457166855
 20
768.9576068591
 30
0.0
 11
733.8017166855
 21
792.0716068591
 31
0.0
 12
726.6897166855
 22
792.0716068591
 32
0.0
 13
726.6897166855
 23
792.0716068591
 33
0.0
  0
LINE
  5
2FB
330
2F6
100
AcDbEntity
  8
FORMAT
100
AcDbLine
 10
738.4814342162
 20
768.9576068591
 30
0.0
 11
723.2457166855
 21
768.9576068591
 31
0.0
  0
LINE
  5
2FC
330
2F6
100
AcDbEntity
  8
FORMAT
100
AcDbLine
 10
730.2457166855
 20
745.9576068595
 30
0.0
 11
730.2457166855
 21
675.3487051601
 31
0.0
  0
LINE
  5
2FD
330
2F6
100
AcDbEntity
  8
FORMAT
100
AcDbLine
 10
730.2457166855
 20
745.9576068595
 30
0.0
 11
730.2457166855
 21
768.9576068591
 31
0.0
  0
LINE
  5
2FE
330
2F6
100
AcDbEntity
  8
FORMAT
100
AcDbLine
 10
730.2457166855
 20
768.9576068591
 30
0.0
 11
730.2457166855
 21
813.4076068591
 31
0.0
  0
MTEXT
  5
2FF
330
2F6
100
AcDbEntity
  8
FORMAT
100
AcDbMText
 10
698.6635554313
 20
675.3487051601
 30
0.0
 40
24.5
 41
0.0
 71
     1
 72
     1
  1
23
  7
SLDTEXTSTYLE0
 11
6.123233995736766E-17
 21
1.0
 31
0.0
 73
     1
 44
1.0
  0
ENDBLK
  5
2F8
330
2F6
100
AcDbEntity
  8
0
100
AcDbBlockEnd
  0
BLOCK
  5
303
330
302
100
AcDbEntity
  8
0
100
AcDbBlockBegin
  2
_D_8
 70
     0
 10
0.0
 20
0.0
 30
0.0
  3
_D_8
  1

  0
SOLID
  5
305
330
302
100
AcDbEntity
  8
FORMAT
100
AcDbTrace
 10
1308.1558908515
 20
745.9576068595
 30
0.0
 11
1311.7118908515
 21
769.0716068595
 31
0.0
 12
1304.5998908515
 22
769.0716068595
 32
0.0
 13
1304.5998908515
 23
769.0716068595
 33
0.0
  0
SOLID
  5
306
330
302
100
AcDbEntity
  8
FORMAT
100
AcDbTrace
 10
1308.1558908515
 20
723.7076068595
 30
0.0
 11
1304.5998908515
 21
700.5936068595
 31
0.0
 12
1311.7118908515
 22
700.5936068595
 32
0.0
 13
1311.7118908515
 23
700.5936068595
 33
0.0
  0
LINE
  5
307
330
302
100
AcDbEntity
  8
FORMAT
100
AcDbLine
 10
1262.4814342162
 20
723.7076068595
 30
0.0
 11
1315.1558908515
 21
723.7076068595
 31
0.0
  0
LINE
  5
308
330
302
100
AcDbEntity
  8
FORMAT
100
AcDbLine
 10
1308.1558908515
 20
745.9576068595
 30
0.0
 11
1308.1558908515
 21
790.4076068595
 31
0.0
  0
LINE
  5
309
330
302
100
AcDbEntity
  8
FORMAT
100
AcDbLine
 10
1308.1558908515
 20
745.9576068595
 30
0.0
 11
1308.1558908515
 21
723.7076068595
 31
0.0
  0
LINE
  5
30A
330
302
100
AcDbEntity
  8
FORMAT
100
AcDbLine
 10
1308.1558908515
 20
723.7076068595
 30
0.0
 11
1308.1558908515
 21
655.5231624276
 31
0.0
  0
MTEXT
  5
30B
330
302
100
AcDbEntity
  8
FORMAT
100
AcDbMText
 10
1276.5737295972
 20
655.5231624276
 30
0.0
 40
24.5
 41
0.0
 71
     1
 72
     1
  1
22
  7
SLDTEXTSTYLE0
 11
-7.044195017643634E-15
 21
1.0
 31
0.0
 73
     1
 44
1.0
  0
ENDBLK
  5
304
330
302
100
AcDbEntity
  8
0
100
AcDbBlockEnd
  0
BLOCK
  5
30E
330
30D
100
AcDbEntity
  8
0
100
AcDbBlockBegin
  2
_D_9
 70
     0
 10
0.0
 20
0.0
 30
0.0
  3
_D_9
  1

  0
SOLID
  5
310
330
30D
100
AcDbEntity
  8
FORMAT
100
AcDbTrace
 10
528.4814342162
 20
589.3779694965
 30
0.0
 11
551.5954342162
 21
585.8219694965
 31
0.0
 12
551.5954342162
 22
592.9339694965
 32
0.0
 13
551.5954342162
 23
592.9339694965
 33
0.0
  0
SOLID
  5
311
330
30D
100
AcDbEntity
  8
FORMAT
100
AcDbTrace
 10
617.4814342162
 20
589.3779694965
 30
0.0
 11
594.3674342162
 21
592.9339694965
 31
0.0
 12
594.3674342162
 22
585.8219694965
 32
0.0
 13
594.3674342162
 23
585.8219694965
 33
0.0
  0
LINE
  5
312
330
30D
100
AcDbEntity
  8
FORMAT
100
AcDbLine
 10
617.4814342162
 20
711.7076068595
 30
0.0
 11
617.4814342162
 21
582.3779694965
 31
0.0
  0
LINE
  5
313
330
30D
100
AcDbEntity
  8
FORMAT
100
AcDbLine
 10
528.4814342162
 20
589.3779694965
 30
0.0
 11
617.4814342162
 21
589.3779694965
 31
0.0
  0
MTEXT
  5
314
330
30D
100
AcDbEntity
  8
FORMAT
100
AcDbMText
 10
560.8335172696
 20
620.9601307508
 30
0.0
 40
24.5
 41
0.0
 71
     1
 72
     1
  1
D
  7
SLDTEXTSTYLE0
 73
     1
 44
1.0
  0
ENDBLK
  5
30F
330
30D
100
AcDbEntity
  8
0
100
AcDbBlockEnd
  0
BLOCK
  5
317
330
316
100
AcDbEntity
  8
0
100
AcDbBlockBegin
  2
_D_10
 70
     0
 10
0.0
 20
0.0
 30
0.0
  3
_D_10
  1

  0
SOLID
  5
319
330
316
100
AcDbEntity
  8
FORMAT
100
AcDbTrace
 10
528.4814342162
 20
963.9479130319
 30
0.0
 11
505.3674342162
 21
967.5039130319
 31
0.0
 12
505.3674342162
 22
960.3919130319
 32
0.0
 13
505.3674342162
 23
960.3919130319
 33
0.0
  0
SOLID
  5
31A
330
316
100
AcDbEntity
  8
FORMAT
100
AcDbTrace
 10
538.4814342162
 20
963.9479130319
 30
0.0
 11
561.5954342162
 21
960.3919130319
 31
0.0
 12
561.5954342162
 22
967.5039130319
 32
0.0
 13
561.5954342162
 23
967.5039130319
 33
0.0
  0
LINE
  5
31B
330
316
100
AcDbEntity
  8
FORMAT
100
AcDbLine
 10
528.4814342162
 20
621.9576068595
 30
0.0
 11
528.4814342162
 21
970.9479130319
 31
0.0
  0
LINE
  5
31C
330
316
100
AcDbEntity
  8
FORMAT
100
AcDbLine
 10
538.4814342162
 20
786.4576068591
 30
0.0
 11
538.4814342162
 21
970.9479130319
 31
0.0
  0
LINE
  5
31D
330
316
100
AcDbEntity
  8
FORMAT
100
AcDbLine
 10
528.4814342162
 20
963.9479130319
 30
0.0
 11
452.9472057048
 21
963.9479130319
 31
0.0
  0
LINE
  5
31E
330
316
100
AcDbEntity
  8
FORMAT
100
AcDbLine
 10
528.4814342162
 20
963.9479130319
 30
0.0
 11
538.4814342162
 21
963.9479130319
 31
0.0
  0
LINE
  5
31F
330
316
100
AcDbEntity
  8
FORMAT
100
AcDbLine
 10
538.4814342162
 20
963.9479130319
 30
0.0
 11
582.9314342162
 21
963.9479130319
 31
0.0
  0
MTEXT
  5
320
330
316
100
AcDbEntity
  8
FORMAT
100
AcDbMText
 10
452.9472057048
 20
995.5300742861
 30
0.0
 40
24.5
 41
0.0
 71
     1
 72
     1
  1
10
  7
SLDTEXTSTYLE0
 73
     1
 44
1.0
  0
ENDBLK
  5
318
330
316
100
AcDbEntity
  8
0
100
AcDbBlockEnd
  0
BLOCK
  5
323
330
322
100
AcDbEntity
  8
0
100
AcDbBlockBegin
  2
_D_11
 70
     0
 10
0.0
 20
0.0
 30
0.0
  3
_D_11
  1

  0
SOLID
  5
325
330
322
100
AcDbEntity
  8
FORMAT
100
AcDbTrace
 10
528.4814342162
 20
1005.2112069478
 30
0.0
 11
505.3674342162
 21
1008.7672069478
 31
0.0
 12
505.3674342162
 22
1001.6552069478
 32
0.0
 13
505.3674342162
 23
1001.6552069478
 33
0.0
  0
SOLID
  5
326
330
322
100
AcDbEntity
  8
FORMAT
100
AcDbTrace
 10
552.4814342162
 20
1005.2112069478
 30
0.0
 11
575.5954342162
 21
1001.6552069478
 31
0.0
 12
575.5954342162
 22
1008.7672069478
 32
0.0
 13
575.5954342162
 23
1008.7672069478
 33
0.0
  0
LINE
  5
327
330
322
100
AcDbEntity
  8
FORMAT
100
AcDbLine
 10
528.4814342162
 20
621.9576068595
 30
0.0
 11
528.4814342162
 21
1012.2112069478
 31
0.0
  0
LINE
  5
328
330
322
100
AcDbEntity
  8
FORMAT
100
AcDbLine
 10
552.4814342162
 20
815.4576068595
 30
0.0
 11
552.4814342162
 21
1012.2112069478
 31
0.0
  0
LINE
  5
329
330
322
100
AcDbEntity
  8
FORMAT
100
AcDbLine
 10
528.4814342162
 20
1005.2112069478
 30
0.0
 11
452.9472057048
 21
1005.2112069478
 31
0.0
  0
LINE
  5
32A
330
322
100
AcDbEntity
  8
FORMAT
100
AcDbLine
 10
528.4814342162
 20
1005.2112069478
 30
0.0
 11
552.4814342162
 21
1005.2112069478
 31
0.0
  0
LINE
  5
32B
330
322
100
AcDbEntity
  8
FORMAT
100
AcDbLine
 10
552.4814342162
 20
1005.2112069478
 30
0.0
 11
596.9314342162
 21
1005.2112069478
 31
0.0
  0
MTEXT
  5
32C
330
322
100
AcDbEntity
  8
FORMAT
100
AcDbMText
 10
452.9472057048
 20
1036.793368202
 30
0.0
 40
24.5
 41
0.0
 71
     1
 72
     1
  1
24
  7
SLDTEXTSTYLE0
 73
     1
 44
1.0
  0
ENDBLK
  5
324
330
322
100
AcDbEntity
  8
0
100
AcDbBlockEnd
  0
BLOCK
  5
32F
330
32E
100
AcDbEntity
  8
0
100
AcDbBlockBegin
  2
_D_12
 70
     0
 10
0.0
 20
0.0
 30
0.0
  3
_D_12
  1

  0
SOLID
  5
331
330
32E
100
AcDbEntity
  8
FORMAT
100
AcDbTrace
 10
528.4814342162
 20
1034.7605304135
 30
0.0
 11
551.5954342162
 21
1031.2045304135
 31
0.0
 12
551.5954342162
 22
1038.3165304135
 32
0.0
 13
551.5954342162
 23
1038.3165304135
 33
0.0
  0
SOLID
  5
332
330
32E
100
AcDbEntity
  8
FORMAT
100
AcDbTrace
 10
745.4814342162
 20
1034.7605304135
 30
0.0
 11
722.3674342162
 21
1038.3165304135
 31
0.0
 12
722.3674342162
 22
1031.2045304135
 32
0.0
 13
722.3674342162
 23
1031.2045304135
 33
0.0
  0
LINE
  5
333
330
32E
100
AcDbEntity
  8
FORMAT
100
AcDbLine
 10
528.4814342162
 20
621.9576068595
 30
0.0
 11
528.4814342162
 21
1041.7605304135
 31
0.0
  0
LINE
  5
334
330
32E
100
AcDbEntity
  8
FORMAT
100
AcDbLine
 10
745.4814342162
 20
857.7076068591
 30
0.0
 11
745.4814342162
 21
1041.7605304135
 31
0.0
  0
LINE
  5
335
330
32E
100
AcDbEntity
  8
FORMAT
100
AcDbLine
 10
528.4814342162
 20
1034.7605304135
 30
0.0
 11
745.4814342162
 21
1034.7605304135
 31
0.0
  0
MTEXT
  5
336
330
32E
100
AcDbEntity
  8
FORMAT
100
AcDbMText
 10
608.9085182449
 20
1066.3426916678
 30
0.0
 40
24.5
 41
0.0
 71
     1
 72
     1
  1
217
  7
SLDTEXTSTYLE0
 73
     1
 44
1.0
  0
ENDBLK
  5
330
330
32E
100
AcDbEntity
  8
0
100
AcDbBlockEnd
  0
BLOCK
  5
339
330
338
100
AcDbEntity
  8
0
100
AcDbBlockBegin
  2
_D_13
 70
     0
 10
0.0
 20
0.0
 30
0.0
  3
_D_13
  1

  0
SOLID
  5
33B
330
338
100
AcDbEntity
  8
FORMAT
100
AcDbTrace
 10
745.4814342162
 20
1034.7605304135
 30
0.0
 11
768.5954342162
 21
1031.2045304135
 31
0.0
 12
768.5954342162
 22
1038.3165304135
 32
0.0
 13
768.5954342162
 23
1038.3165304135
 33
0.0
  0
SOLID
  5
33C
330
338
100
AcDbEntity
  8
FORMAT
100
AcDbTrace
 10
952.4814342162
 20
1034.7605304135
 30
0.0
 11
929.3674342162
 21
1038.3165304135
 31
0.0
 12
929.3674342162
 22
1031.2045304135
 32
0.0
 13
929.3674342162
 23
1031.2045304135
 33
0.0
  0
LINE
  5
33D
330
338
100
AcDbEntity
  8
FORMAT
100
AcDbLine
 10
745.4814342162
 20
857.7076068591
 30
0.0
 11
745.4814342162
 21
1041.7605304135
 31
0.0
  0
LINE
  5
33E
330
338
100
AcDbEntity
  8
FORMAT
100
AcDbLine
 10
952.4814342162
 20
857.7076068591
 30
0.0
 11
952.4814342162
 21
1041.7605304135
 31
0.0
  0
LINE
  5
33F
330
338
100
AcDbEntity
  8
FORMAT
100
AcDbLine
 10
745.4814342162
 20
1034.7605304135
 30
0.0
 11
952.4814342162
 21
1034.7605304135
 31
0.0
  0
MTEXT
  5
340
330
338
100
AcDbEntity
  8
FORMAT
100
AcDbMText
 10
820.9085182449
 20
1066.3426916678
 30
0.0
 40
24.5
 41
0.0
 71
     1
 72
     1
  1
207
  7
SLDTEXTSTYLE0
 73
     1
 44
1.0
  0
ENDBLK
  5
33A
330
338
100
AcDbEntity
  8
0
100
AcDbBlockEnd
  0
BLOCK
  5
343
330
342
100
AcDbEntity
  8
0
100
AcDbBlockBegin
  2
_D_14
 70
     0
 10
0.0
 20
0.0
 30
0.0
  3
_D_14
  1

  0
SOLID
  5
345
330
342
100
AcDbEntity
  8
FORMAT
100
AcDbTrace
 10
952.4814342162
 20
1034.7605304135
 30
0.0
 11
975.5954342162
 21
1031.2045304135
 31
0.0
 12
975.5954342162
 22
1038.3165304135
 32
0.0
 13
975.5954342162
 23
1038.3165304135
 33
0.0
  0
SOLID
  5
346
330
342
100
AcDbEntity
  8
FORMAT
100
AcDbTrace
 10
1178.4814342162
 20
1034.7605304135
 30
0.0
 11
1155.3674342162
 21
1038.3165304135
 31
0.0
 12
1155.3674342162
 22
1031.2045304135
 32
0.0
 13
1155.3674342162
 23
1031.2045304135
 33
0.0
  0
LINE
  5
347
330
342
100
AcDbEntity
  8
FORMAT
100
AcDbLine
 10
952.4814342162
 20
857.7076068591
 30
0.0
 11
952.4814342162
 21
1041.7605304135
 31
0.0
  0
LINE
  5
348
330
342
100
AcDbEntity
  8
FORMAT
100
AcDbLine
 10
1178.4814342162
 20
857.7076068591
 30
0.0
 11
1178.4814342162
 21
1041.7605304135
 31
0.0
  0
LINE
  5
349
330
342
100
AcDbEntity
  8
FORMAT
100
AcDbLine
 10
952.4814342162
 20
1034.7605304135
 30
0.0
 11
1178.4814342162
 21
1034.7605304135
 31
0.0
  0
MTEXT
  5
34A
330
342
100
AcDbEntity
  8
FORMAT
100
AcDbMText
 10
1037.4085182449
 20
1066.3426916678
 30
0.0
 40
24.5
 41
0.0
 71
     1
 72
     1
  1
226
  7
SLDTEXTSTYLE0
 73
     1
 44
1.0
  0
ENDBLK
  5
344
330
342
100
AcDbEntity
  8
0
100
AcDbBlockEnd
  0
BLOCK
  5
34D
330
34C
100
AcDbEntity
  8
0
100
AcDbBlockBegin
  2
_D_15
 70
     0
 10
0.0
 20
0.0
 30
0.0
  3
_D_15
  1

  0
SOLID
  5
34F
330
34C
100
AcDbEntity
  8
FORMAT
100
AcDbTrace
 10
528.4814342162
 20
1080.2165999197
 30
0.0
 11
551.5954342162
 21
1076.6605999197
 31
0.0
 12
551.5954342162
 22
1083.7725999197
 32
0.0
 13
551.5954342162
 23
1083.7725999197
 33
0.0
  0
SOLID
  5
350
330
34C
100
AcDbEntity
  8
FORMAT
100
AcDbTrace
 10
1194.4814342162
 20
1080.2165999197
 30
0.0
 11
1171.3674342162
 21
1083.7725999197
 31
0.0
 12
1171.3674342162
 22
1076.6605999197
 32
0.0
 13
1171.3674342162
 23
1076.6605999197
 33
0.0
  0
LINE
  5
351
330
34C
100
AcDbEntity
  8
FORMAT
100
AcDbLine
 10
528.4814342162
 20
621.9576068595
 30
0.0
 11
528.4814342162
 21
1087.2165999197
 31
0.0
  0
LINE
  5
352
330
34C
100
AcDbEntity
  8
FORMAT
100
AcDbLine
 10
1194.4814342162
 20
839.4576068595
 30
0.0
 11
1194.4814342162
 21
1087.2165999197
 31
0.0
  0
LINE
  5
353
330
34C
100
AcDbEntity
  8
FORMAT
100
AcDbLine
 10
528.4814342162
 20
1080.2165999197
 30
0.0
 11
1194.4814342162
 21
1080.2165999197
 31
0.0
  0
MTEXT
  5
354
330
34C
100
AcDbEntity
  8
FORMAT
100
AcDbMText
 10
833.4085182449
 20
1111.7987611739
 30
0.0
 40
24.5
 41
0.0
 71
     1
 72
     1
  1
666
  7
SLDTEXTSTYLE0
 73
     1
 44
1.0
  0
ENDBLK
  5
34E
330
34C
100
AcDbEntity
  8
0
100
AcDbBlockEnd
  0
BLOCK
  5
357
330
356
100
AcDbEntity
  8
0
100
AcDbBlockBegin
  2
_D_16
 70
     0
 10
0.0
 20
0.0
 30
0.0
  3
_D_16
  1

  0
SOLID
  5
359
330
356
100
AcDbEntity
  8
FORMAT
100
AcDbTrace
 10
528.4814342162
 20
1120.0503436668
 30
0.0
 11
551.5954342162
 21
1116.4943436668
 31
0.0
 12
551.5954342162
 22
1123.6063436668
 32
0.0
 13
551.5954342162
 23
1123.6063436668
 33
0.0
  0
SOLID
  5
35A
330
356
100
AcDbEntity
  8
FORMAT
100
AcDbTrace
 10
1208.4814342162
 20
1120.0503436668
 30
0.0
 11
1185.3674342162
 21
1123.6063436668
 31
0.0
 12
1185.3674342162
 22
1116.4943436668
 32
0.0
 13
1185.3674342162
 23
1116.4943436668
 33
0.0
  0
LINE
  5
35B
330
356
100
AcDbEntity
  8
FORMAT
100
AcDbLine
 10
528.4814342162
 20
621.9576068595
 30
0.0
 11
528.4814342162
 21
1127.0503436668
 31
0.0
  0
LINE
  5
35C
330
356
100
AcDbEntity
  8
FORMAT
100
AcDbLine
 10
1208.4814342162
 20
851.9576068591
 30
0.0
 11
1208.4814342162
 21
1127.0503436668
 31
0.0
  0
LINE
  5
35D
330
356
100
AcDbEntity
  8
FORMAT
100
AcDbLine
 10
528.4814342162
 20
1120.0503436668
 30
0.0
 11
1208.4814342162
 21
1120.0503436668
 31
0.0
  0
MTEXT
  5
35E
330
356
100
AcDbEntity
  8
FORMAT
100
AcDbMText
 10
840.4085182449
 20
1151.632504921
 30
0.0
 40
24.5
 41
0.0
 71
     1
 72
     1
  1
680
  7
SLDTEXTSTYLE0
 73
     1
 44
1.0
  0
ENDBLK
  5
358
330
356
100
AcDbEntity
  8
0
100
AcDbBlockEnd
  0
BLOCK
  5
361
330
360
100
AcDbEntity
  8
0
100
AcDbBlockBegin
  2
_D_17
 70
     0
 10
0.0
 20
0.0
 30
0.0
  3
_D_17
  1

  0
SOLID
  5
363
330
360
100
AcDbEntity
  8
FORMAT
100
AcDbTrace
 10
409.1013031524
 20
745.9576068595
 30
0.0
 11
405.5453031524
 21
722.8436068595
 31
0.0
 12
412.6573031524
 22
722.8436068595
 32
0.0
 13
412.6573031524
 23
722.8436068595
 33
0.0
  0
SOLID
  5
364
330
360
100
AcDbEntity
  8
FORMAT
100
AcDbTrace
 10
409.1013031524
 20
761.4576068591
 30
0.0
 11
412.6573031524
 21
784.5716068591
 31
0.0
 12
405.5453031524
 22
784.5716068591
 32
0.0
 13
405.5453031524
 23
784.5716068591
 33
0.0
  0
LINE
  5
365
330
360
100
AcDbEntity
  8
FORMAT
100
AcDbLine
 10
541.4814342162
 20
745.9576068595
 30
0.0
 11
402.1013031524
 21
745.9576068595
 31
0.0
  0
LINE
  5
366
330
360
100
AcDbEntity
  8
FORMAT
100
AcDbLine
 10
531.4814342162
 20
761.4576068591
 30
0.0
 11
402.1013031524
 21
761.4576068591
 31
0.0
  0
LINE
  5
367
330
360
100
AcDbEntity
  8
FORMAT
100
AcDbLine
 10
409.1013031524
 20
745.9576068595
 30
0.0
 11
409.1013031524
 21
665.7208305313
 31
0.0
  0
LINE
  5
368
330
360
100
AcDbEntity
  8
FORMAT
100
AcDbLine
 10
409.1013031524
 20
745.9576068595
 30
0.0
 11
409.1013031524
 21
761.4576068591
 31
0.0
  0
LINE
  5
369
330
360
100
AcDbEntity
  8
FORMAT
100
AcDbLine
 10
409.1013031524
 20
761.4576068591
 30
0.0
 11
409.1013031524
 21
805.9076068591
 31
0.0
  0
MTEXT
  5
36A
330
360
100
AcDbEntity
  8
FORMAT
100
AcDbMText
 10
377.5191418981
 20
665.7208305313
 30
0.0
 40
24.5
 41
0.0
 71
     1
 72
     1
  1
16
  7
SLDTEXTSTYLE0
 11
6.123233995736766E-17
 21
1.0
 31
0.0
 73
     1
 44
1.0
  0
ENDBLK
  5
362
330
360
100
AcDbEntity
  8
0
100
AcDbBlockEnd
  0
BLOCK
  5
36D
330
36C
100
AcDbEntity
  8
0
100
AcDbBlockBegin
  2
_D_18
 70
     0
 10
0.0
 20
0.0
 30
0.0
  3
_D_18
  1

  0
SOLID
  5
36F
330
36C
100
AcDbEntity
  8
FORMAT
100
AcDbTrace
 10
369.3949627173
 20
761.4576068591
 30
0.0
 11
365.8389627173
 21
738.3436068591
 31
0.0
 12
372.9509627173
 22
738.3436068591
 32
0.0
 13
372.9509627173
 23
738.3436068591
 33
0.0
  0
SOLID
  5
370
330
36C
100
AcDbEntity
  8
FORMAT
100
AcDbTrace
 10
369.3949627173
 20
795.9576068595
 30
0.0
 11
372.9509627173
 21
819.0716068595
 31
0.0
 12
365.8389627173
 22
819.0716068595
 32
0.0
 13
365.8389627173
 23
819.0716068595
 33
0.0
  0
LINE
  5
371
330
36C
100
AcDbEntity
  8
FORMAT
100
AcDbLine
 10
517.9814342162
 20
761.4576068591
 30
0.0
 11
362.3949627173
 21
761.4576068591
 31
0.0
  0
LINE
  5
372
330
36C
100
AcDbEntity
  8
FORMAT
100
AcDbLine
 10
517.9814342162
 20
795.9576068595
 30
0.0
 11
419.6013031524
 21
795.9576068595
 31
0.0
  0
LINE
  5
373
330
36C
100
AcDbEntity
  8
FORMAT
100
AcDbLine
 10
398.6013031524
 20
795.9576068595
 30
0.0
 11
362.3949627173
 21
795.9576068595
 31
0.0
  0
LINE
  5
374
330
36C
100
AcDbEntity
  8
FORMAT
100
AcDbLine
 10
369.3949627173
 20
761.4576068591
 30
0.0
 11
369.3949627173
 21
665.7208305313
 31
0.0
  0
LINE
  5
375
330
36C
100
AcDbEntity
  8
FORMAT
100
AcDbLine
 10
369.3949627173
 20
761.4576068591
 30
0.0
 11
369.3949627173
 21
795.9576068595
 31
0.0
  0
LINE
  5
376
330
36C
100
AcDbEntity
  8
FORMAT
100
AcDbLine
 10
369.3949627173
 20
795.9576068595
 30
0.0
 11
369.3949627173
 21
840.4076068595
 31
0.0
  0
MTEXT
  5
377
330
36C
100
AcDbEntity
  8
FORMAT
100
AcDbMText
 10
337.8128014631
 20
665.7208305313
 30
0.0
 40
24.5
 41
0.0
 71
     1
 72
     1
  1
35
  7
SLDTEXTSTYLE0
 11
2.832769448823990E-16
 21
1.0
 31
0.0
 73
     1
 44
1.0
  0
ENDBLK
  5
36E
330
36C
100
AcDbEntity
  8
0
100
AcDbBlockEnd
  0
BLOCK
  5
37A
330
379
100
AcDbEntity
  8
0
100
AcDbBlockBegin
  2
_D_19
 70
     0
 10
0.0
 20
0.0
 30
0.0
  3
_D_19
  1

  0
SOLID
  5
37C
330
379
100
AcDbEntity
  8
FORMAT
100
AcDbTrace
 10
327.5792604231
 20
795.9576068595
 30
0.0
 11
324.0232604231
 21
772.8436068595
 31
0.0
 12
331.1352604231
 22
772.8436068595
 32
0.0
 13
331.1352604231
 23
772.8436068595
 33
0.0
  0
SOLID
  5
37D
330
379
100
AcDbEntity
  8
FORMAT
100
AcDbTrace
 10
327.5792604231
 20
819.9576068595
 30
0.0
 11
331.1352604231
 21
843.0716068595
 31
0.0
 12
324.0232604231
 22
843.0716068595
 32
0.0
 13
324.0232604231
 23
843.0716068595
 33
0.0
  0
LINE
  5
37E
330
379
100
AcDbEntity
  8
FORMAT
100
AcDbLine
 10
517.9814342162
 20
795.9576068595
 30
0.0
 11
419.6013031524
 21
795.9576068595
 31
0.0
  0
LINE
  5
37F
330
379
100
AcDbEntity
  8
FORMAT
100
AcDbLine
 10
398.6013031524
 20
795.9576068595
 30
0.0
 11
320.5792604231
 21
795.9576068595
 31
0.0
  0
LINE
  5
380
330
379
100
AcDbEntity
  8
FORMAT
100
AcDbLine
 10
517.9814342162
 20
819.9576068595
 30
0.0
 11
379.8949627173
 21
819.9576068595
 31
0.0
  0
LINE
  5
381
330
379
100
AcDbEntity
  8
FORMAT
100
AcDbLine
 10
358.8949627173
 20
819.9576068595
 30
0.0
 11
320.5792604231
 21
819.9576068595
 31
0.0
  0
LINE
  5
382
330
379
100
AcDbEntity
  8
FORMAT
100
AcDbLine
 10
327.5792604231
 20
795.9576068595
 30
0.0
 11
327.5792604231
 21
665.7208305313
 31
0.0
  0
LINE
  5
383
330
379
100
AcDbEntity
  8
FORMAT
100
AcDbLine
 10
327.5792604231
 20
795.9576068595
 30
0.0
 11
327.5792604231
 21
819.9576068595
 31
0.0
  0
LINE
  5
384
330
379
100
AcDbEntity
  8
FORMAT
100
AcDbLine
 10
327.5792604231
 20
819.9576068595
 30
0.0
 11
327.5792604231
 21
864.4076068595
 31
0.0
  0
MTEXT
  5
385
330
379
100
AcDbEntity
  8
FORMAT
100
AcDbMText
 10
295.9970991689
 20
665.7208305313
 30
0.0
 40
24.5
 41
0.0
 71
     1
 72
     1
  1
24
  7
SLDTEXTSTYLE0
 11
6.123233995736766E-17
 21
1.0
 31
0.0
 73
     1
 44
1.0
  0
ENDBLK
  5
37B
330
379
100
AcDbEntity
  8
0
100
AcDbBlockEnd
  0
BLOCK
  5
38A
330
389
100
AcDbEntity
  8
0
100
AcDbBlockBegin
  2
SW_NOTE_0_5
 70
     0
 10
0.0
 20
0.0
 30
0.0
  3
SW_NOTE_0_5
  1

  0
MTEXT
  5
38C
330
389
100
AcDbEntity
  8
FORMAT
 62
     0
100
AcDbMText
 10
-306.4636677228
 20
37.1908798156
 30
0.0
 40
18.5208333333
 41
0.0
 71
     1
 72
     1
  1
ø20
  7
SLDTEXTSTYLE0
 73
     1
 44
1.0
  0
MTEXT
  5
38D
330
389
100
AcDbEntity
  8
FORMAT
 62
     0
100
AcDbMText
 10
-306.4636677228
 20
5.4964345222
 30
0.0
 40
18.5208333333
 41
0.0
 71
     1
 72
     1
  1
(verdeckte Kabelzuführung)
  7
SLDTEXTSTYLE0
 73
     1
 44
1.0
  0
ENDBLK
  5
38B
330
389
100
AcDbEntity
  8
0
100
AcDbBlockEnd
  0
BLOCK
  5
393
330
392
100
AcDbEntity
  8
0
100
AcDbBlockBegin
  2
SW_CENTERMARKSYMBOL_0
 70
     0
 10
0.0
 20
0.0
 30
0.0
  3
SW_CENTERMARKSYMBOL_0
  1

  0
LINE
  5
395
330
392
100
AcDbEntity
  8
FORMAT
 62
     0
100
AcDbLine
 10
0.0
 20
0.0
 30
0.0
 11
0.0
 21
2.5
 31
0.0
  0
LINE
  5
396
330
392
100
AcDbEntity
  8
FORMAT
 62
     0
100
AcDbLine
 10
0.0
 20
0.0
 30
0.0
 11
-2.5
 21
0.0
 31
0.0
  0
LINE
  5
397
330
392
100
AcDbEntity
  8
FORMAT
 62
     0
100
AcDbLine
 10
0.0
 20
0.0
 30
0.0
 11
0.0
 21
-2.5
 31
0.0
  0
LINE
  5
398
330
392
100
AcDbEntity
  8
FORMAT
 62
     0
100
AcDbLine
 10
0.0
 20
0.0
 30
0.0
 11
2.5
 21
0.0
 31
0.0
  0
LINE
  5
399
330
392
100
AcDbEntity
  8
FORMAT
 62
     0
100
AcDbLine
 10
0.0
 20
2.5
 30
0.0
 11
0.0
 21
5.0
 31
0.0
  0
LINE
  5
39A
330
392
100
AcDbEntity
  8
FORMAT
 62
     0
100
AcDbLine
 10
-2.5
 20
0.0
 30
0.0
 11
-5.0
 21
0.0
 31
0.0
  0
LINE
  5
39B
330
392
100
AcDbEntity
  8
FORMAT
 62
     0
100
AcDbLine
 10
0.0
 20
-2.5
 30
0.0
 11
0.0
 21
-5.0
 31
0.0
  0
LINE
  5
39C
330
392
100
AcDbEntity
  8
FORMAT
 62
     0
100
AcDbLine
 10
2.5
 20
0.0
 30
0.0
 11
5.0
 21
0.0
 31
0.0
  0
ENDBLK
  5
394
330
392
100
AcDbEntity
  8
0
100
AcDbBlockEnd
  0
BLOCK
  5
39F
330
39E
100
AcDbEntity
  8
0
100
AcDbBlockBegin
  2
SW_CENTERMARKSYMBOL_1
 70
     0
 10
0.0
 20
0.0
 30
0.0
  3
SW_CENTERMARKSYMBOL_1
  1

  0
LINE
  5
3A1
330
39E
100
AcDbEntity
  8
FORMAT
 62
     0
100
AcDbLine
 10
0.0
 20
0.0
 30
0.0
 11
0.0
 21
2.5
 31
0.0
  0
LINE
  5
3A2
330
39E
100
AcDbEntity
  8
FORMAT
 62
     0
100
AcDbLine
 10
0.0
 20
0.0
 30
0.0
 11
-2.5
 21
0.0
 31
0.0
  0
LINE
  5
3A3
330
39E
100
AcDbEntity
  8
FORMAT
 62
     0
100
AcDbLine
 10
0.0
 20
0.0
 30
0.0
 11
0.0
 21
-2.5
 31
0.0
  0
LINE
  5
3A4
330
39E
100
AcDbEntity
  8
FORMAT
 62
     0
100
AcDbLine
 10
0.0
 20
0.0
 30
0.0
 11
2.5
 21
0.0
 31
0.0
  0
LINE
  5
3A5
330
39E
100
AcDbEntity
  8
FORMAT
 62
     0
100
AcDbLine
 10
0.0
 20
2.5
 30
0.0
 11
0.0
 21
5.0
 31
0.0
  0
LINE
  5
3A6
330
39E
100
AcDbEntity
  8
FORMAT
 62
     0
100
AcDbLine
 10
-2.5
 20
0.0
 30
0.0
 11
-5.0
 21
0.0
 31
0.0
  0
LINE
  5
3A7
330
39E
100
AcDbEntity
  8
FORMAT
 62
     0
100
AcDbLine
 10
0.0
 20
-2.5
 30
0.0
 11
0.0
 21
-5.0
 31
0.0
  0
LINE
  5
3A8
330
39E
100
AcDbEntity
  8
FORMAT
 62
     0
100
AcDbLine
 10
2.5
 20
0.0
 30
0.0
 11
5.0
 21
0.0
 31
0.0
  0
ENDBLK
  5
3A0
330
39E
100
AcDbEntity
  8
0
100
AcDbBlockEnd
  0
BLOCK
  5
3AB
330
3AA
100
AcDbEntity
  8
0
100
AcDbBlockBegin
  2
SW_CENTERMARKSYMBOL_2
 70
     0
 10
0.0
 20
0.0
 30
0.0
  3
SW_CENTERMARKSYMBOL_2
  1

  0
LINE
  5
3AD
330
3AA
100
AcDbEntity
  8
FORMAT
 62
     0
100
AcDbLine
 10
0.0
 20
0.0
 30
0.0
 11
0.0
 21
2.5
 31
0.0
  0
LINE
  5
3AE
330
3AA
100
AcDbEntity
  8
FORMAT
 62
     0
100
AcDbLine
 10
0.0
 20
0.0
 30
0.0
 11
-2.5
 21
0.0
 31
0.0
  0
LINE
  5
3AF
330
3AA
100
AcDbEntity
  8
FORMAT
 62
     0
100
AcDbLine
 10
0.0
 20
0.0
 30
0.0
 11
0.0
 21
-2.5
 31
0.0
  0
LINE
  5
3B0
330
3AA
100
AcDbEntity
  8
FORMAT
 62
     0
100
AcDbLine
 10
0.0
 20
0.0
 30
0.0
 11
2.5
 21
0.0
 31
0.0
  0
LINE
  5
3B1
330
3AA
100
AcDbEntity
  8
FORMAT
 62
     0
100
AcDbLine
 10
0.0
 20
5.0
 30
0.0
 11
0.0
 21
5.75
 31
0.0
  0
LINE
  5
3B2
330
3AA
100
AcDbEntity
  8
FORMAT
 62
     0
100
AcDbLine
 10
-5.0
 20
0.0
 30
0.0
 11
-5.75
 21
0.0
 31
0.0
  0
LINE
  5
3B3
330
3AA
100
AcDbEntity
  8
FORMAT
 62
     0
100
AcDbLine
 10
0.0
 20
-5.0
 30
0.0
 11
0.0
 21
-5.75
 31
0.0
  0
LINE
  5
3B4
330
3AA
100
AcDbEntity
  8
FORMAT
 62
     0
100
AcDbLine
 10
5.0
 20
0.0
 30
0.0
 11
5.75
 21
0.0
 31
0.0
  0
ENDBLK
  5
3AC
330
3AA
100
AcDbEntity
  8
0
100
AcDbBlockEnd
  0
BLOCK
  5
3B7
330
3B6
100
AcDbEntity
  8
0
100
AcDbBlockBegin
  2
SW_CENTERMARKSYMBOL_3
 70
     0
 10
0.0
 20
0.0
 30
0.0
  3
SW_CENTERMARKSYMBOL_3
  1

  0
LINE
  5
3B9
330
3B6
100
AcDbEntity
  8
FORMAT
 62
     0
100
AcDbLine
 10
0.0
 20
0.0
 30
0.0
 11
0.0
 21
2.5
 31
0.0
  0
LINE
  5
3BA
330
3B6
100
AcDbEntity
  8
FORMAT
 62
     0
100
AcDbLine
 10
0.0
 20
0.0
 30
0.0
 11
-2.5
 21
0.0
 31
0.0
  0
LINE
  5
3BB
330
3B6
100
AcDbEntity
  8
FORMAT
 62
     0
100
AcDbLine
 10
0.0
 20
0.0
 30
0.0
 11
0.0
 21
-2.5
 31
0.0
  0
LINE
  5
3BC
330
3B6
100
AcDbEntity
  8
FORMAT
 62
     0
100
AcDbLine
 10
0.0
 20
0.0
 30
0.0
 11
2.5
 21
0.0
 31
0.0
  0
LINE
  5
3BD
330
3B6
100
AcDbEntity
  8
FORMAT
 62
     0
100
AcDbLine
 10
0.0
 20
5.0
 30
0.0
 11
0.0
 21
5.75
 31
0.0
  0
LINE
  5
3BE
330
3B6
100
AcDbEntity
  8
FORMAT
 62
     0
100
AcDbLine
 10
-5.0
 20
0.0
 30
0.0
 11
-5.75
 21
0.0
 31
0.0
  0
LINE
  5
3BF
330
3B6
100
AcDbEntity
  8
FORMAT
 62
     0
100
AcDbLine
 10
0.0
 20
-5.0
 30
0.0
 11
0.0
 21
-5.75
 31
0.0
  0
LINE
  5
3C0
330
3B6
100
AcDbEntity
  8
FORMAT
 62
     0
100
AcDbLine
 10
5.0
 20
0.0
 30
0.0
 11
5.75
 21
0.0
 31
0.0
  0
ENDBLK
  5
3B8
330
3B6
100
AcDbEntity
  8
0
100
AcDbBlockEnd
  0
BLOCK
  5
3C3
330
3C2
100
AcDbEntity
  8
0
100
AcDbBlockBegin
  2
SW_CENTERMARKSYMBOL_4
 70
     0
 10
0.0
 20
0.0
 30
0.0
  3
SW_CENTERMARKSYMBOL_4
  1

  0
LINE
  5
3C5
330
3C2
100
AcDbEntity
  8
FORMAT
 62
     0
100
AcDbLine
 10
0.0
 20
0.0
 30
0.0
 11
0.0
 21
2.5
 31
0.0
  0
LINE
  5
3C6
330
3C2
100
AcDbEntity
  8
FORMAT
 62
     0
100
AcDbLine
 10
0.0
 20
0.0
 30
0.0
 11
-2.5
 21
0.0
 31
0.0
  0
LINE
  5
3C7
330
3C2
100
AcDbEntity
  8
FORMAT
 62
     0
100
AcDbLine
 10
0.0
 20
0.0
 30
0.0
 11
0.0
 21
-2.5
 31
0.0
  0
LINE
  5
3C8
330
3C2
100
AcDbEntity
  8
FORMAT
 62
     0
100
AcDbLine
 10
0.0
 20
0.0
 30
0.0
 11
2.5
 21
0.0
 31
0.0
  0
LINE
  5
3C9
330
3C2
100
AcDbEntity
  8
FORMAT
 62
     0
100
AcDbLine
 10
0.0
 20
5.0
 30
0.0
 11
0.0
 21
5.75
 31
0.0
  0
LINE
  5
3CA
330
3C2
100
AcDbEntity
  8
FORMAT
 62
     0
100
AcDbLine
 10
-5.0
 20
0.0
 30
0.0
 11
-5.75
 21
0.0
 31
0.0
  0
LINE
  5
3CB
330
3C2
100
AcDbEntity
  8
FORMAT
 62
     0
100
AcDbLine
 10
0.0
 20
-5.0
 30
0.0
 11
0.0
 21
-5.75
 31
0.0
  0
LINE
  5
3CC
330
3C2
100
AcDbEntity
  8
FORMAT
 62
     0
100
AcDbLine
 10
5.0
 20
0.0
 30
0.0
 11
5.75
 21
0.0
 31
0.0
  0
ENDBLK
  5
3C4
330
3C2
100
AcDbEntity
  8
0
100
AcDbBlockEnd
  0
BLOCK
  5
3CF
330
3CE
100
AcDbEntity
  8
0
100
AcDbBlockBegin
  2
SW_CENTERMARKSYMBOL_5
 70
     0
 10
0.0
 20
0.0
 30
0.0
  3
SW_CENTERMARKSYMBOL_5
  1

  0
LINE
  5
3D1
330
3CE
100
AcDbEntity
  8
FORMAT
 62
     0
100
AcDbLine
 10
0.0
 20
0.0
 30
0.0
 11
0.0
 21
2.5
 31
0.0
  0
LINE
  5
3D2
330
3CE
100
AcDbEntity
  8
FORMAT
 62
     0
100
AcDbLine
 10
0.0
 20
0.0
 30
0.0
 11
-2.5
 21
0.0
 31
0.0
  0
LINE
  5
3D3
330
3CE
100
AcDbEntity
  8
FORMAT
 62
     0
100
AcDbLine
 10
0.0
 20
0.0
 30
0.0
 11
0.0
 21
-2.5
 31
0.0
  0
LINE
  5
3D4
330
3CE
100
AcDbEntity
  8
FORMAT
 62
     0
100
AcDbLine
 10
0.0
 20
0.0
 30
0.0
 11
2.5
 21
0.0
 31
0.0
  0
LINE
  5
3D5
330
3CE
100
AcDbEntity
  8
FORMAT
 62
     0
100
AcDbLine
 10
0.0
 20
5.0
 30
0.0
 11
0.0
 21
5.75
 31
0.0
  0
LINE
  5
3D6
330
3CE
100
AcDbEntity
  8
FORMAT
 62
     0
100
AcDbLine
 10
-5.0
 20
0.0
 30
0.0
 11
-5.75
 21
0.0
 31
0.0
  0
LINE
  5
3D7
330
3CE
100
AcDbEntity
  8
FORMAT
 62
     0
100
AcDbLine
 10
0.0
 20
-5.0
 30
0.0
 11
0.0
 21
-5.75
 31
0.0
  0
LINE
  5
3D8
330
3CE
100
AcDbEntity
  8
FORMAT
 62
     0
100
AcDbLine
 10
5.0
 20
0.0
 30
0.0
 11
5.75
 21
0.0
 31
0.0
  0
ENDBLK
  5
3D0
330
3CE
100
AcDbEntity
  8
0
100
AcDbBlockEnd
  0
BLOCK
  5
3DB
330
3DA
100
AcDbEntity
  8
0
100
AcDbBlockBegin
  2
SW_CENTERMARKSYMBOL_6
 70
     0
 10
0.0
 20
0.0
 30
0.0
  3
SW_CENTERMARKSYMBOL_6
  1

  0
LINE
  5
3DD
330
3DA
100
AcDbEntity
  8
FORMAT
 62
     0
100
AcDbLine
 10
0.0
 20
0.0
 30
0.0
 11
0.0
 21
2.5
 31
0.0
  0
LINE
  5
3DE
330
3DA
100
AcDbEntity
  8
FORMAT
 62
     0
100
AcDbLine
 10
0.0
 20
0.0
 30
0.0
 11
-2.5
 21
0.0
 31
0.0
  0
LINE
  5
3DF
330
3DA
100
AcDbEntity
  8
FORMAT
 62
     0
100
AcDbLine
 10
0.0
 20
0.0
 30
0.0
 11
0.0
 21
-2.5
 31
0.0
  0
LINE
  5
3E0
330
3DA
100
AcDbEntity
  8
FORMAT
 62
     0
100
AcDbLine
 10
0.0
 20
0.0
 30
0.0
 11
2.5
 21
0.0
 31
0.0
  0
LINE
  5
3E1
330
3DA
100
AcDbEntity
  8
FORMAT
 62
     0
100
AcDbLine
 10
0.0
 20
5.0
 30
0.0
 11
0.0
 21
5.75
 31
0.0
  0
LINE
  5
3E2
330
3DA
100
AcDbEntity
  8
FORMAT
 62
     0
100
AcDbLine
 10
-5.0
 20
0.0
 30
0.0
 11
-5.75
 21
0.0
 31
0.0
  0
LINE
  5
3E3
330
3DA
100
AcDbEntity
  8
FORMAT
 62
     0
100
AcDbLine
 10
0.0
 20
-5.0
 30
0.0
 11
0.0
 21
-5.75
 31
0.0
  0
LINE
  5
3E4
330
3DA
100
AcDbEntity
  8
FORMAT
 62
     0
100
AcDbLine
 10
5.0
 20
0.0
 30
0.0
 11
5.75
 21
0.0
 31
0.0
  0
ENDBLK
  5
3DC
330
3DA
100
AcDbEntity
  8
0
100
AcDbBlockEnd
  0
BLOCK
  5
3E7
330
3E6
100
AcDbEntity
  8
0
100
AcDbBlockBegin
  2
SW_CENTERMARKSYMBOL_7
 70
     0
 10
0.0
 20
0.0
 30
0.0
  3
SW_CENTERMARKSYMBOL_7
  1

  0
LINE
  5
3E9
330
3E6
100
AcDbEntity
  8
FORMAT
 62
     0
100
AcDbLine
 10
0.0
 20
0.0
 30
0.0
 11
0.0
 21
2.5
 31
0.0
  0
LINE
  5
3EA
330
3E6
100
AcDbEntity
  8
FORMAT
 62
     0
100
AcDbLine
 10
0.0
 20
0.0
 30
0.0
 11
-2.5
 21
0.0
 31
0.0
  0
LINE
  5
3EB
330
3E6
100
AcDbEntity
  8
FORMAT
 62
     0
100
AcDbLine
 10
0.0
 20
0.0
 30
0.0
 11
0.0
 21
-2.5
 31
0.0
  0
LINE
  5
3EC
330
3E6
100
AcDbEntity
  8
FORMAT
 62
     0
100
AcDbLine
 10
0.0
 20
0.0
 30
0.0
 11
2.5
 21
0.0
 31
0.0
  0
LINE
  5
3ED
330
3E6
100
AcDbEntity
  8
FORMAT
 62
     0
100
AcDbLine
 10
0.0
 20
5.0
 30
0.0
 11
0.0
 21
5.75
 31
0.0
  0
LINE
  5
3EE
330
3E6
100
AcDbEntity
  8
FORMAT
 62
     0
100
AcDbLine
 10
-5.0
 20
0.0
 30
0.0
 11
-5.75
 21
0.0
 31
0.0
  0
LINE
  5
3EF
330
3E6
100
AcDbEntity
  8
FORMAT
 62
     0
100
AcDbLine
 10
0.0
 20
-5.0
 30
0.0
 11
0.0
 21
-5.75
 31
0.0
  0
LINE
  5
3F0
330
3E6
100
AcDbEntity
  8
FORMAT
 62
     0
100
AcDbLine
 10
5.0
 20
0.0
 30
0.0
 11
5.75
 21
0.0
 31
0.0
  0
ENDBLK
  5
3E8
330
3E6
100
AcDbEntity
  8
0
100
AcDbBlockEnd
  0
BLOCK
  5
3F3
330
3F2
100
AcDbEntity
  8
0
100
AcDbBlockBegin
  2
SW_CENTERMARKSYMBOL_8
 70
     0
 10
0.0
 20
0.0
 30
0.0
  3
SW_CENTERMARKSYMBOL_8
  1

  0
LINE
  5
3F5
330
3F2
100
AcDbEntity
  8
FORMAT
 62
     0
100
AcDbLine
 10
0.0
 20
0.0
 30
0.0
 11
0.0
 21
2.5
 31
0.0
  0
LINE
  5
3F6
330
3F2
100
AcDbEntity
  8
FORMAT
 62
     0
100
AcDbLine
 10
0.0
 20
0.0
 30
0.0
 11
-2.5
 21
0.0
 31
0.0
  0
LINE
  5
3F7
330
3F2
100
AcDbEntity
  8
FORMAT
 62
     0
100
AcDbLine
 10
0.0
 20
0.0
 30
0.0
 11
0.0
 21
-2.5
 31
0.0
  0
LINE
  5
3F8
330
3F2
100
AcDbEntity
  8
FORMAT
 62
     0
100
AcDbLine
 10
0.0
 20
0.0
 30
0.0
 11
2.5
 21
0.0
 31
0.0
  0
LINE
  5
3F9
330
3F2
100
AcDbEntity
  8
FORMAT
 62
     0
100
AcDbLine
 10
0.0
 20
5.0
 30
0.0
 11
0.0
 21
12.5
 31
0.0
  0
LINE
  5
3FA
330
3F2
100
AcDbEntity
  8
FORMAT
 62
     0
100
AcDbLine
 10
-5.0
 20
0.0
 30
0.0
 11
-12.5
 21
0.0
 31
0.0
  0
LINE
  5
3FB
330
3F2
100
AcDbEntity
  8
FORMAT
 62
     0
100
AcDbLine
 10
0.0
 20
-5.0
 30
0.0
 11
0.0
 21
-12.5
 31
0.0
  0
LINE
  5
3FC
330
3F2
100
AcDbEntity
  8
FORMAT
 62
     0
100
AcDbLine
 10
5.0
 20
0.0
 30
0.0
 11
12.5
 21
0.0
 31
0.0
  0
ENDBLK
  5
3F4
330
3F2
100
AcDbEntity
  8
0
100
AcDbBlockEnd
  0
BLOCK
  5
3FF
330
3FE
100
AcDbEntity
  8
0
100
AcDbBlockBegin
  2
SW_CENTERMARKSYMBOL_9
 70
     0
 10
0.0
 20
0.0
 30
0.0
  3
SW_CENTERMARKSYMBOL_9
  1

  0
LINE
  5
401
330
3FE
100
AcDbEntity
  8
FORMAT
 62
     0
100
AcDbLine
 10
0.0
 20
0.0
 30
0.0
 11
0.0
 21
2.5
 31
0.0
  0
LINE
  5
402
330
3FE
100
AcDbEntity
  8
FORMAT
 62
     0
100
AcDbLine
 10
0.0
 20
0.0
 30
0.0
 11
-2.5
 21
0.0
 31
0.0
  0
LINE
  5
403
330
3FE
100
AcDbEntity
  8
FORMAT
 62
     0
100
AcDbLine
 10
0.0
 20
0.0
 30
0.0
 11
0.0
 21
-2.5
 31
0.0
  0
LINE
  5
404
330
3FE
100
AcDbEntity
  8
FORMAT
 62
     0
100
AcDbLine
 10
0.0
 20
0.0
 30
0.0
 11
2.5
 21
0.0
 31
0.0
  0
LINE
  5
405
330
3FE
100
AcDbEntity
  8
FORMAT
 62
     0
100
AcDbLine
 10
0.0
 20
5.0
 30
0.0
 11
0.0
 21
12.5
 31
0.0
  0
LINE
  5
406
330
3FE
100
AcDbEntity
  8
FORMAT
 62
     0
100
AcDbLine
 10
-5.0
 20
0.0
 30
0.0
 11
-12.5
 21
0.0
 31
0.0
  0
LINE
  5
407
330
3FE
100
AcDbEntity
  8
FORMAT
 62
     0
100
AcDbLine
 10
0.0
 20
-5.0
 30
0.0
 11
0.0
 21
-12.5
 31
0.0
  0
LINE
  5
408
330
3FE
100
AcDbEntity
  8
FORMAT
 62
     0
100
AcDbLine
 10
5.0
 20
0.0
 30
0.0
 11
12.5
 21
0.0
 31
0.0
  0
ENDBLK
  5
400
330
3FE
100
AcDbEntity
  8
0
100
AcDbBlockEnd
  0
BLOCK
  5
40B
330
40A
100
AcDbEntity
  8
0
100
AcDbBlockBegin
  2
SW_CENTERMARKSYMBOL_10
 70
     0
 10
0.0
 20
0.0
 30
0.0
  3
SW_CENTERMARKSYMBOL_10
  1

  0
LINE
  5
40D
330
40A
100
AcDbEntity
  8
FORMAT
 62
     0
100
AcDbLine
 10
0.0
 20
0.0
 30
0.0
 11
0.0
 21
2.5
 31
0.0
  0
LINE
  5
40E
330
40A
100
AcDbEntity
  8
FORMAT
 62
     0
100
AcDbLine
 10
0.0
 20
0.0
 30
0.0
 11
-2.5
 21
0.0
 31
0.0
  0
LINE
  5
40F
330
40A
100
AcDbEntity
  8
FORMAT
 62
     0
100
AcDbLine
 10
0.0
 20
0.0
 30
0.0
 11
0.0
 21
-2.5
 31
0.0
  0
LINE
  5
410
330
40A
100
AcDbEntity
  8
FORMAT
 62
     0
100
AcDbLine
 10
0.0
 20
0.0
 30
0.0
 11
2.5
 21
0.0
 31
0.0
  0
LINE
  5
411
330
40A
100
AcDbEntity
  8
FORMAT
 62
     0
100
AcDbLine
 10
0.0
 20
5.0
 30
0.0
 11
0.0
 21
12.5
 31
0.0
  0
LINE
  5
412
330
40A
100
AcDbEntity
  8
FORMAT
 62
     0
100
AcDbLine
 10
-5.0
 20
0.0
 30
0.0
 11
-12.5
 21
0.0
 31
0.0
  0
LINE
  5
413
330
40A
100
AcDbEntity
  8
FORMAT
 62
     0
100
AcDbLine
 10
0.0
 20
-5.0
 30
0.0
 11
0.0
 21
-12.5
 31
0.0
  0
LINE
  5
414
330
40A
100
AcDbEntity
  8
FORMAT
 62
     0
100
AcDbLine
 10
5.0
 20
0.0
 30
0.0
 11
12.5
 21
0.0
 31
0.0
  0
ENDBLK
  5
40C
330
40A
100
AcDbEntity
  8
0
100
AcDbBlockEnd
  0
BLOCK
  5
417
330
416
100
AcDbEntity
  8
0
100
AcDbBlockBegin
  2
SW_CENTERMARKSYMBOL_11
 70
     0
 10
0.0
 20
0.0
 30
0.0
  3
SW_CENTERMARKSYMBOL_11
  1

  0
LINE
  5
419
330
416
100
AcDbEntity
  8
FORMAT
 62
     0
100
AcDbLine
 10
0.0
 20
0.0
 30
0.0
 11
0.0
 21
2.5
 31
0.0
  0
LINE
  5
41A
330
416
100
AcDbEntity
  8
FORMAT
 62
     0
100
AcDbLine
 10
0.0
 20
0.0
 30
0.0
 11
-2.5
 21
0.0
 31
0.0
  0
LINE
  5
41B
330
416
100
AcDbEntity
  8
FORMAT
 62
     0
100
AcDbLine
 10
0.0
 20
0.0
 30
0.0
 11
0.0
 21
-2.5
 31
0.0
  0
LINE
  5
41C
330
416
100
AcDbEntity
  8
FORMAT
 62
     0
100
AcDbLine
 10
0.0
 20
0.0
 30
0.0
 11
2.5
 21
0.0
 31
0.0
  0
LINE
  5
41D
330
416
100
AcDbEntity
  8
FORMAT
 62
     0
100
AcDbLine
 10
0.0
 20
5.0
 30
0.0
 11
0.0
 21
12.5
 31
0.0
  0
LINE
  5
41E
330
416
100
AcDbEntity
  8
FORMAT
 62
     0
100
AcDbLine
 10
-5.0
 20
0.0
 30
0.0
 11
-12.5
 21
0.0
 31
0.0
  0
LINE
  5
41F
330
416
100
AcDbEntity
  8
FORMAT
 62
     0
100
AcDbLine
 10
0.0
 20
-5.0
 30
0.0
 11
0.0
 21
-12.5
 31
0.0
  0
LINE
  5
420
330
416
100
AcDbEntity
  8
FORMAT
 62
     0
100
AcDbLine
 10
5.0
 20
0.0
 30
0.0
 11
12.5
 21
0.0
 31
0.0
  0
ENDBLK
  5
418
330
416
100
AcDbEntity
  8
0
100
AcDbBlockEnd
  0
BLOCK
  5
4F1
330
4F0
100
AcDbEntity
  8
0
100
AcDbBlockBegin
  2
_Dot
 70
     0
 10
0.0
 20
0.0
 30
0.0
  3
_Dot
  1

  0
LWPOLYLINE
  5
4F3
330
4F0
100
AcDbEntity
  8
0
  6
ByBlock
 62
     0
100
AcDbPolyline
 90
        2
 70
     1
 43
0.5
 10
-0.25
 20
0.0
 42
1.0
 10
0.25
 20
0.0
 42
1.0
  0
LINE
  5
4F4
330
4F0
100
AcDbEntity
  8
0
  6
ByBlock
 62
     0
370
    -2
100
AcDbLine
 10
-0.5
 20
0.0
 30
0.0
 11
-1.0
 21
0.0
 31
0.0
  0
ENDBLK
  5
4F2
330
4F0
100
AcDbEntity
  8
0
100
AcDbBlockEnd
  0
BLOCK
  5
4F6
330
4F5
100
AcDbEntity
  8
0
100
AcDbBlockBegin
  2
_D_20
 70
     0
 10
0.0
 20
0.0
 30
0.0
  3
_D_20
  1

  0
INSERT
  5
4F8
330
4F5
100
AcDbEntity
  8
FORMAT
100
AcDbBlockReference
  2
_Dot
 10
2441.1382659233
 20
1883.5981027856
 30
0.0
 41
7.112
 42
7.112
 50
180.0
  0
SOLID
  5
4F9
330
4F5
100
AcDbEntity
  8
FORMAT
100
AcDbTrace
 10
2491.1382659233
 20
1883.5981027856
 30
0.0
 11
2468.0242659233
 21
1887.1541027856
 31
0.0
 12
2468.0242659233
 22
1880.0421027856
 32
0.0
 13
2468.0242659233
 23
1880.0421027856
 33
0.0
  0
LINE
  5
4FA
330
4F5
100
AcDbEntity
  8
FORMAT
100
AcDbLine
 10
2441.1382659233
 20
1806.725032345
 30
0.0
 11
2441.1382659233
 21
1890.5981027856
 31
0.0
  0
LINE
  5
4FB
330
4F5
100
AcDbEntity
  8
FORMAT
100
AcDbLine
 10
2441.1382659233
 20
1883.5981027856
 30
0.0
 11
2491.1382659233
 21
1883.5981027856
 31
0.0
  0
LINE
  5
4FC
330
4F5
100
AcDbEntity
  8
FORMAT
100
AcDbLine
 10
2491.1382659233
 20
1883.5981027856
 30
0.0
 11
2606.4342761797
 21
1883.5981027856
 31
0.0
  0
MTEXT
  5
4FD
330
4F5
100
AcDbEntity
  8
FORMAT
100
AcDbMText
 10
2504.2267049116
 20
1907.4727127717
 30
0.0
 40
18.5208333333
 41
0.0
 71
     1
 72
     1
  1
max. +
  7
SLDTEXTSTYLE0
 73
     1
 44
1.0
  0
MTEXT
  5
4FE
330
4F5
100
AcDbEntity
  8
FORMAT
100
AcDbMText
 10
2578.9959969383
 20
1907.4727127717
 30
0.0
 40
18.5208333333
 41
0.0
 71
     1
 72
     1
  1
50
  7
SLDTEXTSTYLE0
 73
     1
 44
1.0
  0
ENDBLK
  5
4F7
330
4F5
100
AcDbEntity
  8
0
100
AcDbBlockEnd
  0
BLOCK
  5
501
330
500
100
AcDbEntity
  8
0
100
AcDbBlockBegin
  2
_D_21
 70
     0
 10
0.0
 20
0.0
 30
0.0
  3
_D_21
  1

  0
INSERT
  5
503
330
500
100
AcDbEntity
  8
FORMAT
100
AcDbBlockReference
  2
_Dot
 10
2441.1382659233
 20
1883.5981027856
 30
0.0
 41
7.112
 42
7.112
 50
0.0
  0
SOLID
  5
504
330
500
100
AcDbEntity
  8
FORMAT
100
AcDbTrace
 10
2411.1382659233
 20
1883.5981027856
 30
0.0
 11
2434.2522659233
 21
1880.0421027856
 31
0.0
 12
2434.2522659233
 22
1887.1541027856
 32
0.0
 13
2434.2522659233
 23
1887.1541027856
 33
0.0
  0
LINE
  5
505
330
500
100
AcDbEntity
  8
FORMAT
100
AcDbLine
 10
2441.1382659233
 20
1806.725032345
 30
0.0
 11
2441.1382659233
 21
1890.5981027856
 31
0.0
  0
LINE
  5
506
330
500
100
AcDbEntity
  8
FORMAT
100
AcDbLine
 10
2441.1382659233
 20
1883.5981027856
 30
0.0
 11
2411.1382659233
 21
1883.5981027856
 31
0.0
  0
LINE
  5
507
330
500
100
AcDbEntity
  8
FORMAT
100
AcDbLine
 10
2411.1382659233
 20
1883.5981027856
 30
0.0
 11
2301.0515883156
 21
1883.5981027856
 31
0.0
  0
MTEXT
  5
508
330
500
100
AcDbEntity
  8
FORMAT
100
AcDbMText
 10
2301.0515883156
 20
1907.4727127717
 30
0.0
 40
18.5208333333
 41
0.0
 71
     1
 72
     1
  1
max. -
  7
SLDTEXTSTYLE0
 73
     1
 44
1.0
  0
MTEXT
  5
509
330
500
100
AcDbEntity
  8
FORMAT
100
AcDbMText
 10
2369.6472668611
 20
1907.4727127717
 30
0.0
 40
18.5208333333
 41
0.0
 71
     1
 72
     1
  1
30
  7
SLDTEXTSTYLE0
 73
     1
 44
1.0
  0
ENDBLK
  5
502
330
500
100
AcDbEntity
  8
0
100
AcDbBlockEnd
  0
BLOCK
  5
50C
330
50B
100
AcDbEntity
  8
0
100
AcDbBlockBegin
  2
_D_22
 70
     0
 10
0.0
 20
0.0
 30
0.0
  3
_D_22
  1

  0
SOLID
  5
50E
330
50B
100
AcDbEntity
  8
FORMAT
100
AcDbTrace
 10
2441.1382659234
 20
1482.2471268994
 30
0.0
 11
2418.0242659234
 21
1485.8031268994
 31
0.0
 12
2418.0242659234
 22
1478.6911268994
 32
0.0
 13
2418.0242659234
 23
1478.6911268994
 33
0.0
  0
SOLID
  5
50F
330
50B
100
AcDbEntity
  8
FORMAT
100
AcDbTrace
 10
2469.138265921
 20
1482.2471268994
 30
0.0
 11
2492.252265921
 21
1478.6911268994
 31
0.0
 12
2492.252265921
 22
1485.8031268994
 32
0.0
 13
2492.252265921
 23
1485.8031268994
 33
0.0
  0
LINE
  5
510
330
50B
100
AcDbEntity
  8
FORMAT
100
AcDbLine
 10
2469.138265921
 20
1562.7250323512
 30
0.0
 11
2469.138265921
 21
1475.2471268994
 31
0.0
  0
LINE
  5
511
330
50B
100
AcDbEntity
  8
FORMAT
100
AcDbLine
 10
2441.1382659234
 20
1482.2471268994
 30
0.0
 11
2396.6882659234
 21
1482.2471268994
 31
0.0
  0
LINE
  5
512
330
50B
100
AcDbEntity
  8
FORMAT
100
AcDbLine
 10
2441.1382659234
 20
1482.2471268994
 30
0.0
 11
2469.138265921
 21
1482.2471268994
 31
0.0
  0
LINE
  5
513
330
50B
100
AcDbEntity
  8
FORMAT
100
AcDbLine
 10
2469.138265921
 20
1482.2471268994
 30
0.0
 11
2532.661508381
 21
1482.2471268994
 31
0.0
  0
MTEXT
  5
514
330
50B
100
AcDbEntity
  8
FORMAT
100
AcDbMText
 10
2495.2309537527
 20
1513.8292881536
 30
0.0
 40
24.5
 41
0.0
 71
     1
 72
     1
  1
28
  7
SLDTEXTSTYLE0
 73
     1
 44
1.0
  0
ENDBLK
  5
50D
330
50B
100
AcDbEntity
  8
0
100
AcDbBlockEnd
  0
BLOCK
  5
517
330
516
100
AcDbEntity
  8
0
100
AcDbBlockBegin
  2
_D_23
 70
     0
 10
0.0
 20
0.0
 30
0.0
  3
_D_23
  1

  0
SOLID
  5
519
330
516
100
AcDbEntity
  8
FORMAT
100
AcDbTrace
 10
2441.1382659234
 20
1413.5574716482
 30
0.0
 11
2464.2522659234
 21
1410.0014716482
 31
0.0
 12
2464.2522659234
 22
1417.1134716482
 32
0.0
 13
2464.2522659234
 23
1417.1134716482
 33
0.0
  0
SOLID
  5
51A
330
516
100
AcDbEntity
  8
FORMAT
100
AcDbTrace
 10
2561.138265923
 20
1413.5574716482
 30
0.0
 11
2538.024265923
 21
1417.1134716482
 31
0.0
 12
2538.024265923
 22
1410.0014716482
 32
0.0
 13
2538.024265923
 23
1410.0014716482
 33
0.0
  0
LINE
  5
51B
330
516
100
AcDbEntity
  8
FORMAT
100
AcDbLine
 10
2561.138265923
 20
1611.225032345
 30
0.0
 11
2561.138265923
 21
1406.5574716482
 31
0.0
  0
LINE
  5
51C
330
516
100
AcDbEntity
  8
FORMAT
100
AcDbLine
 10
2441.1382659234
 20
1413.5574716482
 30
0.0
 11
2561.138265923
 21
1413.5574716482
 31
0.0
  0
MTEXT
  5
51D
330
516
100
AcDbEntity
  8
FORMAT
100
AcDbMText
 10
2473.0653499519
 20
1445.1396329024
 30
0.0
 40
24.5
 41
0.0
 71
     1
 72
     1
  1
120
  7
SLDTEXTSTYLE0
 73
     1
 44
1.0
  0
ENDBLK
  5
518
330
516
100
AcDbEntity
  8
0
100
AcDbBlockEnd
  0
BLOCK
  5
520
330
51F
100
AcDbEntity
  8
0
100
AcDbBlockBegin
  2
_D_24
 70
     0
 10
0.0
 20
0.0
 30
0.0
  3
_D_24
  1

  0
SOLID
  5
522
330
51F
100
AcDbEntity
  8
FORMAT
100
AcDbTrace
 10
2636.1109349066
 20
1569.2250323512
 30
0.0
 11
2639.6669349066
 21
1592.3390323512
 31
0.0
 12
2632.5549349066
 22
1592.3390323512
 32
0.0
 13
2632.5549349066
 23
1592.3390323512
 33
0.0
  0
SOLID
  5
523
330
51F
100
AcDbEntity
  8
FORMAT
100
AcDbTrace
 10
2636.1109349066
 20
1708.225032345
 30
0.0
 11
2632.5549349066
 21
1685.111032345
 31
0.0
 12
2639.6669349066
 22
1685.111032345
 32
0.0
 13
2639.6669349066
 23
1685.111032345
 33
0.0
  0
LINE
  5
524
330
51F
100
AcDbEntity
  8
FORMAT
100
AcDbLine
 10
2475.638265921
 20
1569.2250323512
 30
0.0
 11
2643.1109349066
 21
1569.2250323512
 31
0.0
  0
LINE
  5
525
330
51F
100
AcDbEntity
  8
FORMAT
100
AcDbLine
 10
2563.138265923
 20
1708.225032345
 30
0.0
 11
2643.1109349066
 21
1708.225032345
 31
0.0
  0
LINE
  5
526
330
51F
100
AcDbEntity
  8
FORMAT
100
AcDbLine
 10
2636.1109349066
 20
1569.2250323512
 30
0.0
 11
2636.1109349066
 21
1708.225032345
 31
0.0
  0
MTEXT
  5
527
330
51F
100
AcDbEntity
  8
FORMAT
100
AcDbMText
 10
2604.5287736524
 20
1610.6521163768
 30
0.0
 40
24.5
 41
0.0
 71
     1
 72
     1
  1
139
  7
SLDTEXTSTYLE0
 11
1.837589179357618E-15
 21
1.0
 31
0.0
 73
     1
 44
1.0
  0
ENDBLK
  5
521
330
51F
100
AcDbEntity
  8
0
100
AcDbBlockEnd
  0
BLOCK
  5
52A
330
529
100
AcDbEntity
  8
0
100
AcDbBlockBegin
  2
_D_25
 70
     0
 10
0.0
 20
0.0
 30
0.0
  3
_D_25
  1

  0
SOLID
  5
52C
330
529
100
AcDbEntity
  8
FORMAT
100
AcDbTrace
 10
2323.9672542394
 20
1599.725032345
 30
0.0
 11
2327.5232542394
 21
1622.839032345
 31
0.0
 12
2320.4112542394
 22
1622.839032345
 32
0.0
 13
2320.4112542394
 23
1622.839032345
 33
0.0
  0
SOLID
  5
52D
330
529
100
AcDbEntity
  8
FORMAT
100
AcDbTrace
 10
2323.9672542394
 20
1709.225032345
 30
0.0
 11
2320.4112542394
 21
1686.111032345
 31
0.0
 12
2327.5232542394
 22
1686.111032345
 32
0.0
 13
2327.5232542394
 23
1686.111032345
 33
0.0
  0
LINE
  5
52E
330
529
100
AcDbEntity
  8
FORMAT
100
AcDbLine
 10
2404.1382659234
 20
1599.725032345
 30
0.0
 11
2316.9672542394
 21
1599.725032345
 31
0.0
  0
LINE
  5
52F
330
529
100
AcDbEntity
  8
FORMAT
100
AcDbLine
 10
2435.138265923
 20
1709.225032345
 30
0.0
 11
2316.9672542394
 21
1709.225032345
 31
0.0
  0
LINE
  5
530
330
529
100
AcDbEntity
  8
FORMAT
100
AcDbLine
 10
2323.9672542394
 20
1599.725032345
 30
0.0
 11
2323.9672542394
 21
1709.225032345
 31
0.0
  0
MTEXT
  5
531
330
529
100
AcDbEntity
  8
FORMAT
100
AcDbMText
 10
2292.3850929852
 20
1612.365658388
 30
0.0
 40
24.5
 41
0.0
 71
     1
 72
     1
  1
109,5
  7
SLDTEXTSTYLE0
 11
1.094141798128390E-14
 21
1.0
 31
0.0
 73
     1
 44
1.0
  0
ENDBLK
  5
52B
330
529
100
AcDbEntity
  8
0
100
AcDbBlockEnd
  0
BLOCK
  5
617
330
616
100
AcDbEntity
  8
0
100
AcDbBlockBegin
  2
_D_26
 70
     0
 10
0.0
 20
0.0
 30
0.0
  3
_D_26
  1

  0
ARC
  5
619
330
616
100
AcDbEntity
  8
FORMAT
100
AcDbCircle
 10
2387.5319889657
 20
549.2756209558
 30
0.0
 40
42.03885414329039
100
AcDbArc
 50
153.4349488229
 51
206.5650511771
  0
ARC
  5
61A
330
616
100
AcDbEntity
  8
FORMAT
100
AcDbCircle
 10
2349.7611551456
 20
549.2756209558
 30
0.0
 40
42.03885414329039
100
AcDbArc
 50
333.4349488229
 51
26.5650511771
  0
SOLID
  5
61B
330
616
100
AcDbEntity
  8
FORMAT
100
AcDbTrace
 10
2279.3461000638
 20
530.4752738437
 30
0.0
 11
2256.2321000638
 21
534.0312738437
 31
0.0
 12
2256.2321000638
 22
526.9192738437
 32
0.0
 13
2256.2321000638
 23
526.9192738437
 33
0.0
  0
SOLID
  5
61C
330
616
100
AcDbEntity
  8
FORMAT
100
AcDbTrace
 10
2318.5461000605
 20
530.4752738437
 30
0.0
 11
2341.6601000605
 21
526.9192738437
 31
0.0
 12
2341.6601000605
 22
534.0312738437
 32
0.0
 13
2341.6601000605
 23
534.0312738437
 33
0.0
  0
LINE
  5
61D
330
616
100
AcDbEntity
  8
FORMAT
100
AcDbLine
 10
2279.3461000638
 20
603.6868097325
 30
0.0
 11
2279.3461000638
 21
523.4752738437
 31
0.0
  0
LINE
  5
61E
330
616
100
AcDbEntity
  8
FORMAT
100
AcDbLine
 10
2318.5461000605
 20
662.9908707875
 30
0.0
 11
2318.5461000605
 21
523.4752738437
 31
0.0
  0
LINE
  5
61F
330
616
100
AcDbEntity
  8
FORMAT
100
AcDbLine
 10
2279.3461000638
 20
530.4752738437
 30
0.0
 11
2234.8961000638
 21
530.4752738437
 31
0.0
  0
LINE
  5
620
330
616
100
AcDbEntity
  8
FORMAT
100
AcDbLine
 10
2279.3461000638
 20
530.4752738437
 30
0.0
 11
2318.5461000605
 21
530.4752738437
 31
0.0
  0
LINE
  5
621
330
616
100
AcDbEntity
  8
FORMAT
100
AcDbLine
 10
2318.5461000605
 20
530.4752738437
 30
0.0
 11
2391.8000078438
 21
530.4752738437
 31
0.0
  0
MTEXT
  5
622
330
616
100
AcDbEntity
  8
FORMAT
100
AcDbMText
 10
2349.9312947415
 20
562.0574350979
 30
0.0
 40
24.5
 41
0.0
 71
     1
 72
     1
  1
28
  7
SLDTEXTSTYLE0
 73
     1
 44
1.0
  0
ENDBLK
  5
618
330
616
100
AcDbEntity
  8
0
100
AcDbBlockEnd
  0
BLOCK
  5
625
330
624
100
AcDbEntity
  8
0
100
AcDbBlockBegin
  2
_D_27
 70
     0
 10
0.0
 20
0.0
 30
0.0
  3
_D_27
  1

  0
ARC
  5
627
330
624
100
AcDbEntity
  8
FORMAT
100
AcDbCircle
 10
2427.5718793112
 20
623.4801650378
 30
0.0
 40
42.03885414329069
100
AcDbArc
 50
243.4349488229
 51
296.5650511771
  0
ARC
  5
628
330
624
100
AcDbEntity
  8
FORMAT
100
AcDbCircle
 10
2427.5718793112
 20
585.7093312177
 30
0.0
 40
42.03885414329039
100
AcDbArc
 50
63.4349488229
 51
116.5650511771
  0
SOLID
  5
629
330
624
100
AcDbEntity
  8
FORMAT
100
AcDbTrace
 10
2446.3722264233
 20
669.2908707875
 30
0.0
 11
2442.8162264233
 21
646.1768707875
 31
0.0
 12
2449.9282264233
 22
646.1768707875
 32
0.0
 13
2449.9282264233
 23
646.1768707875
 33
0.0
  0
SOLID
  5
62A
330
624
100
AcDbEntity
  8
FORMAT
100
AcDbTrace
 10
2446.3722264233
 20
693.0908707875
 30
0.0
 11
2449.9282264233
 21
716.2048707875
 31
0.0
 12
2442.8162264233
 22
716.2048707875
 32
0.0
 13
2442.8162264233
 23
716.2048707875
 33
0.0
  0
LINE
  5
62B
330
624
100
AcDbEntity
  8
FORMAT
100
AcDbLine
 10
2324.8461000605
 20
669.2908707875
 30
0.0
 11
2453.3722264233
 21
669.2908707875
 31
0.0
  0
LINE
  5
62C
330
624
100
AcDbEntity
  8
FORMAT
100
AcDbLine
 10
2324.8461000605
 20
693.0908707875
 30
0.0
 11
2453.3722264233
 21
693.0908707875
 31
0.0
  0
LINE
  5
62D
330
624
100
AcDbEntity
  8
FORMAT
100
AcDbLine
 10
2446.3722264233
 20
669.2908707875
 30
0.0
 11
2446.3722264233
 21
581.4413107098
 31
0.0
  0
LINE
  5
62E
330
624
100
AcDbEntity
  8
FORMAT
100
AcDbLine
 10
2446.3722264233
 20
669.2908707875
 30
0.0
 11
2446.3722264233
 21
693.0908707875
 31
0.0
  0
LINE
  5
62F
330
624
100
AcDbEntity
  8
FORMAT
100
AcDbLine
 10
2446.3722264233
 20
693.0908707875
 30
0.0
 11
2446.3722264233
 21
737.5408707875
 31
0.0
  0
MTEXT
  5
630
330
624
100
AcDbEntity
  8
FORMAT
100
AcDbMText
 10
2414.7900651691
 20
585.8794708136
 30
0.0
 40
24.5
 41
0.0
 71
     1
 72
     1
  1
17
  7
SLDTEXTSTYLE0
 11
-1.191767205047844E-13
 21
1.0
 31
0.0
 73
     1
 44
1.0
  0
ENDBLK
  5
626
330
624
100
AcDbEntity
  8
0
100
AcDbBlockEnd
  0
BLOCK
  5
633
330
632
100
AcDbEntity
  8
0
100
AcDbBlockBegin
  2
_D_28
 70
     0
 10
0.0
 20
0.0
 30
0.0
  3
_D_28
  1

  0
SOLID
  5
635
330
632
100
AcDbEntity
  8
FORMAT
100
AcDbTrace
 10
2489.2929792597
 20
693.0908707875
 30
0.0
 11
2485.7369792597
 21
669.9768707875
 31
0.0
 12
2492.8489792597
 22
669.9768707875
 32
0.0
 13
2492.8489792597
 23
669.9768707875
 33
0.0
  0
SOLID
  5
636
330
632
100
AcDbEntity
  8
FORMAT
100
AcDbTrace
 10
2489.2929792597
 20
696.590870773
 30
0.0
 11
2492.8489792597
 21
719.704870773
 31
0.0
 12
2485.7369792597
 22
719.704870773
 32
0.0
 13
2485.7369792597
 23
719.704870773
 33
0.0
  0
LINE
  5
637
330
632
100
AcDbEntity
  8
FORMAT
100
AcDbLine
 10
2324.8461000605
 20
693.0908707875
 30
0.0
 11
2496.2929792597
 21
693.0908707875
 31
0.0
  0
LINE
  5
638
330
632
100
AcDbEntity
  8
FORMAT
100
AcDbLine
 10
2350.8804260594
 20
696.590870773
 30
0.0
 11
2496.2929792597
 21
696.590870773
 31
0.0
  0
LINE
  5
639
330
632
100
AcDbEntity
  8
FORMAT
100
AcDbLine
 10
2489.2929792597
 20
693.0908707875
 30
0.0
 11
2489.2929792597
 21
581.2006503551
 31
0.0
  0
LINE
  5
63A
330
632
100
AcDbEntity
  8
FORMAT
100
AcDbLine
 10
2489.2929792597
 20
693.0908707875
 30
0.0
 11
2489.2929792597
 21
696.590870773
 31
0.0
  0
LINE
  5
63B
330
632
100
AcDbEntity
  8
FORMAT
100
AcDbLine
 10
2489.2929792597
 20
696.590870773
 30
0.0
 11
2489.2929792597
 21
741.040870773
 31
0.0
  0
MTEXT
  5
63C
330
632
100
AcDbEntity
  8
FORMAT
100
AcDbMText
 10
2457.7108180055
 20
581.2006503551
 30
0.0
 40
24.5
 41
0.0
 71
     1
 72
     1
  1
2,5
  7
SLDTEXTSTYLE0
 11
-8.431571753155453E-14
 21
1.0
 31
0.0
 73
     1
 44
1.0
  0
ENDBLK
  5
634
330
632
100
AcDbEntity
  8
0
100
AcDbBlockEnd
  0
BLOCK
  5
63F
330
63E
100
AcDbEntity
  8
0
100
AcDbBlockBegin
  2
_D_29
 70
     0
 10
0.0
 20
0.0
 30
0.0
  3
_D_29
  1

  0
SOLID
  5
641
330
63E
100
AcDbEntity
  8
FORMAT
100
AcDbTrace
 10
2552.4666082367
 20
696.590870773
 30
0.0
 11
2548.9106082367
 21
673.476870773
 31
0.0
 12
2556.0226082367
 22
673.476870773
 32
0.0
 13
2556.0226082367
 23
673.476870773
 33
0.0
  0
SOLID
  5
642
330
63E
100
AcDbEntity
  8
FORMAT
100
AcDbTrace
 10
2552.4666082367
 20
730.8908707728
 30
0.0
 11
2556.0226082367
 21
754.0048707728
 31
0.0
 12
2548.9106082367
 22
754.0048707728
 32
0.0
 13
2548.9106082367
 23
754.0048707728
 33
0.0
  0
LINE
  5
643
330
63E
100
AcDbEntity
  8
FORMAT
100
AcDbLine
 10
2389.9461000634
 20
696.590870773
 30
0.0
 11
2559.4666082367
 21
696.590870773
 31
0.0
  0
LINE
  5
644
330
63E
100
AcDbEntity
  8
FORMAT
100
AcDbLine
 10
2447.3461000633
 20
730.8908707728
 30
0.0
 11
2559.4666082367
 21
730.8908707728
 31
0.0
  0
LINE
  5
645
330
63E
100
AcDbEntity
  8
FORMAT
100
AcDbLine
 10
2552.4666082367
 20
696.590870773
 30
0.0
 11
2552.4666082367
 21
652.140870773
 31
0.0
  0
LINE
  5
646
330
63E
100
AcDbEntity
  8
FORMAT
100
AcDbLine
 10
2552.4666082367
 20
696.590870773
 30
0.0
 11
2552.4666082367
 21
730.8908707728
 31
0.0
  0
LINE
  5
647
330
63E
100
AcDbEntity
  8
FORMAT
100
AcDbLine
 10
2552.4666082367
 20
730.8908707728
 30
0.0
 11
2552.4666082367
 21
828.6033668231
 31
0.0
  0
MTEXT
  5
648
330
63E
100
AcDbEntity
  8
FORMAT
100
AcDbMText
 10
2520.8844469824
 20
763.0998962235
 30
0.0
 40
24.5
 41
0.0
 71
     1
 72
     1
  1
24,5
  7
SLDTEXTSTYLE0
 11
3.835990623682900E-15
 21
1.0
 31
0.0
 73
     1
 44
1.0
  0
ENDBLK
  5
640
330
63E
100
AcDbEntity
  8
0
100
AcDbBlockEnd
  0
BLOCK
  5
64C
330
64B
100
AcDbEntity
  8
0
100
AcDbBlockBegin
  2
_D_30
 70
     0
 10
0.0
 20
0.0
 30
0.0
  3
_D_30
  1

  0
SOLID
  5
64E
330
64B
100
AcDbEntity
  8
FORMAT
100
AcDbTrace
 10
2155.7991095296
 20
706.3908707728
 30
0.0
 11
2152.2431095296
 21
683.2768707728
 31
0.0
 12
2159.3551095296
 22
683.2768707728
 32
0.0
 13
2159.3551095296
 23
683.2768707728
 33
0.0
  0
SOLID
  5
64F
330
64B
100
AcDbEntity
  8
FORMAT
100
AcDbTrace
 10
2155.7991095296
 20
711.9908707727
 30
0.0
 11
2159.3551095296
 21
735.1048707727
 31
0.0
 12
2152.2431095296
 22
735.1048707727
 32
0.0
 13
2152.2431095296
 23
735.1048707727
 33
0.0
  0
LINE
  5
650
330
64B
100
AcDbEntity
  8
FORMAT
100
AcDbLine
 10
2276.9605556606
 20
706.3908707728
 30
0.0
 11
2148.7991095296
 21
706.3908707728
 31
0.0
  0
LINE
  5
651
330
64B
100
AcDbEntity
  8
FORMAT
100
AcDbLine
 10
2230.3461000638
 20
711.9908707727
 30
0.0
 11
2148.7991095296
 21
711.9908707727
 31
0.0
  0
LINE
  5
652
330
64B
100
AcDbEntity
  8
FORMAT
100
AcDbLine
 10
2155.7991095296
 20
706.3908707728
 30
0.0
 11
2155.7991095296
 21
645.983756501
 31
0.0
  0
LINE
  5
653
330
64B
100
AcDbEntity
  8
FORMAT
100
AcDbLine
 10
2155.7991095296
 20
706.3908707728
 30
0.0
 11
2155.7991095296
 21
711.9908707727
 31
0.0
  0
LINE
  5
654
330
64B
100
AcDbEntity
  8
FORMAT
100
AcDbLine
 10
2155.7991095296
 20
711.9908707727
 30
0.0
 11
2155.7991095296
 21
756.4408707727
 31
0.0
  0
MTEXT
  5
655
330
64B
100
AcDbEntity
  8
FORMAT
100
AcDbMText
 10
2124.2169482754
 20
645.983756501
 30
0.0
 40
24.5
 41
0.0
 71
     1
 72
     1
  1
4
  7
SLDTEXTSTYLE0
 11
6.123233995736766E-17
 21
1.0
 31
0.0
 73
     1
 44
1.0
  0
MTEXT
  5
656
330
64B
100
AcDbEntity
  8
FORMAT
100
AcDbMText
 10
2124.2169482754
 20
664.6990338152
 30
0.0
 40
24.5
 41
0.0
 71
     1
 72
     1
  1
*
  7
SLDTEXTSTYLE0
 11
6.123233995736766E-17
 21
1.0
 31
0.0
 73
     1
 44
1.0
  0
ENDBLK
  5
64D
330
64B
100
AcDbEntity
  8
0
100
AcDbBlockEnd
  0
BLOCK
  5
65A
330
659
100
AcDbEntity
  8
0
100
AcDbBlockBegin
  2
_D_31
 70
     0
 10
0.0
 20
0.0
 30
0.0
  3
_D_31
  1

  0
INSERT
  5
65C
330
659
100
AcDbEntity
  8
FORMAT
100
AcDbBlockReference
  2
_Dot
 10
2083.0992170866
 20
711.9908707727
 30
996.9911912999
 41
7.112
 42
7.112
 50
90.0
  0
SOLID
  5
65D
330
659
100
AcDbEntity
  8
FORMAT
100
AcDbTrace
 10
2083.0992170866
 20
730.8908707728
 30
0.0
 11
2086.6552170866
 21
754.0048707728
 31
0.0
 12
2079.5432170866
 22
754.0048707728
 32
0.0
 13
2079.5432170866
 23
754.0048707728
 33
0.0
  0
LINE
  5
65E
330
659
100
AcDbEntity
  8
FORMAT
100
AcDbLine
 10
2230.3461000638
 20
711.9908707727
 30
0.0
 11
2076.0992170866
 21
711.9908707727
 31
0.0
  0
LINE
  5
65F
330
659
100
AcDbEntity
  8
FORMAT
100
AcDbLine
 10
2272.3461000633
 20
730.8908707728
 30
0.0
 11
2076.0992170866
 21
730.8908707728
 31
0.0
  0
LINE
  5
660
330
659
100
AcDbEntity
  8
FORMAT
100
AcDbLine
 10
2083.0992170866
 20
711.9908707727
 30
0.0
 11
2083.0992170866
 21
667.5408707727
 31
0.0
  0
LINE
  5
661
330
659
100
AcDbEntity
  8
FORMAT
100
AcDbLine
 10
2083.0992170866
 20
711.9908707727
 30
0.0
 11
2083.0992170866
 21
730.8908707728
 31
0.0
  0
LINE
  5
662
330
659
100
AcDbEntity
  8
FORMAT
100
AcDbLine
 10
2083.0992170866
 20
730.8908707728
 30
0.0
 11
2083.0992170866
 21
821.835335158
 31
0.0
  0
MTEXT
  5
663
330
659
100
AcDbEntity
  8
FORMAT
100
AcDbMText
 10
2051.5170558324
 20
756.3318645583
 30
0.0
 40
24.5
 41
0.0
 71
     1
 72
     1
  1
13,5
  7
SLDTEXTSTYLE0
 11
3.835990623682900E-15
 21
1.0
 31
0.0
 73
     1
 44
1.0
  0
ENDBLK
  5
65B
330
659
100
AcDbEntity
  8
0
100
AcDbBlockEnd
  0
BLOCK
  5
666
330
665
100
AcDbEntity
  8
0
100
AcDbBlockBegin
  2
_D_32
 70
     0
 10
0.0
 20
0.0
 30
0.0
  3
_D_32
  1

  0
INSERT
  5
668
330
665
100
AcDbEntity
  8
FORMAT
100
AcDbBlockReference
  2
_Dot
 10
2083.0992170866
 20
711.9908707727
 30
996.9911912999
 41
7.112
 42
7.112
 50
270.0
  0
SOLID
  5
669
330
665
100
AcDbEntity
  8
FORMAT
100
AcDbTrace
 10
2083.0992170866
 20
693.0908707875
 30
0.0
 11
2079.5432170866
 21
669.9768707875
 31
0.0
 12
2086.6552170866
 22
669.9768707875
 32
0.0
 13
2086.6552170866
 23
669.9768707875
 33
0.0
  0
LINE
  5
66A
330
665
100
AcDbEntity
  8
FORMAT
100
AcDbLine
 10
2230.3461000638
 20
711.9908707727
 30
0.0
 11
2076.0992170866
 21
711.9908707727
 31
0.0
  0
LINE
  5
66B
330
665
100
AcDbEntity
  8
FORMAT
100
AcDbLine
 10
2273.0461000605
 20
693.0908707875
 30
0.0
 11
2076.0992170866
 21
693.0908707875
 31
0.0
  0
LINE
  5
66C
330
665
100
AcDbEntity
  8
FORMAT
100
AcDbLine
 10
2083.0992170866
 20
711.9908707727
 30
0.0
 11
2083.0992170866
 21
756.4408707727
 31
0.0
  0
LINE
  5
66D
330
665
100
AcDbEntity
  8
FORMAT
100
AcDbLine
 10
2083.0992170866
 20
711.9908707727
 30
0.0
 11
2083.0992170866
 21
693.0908707875
 31
0.0
  0
LINE
  5
66E
330
665
100
AcDbEntity
  8
FORMAT
100
AcDbLine
 10
2083.0992170866
 20
693.0908707875
 30
0.0
 11
2083.0992170866
 21
597.9717366793
 31
0.0
  0
MTEXT
  5
66F
330
665
100
AcDbEntity
  8
FORMAT
100
AcDbMText
 10
2051.5170558324
 20
597.9717366793
 30
0.0
 40
24.5
 41
0.0
 71
     1
 72
     1
  1
13,5
  7
SLDTEXTSTYLE0
 11
-7.044195017643634E-15
 21
1.0
 31
0.0
 73
     1
 44
1.0
  0
ENDBLK
  5
667
330
665
100
AcDbEntity
  8
0
100
AcDbBlockEnd
  0
BLOCK
  5
694
330
693
100
AcDbEntity
  8
0
100
AcDbBlockBegin
  2
_D_33
 70
     0
 10
0.0
 20
0.0
 30
0.0
  3
_D_33
  1

  0
SOLID
  5
696
330
693
100
AcDbEntity
  8
FORMAT
100
AcDbTrace
 10
1742.9238947362
 20
251.7397353436
 30
0.0
 11
1739.3678947362
 21
228.6257353436
 31
0.0
 12
1746.4798947362
 22
228.6257353436
 32
0.0
 13
1746.4798947362
 23
228.6257353436
 33
0.0
  0
SOLID
  5
697
330
693
100
AcDbEntity
  8
FORMAT
100
AcDbTrace
 10
1742.9238947362
 20
262.2397353436
 30
0.0
 11
1746.4798947362
 21
285.3537353436
 31
0.0
 12
1739.3678947362
 22
285.3537353436
 32
0.0
 13
1739.3678947362
 23
285.3537353436
 33
0.0
  0
LINE
  5
698
330
693
100
AcDbEntity
  8
FORMAT
100
AcDbLine
 10
1783.5116124286
 20
251.7397353436
 30
0.0
 11
1735.9238947362
 21
251.7397353436
 31
0.0
  0
LINE
  5
699
330
693
100
AcDbEntity
  8
FORMAT
100
AcDbLine
 10
1835.4008067264
 20
262.2397353436
 30
0.0
 11
1735.9238947362
 21
262.2397353436
 31
0.0
  0
LINE
  5
69A
330
693
100
AcDbEntity
  8
FORMAT
100
AcDbLine
 10
1742.9238947362
 20
251.7397353436
 30
0.0
 11
1742.9238947362
 21
177.3202034299
 31
0.0
  0
LINE
  5
69B
330
693
100
AcDbEntity
  8
FORMAT
100
AcDbLine
 10
1742.9238947362
 20
251.7397353436
 30
0.0
 11
1742.9238947362
 21
262.2397353436
 31
0.0
  0
LINE
  5
69C
330
693
100
AcDbEntity
  8
FORMAT
100
AcDbLine
 10
1742.9238947362
 20
262.2397353436
 30
0.0
 11
1742.9238947362
 21
306.6897353436
 31
0.0
  0
MTEXT
  5
69D
330
693
100
AcDbEntity
  8
FORMAT
100
AcDbMText
 10
1711.341733482
 20
177.3202034299
 30
0.0
 40
24.5
 41
0.0
 71
     1
 72
     1
  1
7,5
  7
SLDTEXTSTYLE0
 11
2.832769448823990E-16
 21
1.0
 31
0.0
 73
     1
 44
1.0
  0
ENDBLK
  5
695
330
693
100
AcDbEntity
  8
0
100
AcDbBlockEnd
  0
BLOCK
  5
6A1
330
6A0
100
AcDbEntity
  8
0
100
AcDbBlockBegin
  2
_D_34
 70
     0
 10
0.0
 20
0.0
 30
0.0
  3
_D_34
  1

  0
SOLID
  5
6A3
330
6A0
100
AcDbEntity
  8
FORMAT
100
AcDbTrace
 10
1695.8996349458
 20
262.2397353436
 30
0.0
 11
1699.4556349458
 21
285.3537353436
 31
0.0
 12
1692.3436349458
 22
285.3537353436
 32
0.0
 13
1692.3436349458
 23
285.3537353436
 33
0.0
  0
SOLID
  5
6A4
330
6A0
100
AcDbEntity
  8
FORMAT
100
AcDbTrace
 10
1695.8996349458
 20
368.6397353436
 30
0.0
 11
1692.3436349458
 21
345.5257353436
 31
0.0
 12
1699.4556349458
 22
345.5257353436
 32
0.0
 13
1699.4556349458
 23
345.5257353436
 33
0.0
  0
LINE
  5
6A5
330
6A0
100
AcDbEntity
  8
FORMAT
100
AcDbLine
 10
1835.4008067264
 20
262.2397353436
 30
0.0
 11
1688.8996349458
 21
262.2397353436
 31
0.0
  0
LINE
  5
6A6
330
6A0
100
AcDbEntity
  8
FORMAT
100
AcDbLine
 10
1827.3508067264
 20
368.6397353436
 30
0.0
 11
1688.8996349458
 21
368.6397353436
 31
0.0
  0
LINE
  5
6A7
330
6A0
100
AcDbEntity
  8
FORMAT
100
AcDbLine
 10
1695.8996349458
 20
262.2397353436
 30
0.0
 11
1695.8996349458
 21
368.6397353436
 31
0.0
  0
MTEXT
  5
6A8
330
6A0
100
AcDbEntity
  8
FORMAT
100
AcDbMText
 10
1664.3174736916
 20
296.7244580294
 30
0.0
 40
24.5
 41
0.0
 71
     1
 72
     1
  1
76
  7
SLDTEXTSTYLE0
 11
6.123233995736766E-17
 21
1.0
 31
0.0
 73
     1
 44
1.0
  0
ENDBLK
  5
6A2
330
6A0
100
AcDbEntity
  8
0
100
AcDbBlockEnd
  0
BLOCK
  5
6AB
330
6AA
100
AcDbEntity
  8
0
100
AcDbBlockBegin
  2
SW_CENTERMARKSYMBOL_12
 70
     0
 10
0.0
 20
0.0
 30
0.0
  3
SW_CENTERMARKSYMBOL_12
  1

  0
LINE
  5
6AD
330
6AA
100
AcDbEntity
  8
FORMAT
 62
     0
100
AcDbLine
 10
0.0
 20
0.0
 30
0.0
 11
0.0
 21
3.4999966621
 31
0.0
  0
LINE
  5
6AE
330
6AA
100
AcDbEntity
  8
FORMAT
 62
     0
100
AcDbLine
 10
0.0
 20
0.0
 30
0.0
 11
-3.4999966621
 21
0.0
 31
0.0
  0
LINE
  5
6AF
330
6AA
100
AcDbEntity
  8
FORMAT
 62
     0
100
AcDbLine
 10
0.0
 20
0.0
 30
0.0
 11
0.0
 21
-3.4999966621
 31
0.0
  0
LINE
  5
6B0
330
6AA
100
AcDbEntity
  8
FORMAT
 62
     0
100
AcDbLine
 10
0.0
 20
0.0
 30
0.0
 11
3.4999966621
 21
0.0
 31
0.0
  0
LINE
  5
6B1
330
6AA
100
AcDbEntity
  8
FORMAT
 62
     0
100
AcDbLine
 10
0.0
 20
7.0000037551
 30
0.0
 11
0.0
 21
8.0500006676
 31
0.0
  0
LINE
  5
6B2
330
6AA
100
AcDbEntity
  8
FORMAT
 62
     0
100
AcDbLine
 10
-6.9999933243
 20
0.0
 30
0.0
 11
-8.0500006676
 21
0.0
 31
0.0
  0
LINE
  5
6B3
330
6AA
100
AcDbEntity
  8
FORMAT
 62
     0
100
AcDbLine
 10
0.0
 20
-6.9999933243
 30
0.0
 11
0.0
 21
-8.0500006676
 31
0.0
  0
LINE
  5
6B4
330
6AA
100
AcDbEntity
  8
FORMAT
 62
     0
100
AcDbLine
 10
6.9999933243
 20
0.0
 30
0.0
 11
8.0500006676
 21
0.0
 31
0.0
  0
ENDBLK
  5
6AC
330
6AA
100
AcDbEntity
  8
0
100
AcDbBlockEnd
  0
BLOCK
  5
6B7
330
6B6
100
AcDbEntity
  8
0
100
AcDbBlockBegin
  2
SW_CENTERMARKSYMBOL_13
 70
     0
 10
0.0
 20
0.0
 30
0.0
  3
SW_CENTERMARKSYMBOL_13
  1

  0
LINE
  5
6B9
330
6B6
100
AcDbEntity
  8
FORMAT
 62
     0
100
AcDbLine
 10
0.0
 20
0.0
 30
0.0
 11
0.0
 21
3.4999966621
 31
0.0
  0
LINE
  5
6BA
330
6B6
100
AcDbEntity
  8
FORMAT
 62
     0
100
AcDbLine
 10
0.0
 20
0.0
 30
0.0
 11
-3.4999966621
 21
0.0
 31
0.0
  0
LINE
  5
6BB
330
6B6
100
AcDbEntity
  8
FORMAT
 62
     0
100
AcDbLine
 10
0.0
 20
0.0
 30
0.0
 11
0.0
 21
-3.4999966621
 31
0.0
  0
LINE
  5
6BC
330
6B6
100
AcDbEntity
  8
FORMAT
 62
     0
100
AcDbLine
 10
0.0
 20
0.0
 30
0.0
 11
3.4999966621
 21
0.0
 31
0.0
  0
LINE
  5
6BD
330
6B6
100
AcDbEntity
  8
FORMAT
 62
     0
100
AcDbLine
 10
0.0
 20
6.9999933243
 30
0.0
 11
0.0
 21
8.0500006676
 31
0.0
  0
LINE
  5
6BE
330
6B6
100
AcDbEntity
  8
FORMAT
 62
     0
100
AcDbLine
 10
-6.9999933243
 20
0.0
 30
0.0
 11
-8.0500006676
 21
0.0
 31
0.0
  0
LINE
  5
6BF
330
6B6
100
AcDbEntity
  8
FORMAT
 62
     0
100
AcDbLine
 10
0.0
 20
-7.0000141859
 30
0.0
 11
0.0
 21
-8.0500006676
 31
0.0
  0
LINE
  5
6C0
330
6B6
100
AcDbEntity
  8
FORMAT
 62
     0
100
AcDbLine
 10
6.9999933243
 20
0.0
 30
0.0
 11
8.0500006676
 21
0.0
 31
0.0
  0
ENDBLK
  5
6B8
330
6B6
100
AcDbEntity
  8
0
100
AcDbBlockEnd
  0
ENDSEC
  0
SECTION
  2
ENTITIES
  0
LINE
  5
CA
330
1F
100
AcDbEntity
  8
FORMAT
  6
Continuous
 62
     7
370
    18
100
AcDbLine
 10
2648.7467156628
 20
249.0548071362
 30
0.0
 11
2121.8704816337
 21
249.0548071362
 31
0.0
  0
LINE
  5
CB
330
1F
100
AcDbEntity
  8
FORMAT
  6
Continuous
 62
     7
370
    18
100
AcDbLine
 10
2648.7467156628
 20
341.1944719343
 30
0.0
 11
2869.6070185003
 21
341.1944719343
 31
0.0
  0
LINE
  5
CC
330
1F
100
AcDbEntity
  8
0
  6
Continuous
 62
     7
370
    18
100
AcDbLine
 10
2552.9704263625
 20
249.0548071362
 30
0.0
 11
2552.9704263625
 21
181.3583509723
 31
0.0
  0
LINE
  5
CD
330
1F
100
AcDbEntity
  8
FORMAT
100
AcDbLine
 10
2869.6070185003
 20
2009.0
 30
0.0
 11
69.6070185003
 21
2009.0
 31
0.0
  0
LINE
  5
CE
330
1F
100
AcDbEntity
  8
FORMAT
100
AcDbLine
 10
69.6070185003
 20
2009.0
 30
0.0
 11
69.6070185003
 21
70.0
 31
0.0
  0
LINE
  5
CF
330
1F
100
AcDbEntity
  8
BEMASSUNG
  6
Continuous
 62
     7
370
    18
100
AcDbLine
 10
2648.7467156628
 20
283.9466531596
 30
0.0
 11
2869.6070185003
 21
283.9466531596
 31
0.0
  0
LINE
  5
D0
330
1F
100
AcDbEntity
  8
FORMAT
100
AcDbLine
 10
69.6070185003
 20
70.0
 30
0.0
 11
2869.6070185003
 21
70.0
 31
0.0
  0
LINE
  5
D1
330
1F
100
AcDbEntity
  8
FORMAT
100
AcDbLine
 10
2869.6070185003
 20
70.0
 30
0.0
 11
2869.6070185003
 21
2009.0
 31
0.0
  0
LINE
  5
D2
330
1F
100
AcDbEntity
  8
0
  6
Continuous
 62
     7
370
    18
100
AcDbLine
 10
2121.8704816337
 20
368.7467824209
 30
0.0
 11
2121.8704816337
 21
70.0000160588
 31
0.0
  0
LINE
  5
D3
330
1F
100
AcDbEntity
  8
0
  6
Continuous
 62
     7
370
    18
100
AcDbLine
 10
2766.39523512
 20
70.0
 30
0.0
 11
2766.39523512
 21
135.4292810523
 31
0.0
  0
LINE
  5
D4
330
1F
100
AcDbEntity
  8
0
  6
Continuous
 62
     7
370
    18
100
AcDbLine
 10
2121.8704816337
 20
181.3583509723
 30
0.0
 11
2869.6070185003
 21
181.3583509723
 31
0.0
  0
LINE
  5
D5
330
1F
100
AcDbEntity
  8
0
  6
Continuous
 62
     7
370
    18
100
AcDbLine
 10
2648.7467156628
 20
135.4292810523
 30
0.0
 11
2869.6070185003
 21
135.4292810523
 31
0.0
  0
LINE
  5
D6
330
1F
100
AcDbEntity
  8
0
  6
Continuous
 62
     7
370
    18
100
AcDbLine
 10
2121.8704816337
 20
368.7467824209
 30
0.0
 11
2869.7006917056
 21
368.7467824209
 31
0.0
  0
LINE
  5
D7
330
1F
100
AcDbEntity
  8
0
  6
Continuous
 62
     7
370
    18
100
AcDbLine
 10
2648.7467156628
 20
70.0
 30
0.0
 11
2648.7467156628
 21
368.7467824209
 31
0.0
  0
INSERT
  5
D8
330
1F
100
AcDbEntity
  8
0
  6
Continuous
 62
     7
100
AcDbBlockReference
  2
Block1_3_1
 10
2700.6135347481
 20
189.6696797211
 30
0.0
  0
INSERT
  5
D9
330
1F
100
AcDbEntity
  8
FORMAT
100
AcDbBlockReference
  2
rechtlicher_Hinweis_Katalogzeichnungen_1
 10
86.2294908427
 20
31.5549972483
 30
0.0
 41
0.5
 42
0.5
 43
0.5
  0
INSERT
  5
DA
330
1F
100
AcDbEntity
  8
0
  6
Continuous
 62
     7
100
AcDbBlockReference
  2
Block2_3_1
 10
509.1807851128
 20
-261.5944962483
 30
0.0
  0
MTEXT
  5
DB
330
1F
100
AcDbEntity
  8
FORMAT
100
AcDbMText
 10
2192.1422680181
 20
494.273735423
 30
0.0
 40
18.5208333333
 41
0.0
 71
     1
 72
     1
  1
* Abstand Oberkante Hebel zu Unterkante Türrahmen
  7
SLDTEXTSTYLE0
 73
     1
 44
1.0
  0
INSERT
  5
E2
330
1F
100
AcDbEntity
  8
FORMAT
100
AcDbBlockReference
  2
SW_NOTE_0_4
 10
97.9379462612
 20
358.0033736854
 30
0.0
  0
MTEXT
  5
E3
330
1F
100
AcDbEntity
  8
0
  6
Continuous
 62
     7
370
     0
100
AcDbMText
 10
2655.2495495755
 20
165.0094332157
 30
0.0
 40
14.0
 41
0.0
 71
     1
 72
     1
  1
Maßstab:
  7
SLDTEXTSTYLE0
 73
     1
 44
1.0
  0
MTEXT
  5
E4
330
1F
100
AcDbEntity
  8
0
  6
Continuous
 62
     7
370
     0
100
AcDbMText
 10
2785.9502817651
 20
125.2286542559
 30
0.0
 40
14.0
 41
0.0
 71
     1
 72
     1
  1
Format
  7
SLDTEXTSTYLE0
 73
     1
 44
1.0
  0
MTEXT
  5
E5
330
1F
100
AcDbEntity
  8
0
  6
Continuous
 62
     7
370
     0
100
AcDbMText
 10
2135.8123898948
 20
356.9818853041
 30
0.0
 40
14.0
 41
0.0
 71
     1
 72
     1
  1
Benennung:
  7
SLDTEXTSTYLE0
 73
     1
 44
1.0
  0
MTEXT
  5
E6
330
1F
100
AcDbEntity
  8
0
  6
Continuous
 62
     7
370
     0
100
AcDbMText
 10
2664.5005395913
 20
125.2286542559
 30
0.0
 40
14.0
 41
0.0
 71
     1
 72
     1
  1
Blatt / von
  7
SLDTEXTSTYLE0
 73
     1
 44
1.0
  0
MTEXT
  5
E7
330
1F
100
AcDbEntity
  8
0
  6
Continuous
 62
     7
370
     0
100
AcDbMText
 10
2706.4725907482
 20
100.6974422258
 30
0.0
 40
17.5
 41
0.0
 71
     2
 72
     1
  1
/
  7
SLDTEXTSTYLE0
 73
     1
 44
1.0
  0
MTEXT
  5
E9
330
1F
100
AcDbEntity
  8
0
  6
Continuous
 62
     7
370
     0
100
AcDbMText
 10
2134.2541581219
 20
214.7882486886
 30
0.0
 40
22.225
 41
0.0
 71
     1
 72
     1
  1
D052-49472
  7
SLDTEXTSTYLE3
 73
     1
 44
1.0
  0
MTEXT
  5
EA
330
1F
100
AcDbEntity
  8
0
  6
Continuous
 62
     7
370
     0
100
AcDbMText
 10
2752.495267605
 20
165.9085614452
 30
0.0
 40
14.8166666667
 41
0.0
 71
     1
 72
     1
  1
1:7
  7
SLDTEXTSTYLE0
 73
     1
 44
1.0
  0
MTEXT
  5
EB
330
1F
100
AcDbEntity
  8
0
  6
Continuous
 62
     7
370
     0
100
AcDbMText
 10
2803.7489693293
 20
99.2074950551
 30
0.0
 40
14.8166666667
 41
0.0
 71
     1
 72
     1
  1
A3
  7
SLDTEXTSTYLE0
 73
     1
 44
1.0
  0
MTEXT
  5
EC
330
1F
100
AcDbEntity
  8
0
  6
Continuous
 62
     7
370
     0
100
AcDbMText
 10
2680.0334055091
 20
99.9642475618
 30
0.0
 40
14.8166666667
 41
0.0
 71
     1
 72
     1
  1
1
  7
SLDTEXTSTYLE0
 73
     1
 44
1.0
  0
MTEXT
  5
ED
330
1F
100
AcDbEntity
  8
0
  6
Continuous
 62
     7
370
     0
100
AcDbMText
 10
2722.5410575592
 20
99.9642475618
 30
0.0
 40
14.8166666667
 41
0.0
 71
     1
 72
     1
  1
1
  7
SLDTEXTSTYLE0
 73
     1
 44
1.0
  0
MTEXT
  5
EE
330
1F
100
AcDbEntity
  8
FORMAT
100
AcDbMText
 10
2137.971220638
 20
240.9301481691
 30
0.0
 40
14.0
 41
0.0
 71
     1
 72
     1
  1
Zeichnungsnummer:
  7
SLDTEXTSTYLE0
 73
     1
 44
1.0
  0
MTEXT
  5
EF
330
1F
100
AcDbEntity
  8
FORMAT
100
AcDbMText
 10
2666.6233339517
 20
361.2067203863
 30
0.0
 40
12.6
 41
0.0
 71
     1
 72
     1
  1
KATALOGZEICHNUNG
  7
SLDTEXTSTYLE3
 73
     1
 44
1.0
  0
MTEXT
  5
F0
330
1F
100
AcDbEntity
  8
FORMAT
100
AcDbMText
 10
2573.4610565193
 20
241.0417881835
 30
0.0
 40
14.0
 41
0.0
 71
     1
 72
     1
  1
Index:
  7
SLDTEXTSTYLE0
 73
     1
 44
1.0
  0
MTEXT
  5
F1
330
1F
100
AcDbEntity
  8
BEMASSUNG
 62
     7
100
AcDbMText
 10
2654.3752871088
 20
335.5547520888
 30
0.0
 40
14.0
 41
0.0
 71
     1
 72
     1
  1
Ausführung:
  7
SLDTEXTSTYLE0
 73
     1
 44
1.0
  0
MTEXT
  5
F2
330
1F
100
AcDbEntity
  8
FORMAT
100
AcDbMText
 10
2134.4508235056
 20
277.1473496808
 30
0.0
 40
17.5
 41
0.0
 71
     1
 72
     1
  1
Bandgegenseite DIN Rechts
  7
SLDTEXTSTYLE3
 73
     1
 44
1.0
  0
MTEXT
  5
F3
330
1F
100
AcDbEntity
  8
FORMAT
100
AcDbMText
 10
2134.4508235056
 20
333.2914097385
 30
0.0
 40
24.5
 41
0.0
 71
     1
 72
     1
  1
ETS 73 (GSD - GB 18 - AV 12)
  7
SLDTEXTSTYLE3
 73
     1
 44
1.0
  0
INSERT
  5
10E
330
1F
100
AcDbEntity
  8
FORMAT
100
AcDbBlockReference
  2
SW_TABLEANNOTATION_0
 10
1776.048549933
 20
1486.3492719848
 30
0.0
  0
LINE
  5
10F
330
1F
100
AcDbEntity
  8
0
  6
Continuous
 62
     7
370
    25
100
AcDbLine
 10
823.4814342161
 20
1611.4690163761
 30
0.0
 11
823.4814342161
 21
1613.225032345
 31
0.0
  0
LINE
  5
110
330
1F
100
AcDbEntity
  8
0
  6
Continuous
 62
     7
370
    25
100
AcDbLine
 10
793.4814342161
 20
1613.225032345
 30
0.0
 11
793.4814342161
 21
1611.4690163761
 31
0.0
  0
LINE
  5
111
330
1F
100
AcDbEntity
  8
0
  6
Continuous
 62
     7
370
    25
100
AcDbLine
 10
1198.7400873613
 20
1588.225032345
 30
0.0
 11
1198.7400873613
 21
1586.2250323492
 31
0.0
  0
LINE
  5
112
330
1F
100
AcDbEntity
  8
0
  6
Continuous
 62
     7
370
    25
100
AcDbLine
 10
1212.7400873613
 20
1586.2250323492
 30
0.0
 11
1212.7400873613
 21
1588.225032345
 31
0.0
  0
LINE
  5
113
330
1F
100
AcDbEntity
  8
0
  6
Continuous
 62
     7
370
    25
100
AcDbLine
 10
1210.7400873613
 20
1588.225032345
 30
0.0
 11
1210.7400873613
 21
1588.725032345
 31
0.0
  0
LINE
  5
114
330
1F
100
AcDbEntity
  8
0
  6
Continuous
 62
     7
370
    25
100
AcDbLine
 10
1200.7400873613
 20
1588.725032345
 30
0.0
 11
1200.7400873613
 21
1588.225032345
 31
0.0
  0
ARC
  5
115
330
1F
100
AcDbEntity
  8
0
  6
Continuous
 62
     7
370
    25
100
AcDbCircle
 10
826.4814342162
 20
1598.7250323451
 30
0.0
 40
3.0
100
AcDbArc
 50
179.9999999998
 51
270.0
  0
LINE
  5
116
330
1F
100
AcDbEntity
  8
0
  6
Continuous
 62
     7
370
    25
100
AcDbLine
 10
793.4814342163
 20
1609.5250323451
 30
0.0
 11
793.4814342163
 21
1589.7250323451
 31
0.0
  0
LINE
  5
117
330
1F
100
AcDbEntity
  8
0
  6
Continuous
 62
     7
370
    25
100
AcDbLine
 10
823.4814342162
 20
1598.7250323451
 30
0.0
 11
823.4814342162
 21
1609.5250323451
 31
0.0
  0
LINE
  5
118
330
1F
100
AcDbEntity
  8
0
  6
Continuous
 62
     7
370
    25
100
AcDbLine
 10
793.4814342163
 20
1589.7250323451
 30
0.0
 11
794.4814342163
 21
1588.7250323451
 31
0.0
  0
LINE
  5
119
330
1F
100
AcDbEntity
  8
0
  6
Continuous
 62
     7
370
    25
100
AcDbLine
 10
823.4814342162
 20
1609.5250323451
 30
0.0
 11
823.2814342162
 21
1609.7250323451
 31
0.0
  0
LINE
  5
11A
330
1F
100
AcDbEntity
  8
0
  6
Continuous
 62
     7
370
    25
100
AcDbLine
 10
793.6814342163
 20
1609.7250323451
 30
0.0
 11
793.4814342163
 21
1609.5250323451
 31
0.0
  0
LWPOLYLINE
  5
11B
330
1F
100
AcDbEntity
  8
0
  6
Continuous
 62
     7
370
    25
100
AcDbPolyline
 90
       12
 70
   128
 43
0.0
 10
799.8957246725
 20
1610.5330134041
 10
799.785749037
 20
1610.2339667459
 10
799.6011266887
 20
1609.9977541857
 10
799.4901622908
 20
1609.9074009094
 10
799.3763190451
 20
1609.8380062499
 10
799.2699992267
 20
1609.7891577014
 10
799.1814072615
 20
1609.7577211554
 10
799.1202662872
 20
1609.7394346697
 10
799.0958435257
 20
1609.7300966899
 10
799.1166738306
 20
1609.7261954039
 10
799.1895571924
 20
1609.7251063528
 10
799.2751345181
 20
1609.7250568708
  0
LINE
  5
11C
330
1F
100
AcDbEntity
  8
0
  6
Continuous
 62
     7
370
    25
100
AcDbLine
 10
800.0787154952
 20
1611.4690163761
 30
0.0
 11
799.8825917291
 21
1610.4658402994
 31
0.0
  0
LWPOLYLINE
  5
11D
330
1F
100
AcDbEntity
  8
0
  6
Continuous
 62
     7
370
    25
100
AcDbPolyline
 90
        4
 70
   128
 43
0.0
 10
818.711728117
 20
1609.7250550808
 10
818.751336692
 20
1609.7250777659
 10
818.7769661888
 20
1609.7261290898
 10
818.7762376431
 20
1609.7262879544
  0
ARC
  5
11E
330
1F
100
AcDbEntity
  8
0
  6
Continuous
 62
     7
370
    25
100
AcDbCircle
 10
818.9027493546
 20
1610.7362118039
 30
0.0
 40
1.016334646527842
100
AcDbArc
 50
192.6141786486
 51
261.8326251794
  0
LINE
  5
11F
330
1F
100
AcDbEntity
  8
0
  6
Continuous
 62
     7
370
    25
100
AcDbLine
 10
817.9109469587
 20
1610.51425792
 30
0.0
 11
817.705159092
 21
1611.4690163761
 31
0.0
  0
LINE
  5
120
330
1F
100
AcDbEntity
  8
0
  6
Continuous
 62
     7
370
    25
100
AcDbLine
 10
799.2577093405
 20
1611.4690163761
 30
0.0
 11
799.041667933
 21
1610.4666863358
 31
0.0
  0
ARC
  5
121
330
1F
100
AcDbEntity
  8
0
  6
Continuous
 62
     7
370
    25
100
AcDbCircle
 10
798.085934895
 20
1610.7107922261
 30
0.0
 40
0.9857770834030145
100
AcDbArc
 50
269.5440885489
 51
348.4999965655
  0
LINE
  5
122
330
1F
100
AcDbEntity
  8
0
  6
Continuous
 62
     7
370
    25
100
AcDbLine
 10
1216.7400873613
 20
1594.725032345
 30
0.0
 11
1215.7400873613
 21
1595.725032345
 31
0.0
  0
LINE
  5
123
330
1F
100
AcDbEntity
  8
0
  6
Continuous
 62
     7
370
    25
100
AcDbLine
 10
1215.7400873613
 20
1588.725032345
 30
0.0
 11
1216.7400873613
 21
1589.725032345
 31
0.0
  0
LINE
  5
124
330
1F
100
AcDbEntity
  8
0
  6
Continuous
 62
     7
370
    25
100
AcDbLine
 10
1216.7400873613
 20
1589.725032345
 30
0.0
 11
1216.7400873613
 21
1594.725032345
 31
0.0
  0
LINE
  5
125
330
1F
100
AcDbEntity
  8
0
  6
Continuous
 62
     7
370
    25
100
AcDbLine
 10
793.4814342161
 20
1611.4690163761
 30
0.0
 11
823.4814342161
 21
1611.4690163761
 31
0.0
  0
LINE
  5
126
330
1F
100
AcDbEntity
  8
0
  6
Continuous
 62
     7
370
    25
100
AcDbLine
 10
785.4814342162
 20
1709.225032345
 30
0.0
 11
785.4814342162
 21
1708.225032345
 31
0.0
  0
LINE
  5
127
330
1F
100
AcDbEntity
  8
0
  6
Continuous
 62
     7
370
    25
100
AcDbLine
 10
831.4814342162
 20
1709.225032345
 30
0.0
 11
831.4814342162
 21
1708.225032345
 31
0.0
  0
LINE
  5
128
330
1F
100
AcDbEntity
  8
0
  6
Continuous
 62
     7
370
    25
100
AcDbLine
 10
785.4814342162
 20
1709.225032345
 30
0.0
 11
831.4814342162
 21
1709.225032345
 31
0.0
  0
LINE
  5
129
330
1F
100
AcDbEntity
  8
0
  6
Continuous
 62
     7
370
    25
100
AcDbLine
 10
831.4814342162
 20
1612.225032345
 30
0.0
 11
828.2551541495
 21
1612.225032345
 31
0.0
  0
LINE
  5
12A
330
1F
100
AcDbEntity
  8
0
  6
Continuous
 62
     7
370
    25
100
AcDbLine
 10
828.2551541495
 20
1613.225032345
 30
0.0
 11
828.2551541495
 21
1612.225032345
 31
0.0
  0
LINE
  5
12B
330
1F
100
AcDbEntity
  8
0
  6
Continuous
 62
     7
370
    25
100
AcDbLine
 10
831.4814342162
 20
1612.225032345
 30
0.0
 11
831.4814342162
 21
1613.225032345
 31
0.0
  0
LINE
  5
12C
330
1F
100
AcDbEntity
  8
0
  6
Continuous
 62
     7
370
    25
100
AcDbLine
 10
785.4814342162
 20
1613.225032345
 30
0.0
 11
785.4814342162
 21
1612.225032345
 31
0.0
  0
LINE
  5
12D
330
1F
100
AcDbEntity
  8
0
  6
Continuous
 62
     7
370
    25
100
AcDbLine
 10
788.7077142829
 20
1612.225032345
 30
0.0
 11
788.7077142829
 21
1613.225032345
 31
0.0
  0
LINE
  5
12E
330
1F
100
AcDbEntity
  8
0
  6
Continuous
 62
     7
370
    25
100
AcDbLine
 10
788.7077142829
 20
1612.225032345
 30
0.0
 11
785.4814342162
 21
1612.225032345
 31
0.0
  0
LINE
  5
12F
330
1F
100
AcDbEntity
  8
0
  6
Continuous
 62
     7
370
    25
100
AcDbLine
 10
828.2551541495
 20
1612.225032345
 30
0.0
 11
823.4814342161
 21
1612.225032345
 31
0.0
  0
LINE
  5
130
330
1F
100
AcDbEntity
  8
0
  6
Continuous
 62
     7
370
    25
100
AcDbLine
 10
793.4814342161
 20
1612.225032345
 30
0.0
 11
788.7077142829
 21
1612.225032345
 31
0.0
  0
LINE
  5
131
330
1F
100
AcDbEntity
  8
0
  6
Continuous
 62
     7
370
    25
100
AcDbLine
 10
538.4814342162
 20
1708.225032345
 30
0.0
 11
536.4814342162
 21
1708.225032345
 31
0.0
  0
LINE
  5
132
330
1F
100
AcDbEntity
  8
0
  6
Continuous
 62
     7
370
    25
100
AcDbLine
 10
538.4814342162
 20
1708.225032345
 30
0.0
 11
538.4814342162
 21
1703.225032345
 31
0.0
  0
LINE
  5
133
330
1F
100
AcDbEntity
  8
0
  6
Continuous
 62
     7
370
    25
100
AcDbLine
 10
538.4814342162
 20
1703.225032345
 30
0.0
 11
536.4814342162
 21
1703.225032345
 31
0.0
  0
LINE
  5
134
330
1F
100
AcDbEntity
  8
0
  6
Continuous
 62
     7
370
    25
100
AcDbLine
 10
536.4814342162
 20
1708.225032345
 30
0.0
 11
536.4814342162
 21
1703.225032345
 31
0.0
  0
LINE
  5
135
330
1F
100
AcDbEntity
  8
0
  6
Continuous
 62
     7
370
    25
100
AcDbLine
 10
538.4814342162
 20
1703.225032345
 30
0.0
 11
538.4814342162
 21
1618.225032345
 31
0.0
  0
LINE
  5
136
330
1F
100
AcDbEntity
  8
0
  6
Continuous
 62
     7
370
    25
100
AcDbLine
 10
538.4814342162
 20
1618.225032345
 30
0.0
 11
536.4814342162
 21
1618.225032345
 31
0.0
  0
LINE
  5
137
330
1F
100
AcDbEntity
  8
0
  6
Continuous
 62
     7
370
    25
100
AcDbLine
 10
536.4814342162
 20
1703.225032345
 30
0.0
 11
536.4814342162
 21
1618.225032345
 31
0.0
  0
LINE
  5
138
330
1F
100
AcDbEntity
  8
0
  6
Continuous
 62
     7
370
    25
100
AcDbLine
 10
538.4814342162
 20
1613.225032345
 30
0.0
 11
536.4814342162
 21
1613.225032345
 31
0.0
  0
LINE
  5
139
330
1F
100
AcDbEntity
  8
0
  6
Continuous
 62
     7
370
    25
100
AcDbLine
 10
538.4814342162
 20
1618.225032345
 30
0.0
 11
538.4814342162
 21
1613.225032345
 31
0.0
  0
LINE
  5
13A
330
1F
100
AcDbEntity
  8
0
  6
Continuous
 62
     7
370
    25
100
AcDbLine
 10
536.4814342162
 20
1618.225032345
 30
0.0
 11
536.4814342162
 21
1613.225032345
 31
0.0
  0
LINE
  5
13B
330
1F
100
AcDbEntity
  8
0
  6
Continuous
 62
     7
370
    25
100
AcDbLine
 10
536.4814342162
 20
1703.225032345
 30
0.0
 11
531.9814342162
 21
1703.225032345
 31
0.0
  0
LINE
  5
13C
330
1F
100
AcDbEntity
  8
0
  6
Continuous
 62
     7
370
    25
100
AcDbLine
 10
531.9814342162
 20
1703.2250323544
 30
0.0
 11
531.9814342162
 21
1706.225032345
 31
0.0
  0
LINE
  5
13D
330
1F
100
AcDbEntity
  8
0
  6
Continuous
 62
     7
370
    25
100
AcDbLine
 10
531.9814342162
 20
1706.225032345
 30
0.0
 11
536.4814342162
 21
1706.225032345
 31
0.0
  0
LINE
  5
13E
330
1F
100
AcDbEntity
  8
0
  6
Continuous
 62
     7
370
    25
100
AcDbLine
 10
531.9814342162
 20
1618.225032345
 30
0.0
 11
531.9814342162
 21
1703.2250323497
 31
0.0
  0
LINE
  5
13F
330
1F
100
AcDbEntity
  8
0
  6
Continuous
 62
     7
370
    25
100
AcDbLine
 10
528.9814342162
 20
1618.225032345
 30
0.0
 11
531.9814342162
 21
1618.225032345
 31
0.0
  0
LINE
  5
140
330
1F
100
AcDbEntity
  8
0
  6
Continuous
 62
     7
370
    25
100
AcDbLine
 10
528.9814342162
 20
1618.225032345
 30
0.0
 11
528.9814342162
 21
1703.225032345
 31
0.0
  0
LINE
  5
141
330
1F
100
AcDbEntity
  8
0
  6
Continuous
 62
     7
370
    25
100
AcDbLine
 10
531.9814342162
 20
1703.225032345
 30
0.0
 11
528.9814342162
 21
1703.225032345
 31
0.0
  0
LINE
  5
142
330
1F
100
AcDbEntity
  8
0
  6
Continuous
 62
     7
370
    25
100
AcDbLine
 10
531.9814342162
 20
1618.225032345
 30
0.0
 11
536.4814342162
 21
1618.225032345
 31
0.0
  0
LINE
  5
143
330
1F
100
AcDbEntity
  8
0
  6
Continuous
 62
     7
370
    25
100
AcDbLine
 10
536.4814342162
 20
1615.225032345
 30
0.0
 11
531.9814342162
 21
1615.225032345
 31
0.0
  0
LINE
  5
144
330
1F
100
AcDbEntity
  8
0
  6
Continuous
 62
     7
370
    25
100
AcDbLine
 10
531.9814342162
 20
1615.225032345
 30
0.0
 11
531.9814342162
 21
1618.225032345
 31
0.0
  0
ARC
  5
145
330
1F
100
AcDbEntity
  8
0
  6
Continuous
 62
     7
370
    25
100
AcDbCircle
 10
531.9814342162
 20
1618.225032345
 30
0.0
 40
3.000000000000227
100
AcDbArc
 50
180.0
 51
270.0
  0
ARC
  5
146
330
1F
100
AcDbEntity
  8
0
  6
Continuous
 62
     7
370
    25
100
AcDbCircle
 10
531.9814342162
 20
1703.225032345
 30
0.0
 40
3.000000000000114
100
AcDbArc
 50
90.0
 51
180.0
  0
LINE
  5
147
330
1F
100
AcDbEntity
  8
0
  6
Continuous
 62
     7
370
    25
100
AcDbLine
 10
1210.4814342162
 20
1703.2250323449
 30
0.0
 11
1210.4814342162
 21
1708.2250323449
 31
0.0
  0
LINE
  5
148
330
1F
100
AcDbEntity
  8
0
  6
Continuous
 62
     7
370
    25
100
AcDbLine
 10
1208.4814342162
 20
1703.2250323449
 30
0.0
 11
1210.4814342162
 21
1703.2250323449
 31
0.0
  0
LINE
  5
149
330
1F
100
AcDbEntity
  8
0
  6
Continuous
 62
     7
370
    25
100
AcDbLine
 10
1208.4814342162
 20
1703.2250323449
 30
0.0
 11
1208.4814342162
 21
1708.2250323449
 31
0.0
  0
LINE
  5
14A
330
1F
100
AcDbEntity
  8
0
  6
Continuous
 62
     7
370
    25
100
AcDbLine
 10
1208.4814342162
 20
1708.2250323449
 30
0.0
 11
1210.4814342162
 21
1708.2250323449
 31
0.0
  0
LINE
  5
14B
330
1F
100
AcDbEntity
  8
0
  6
Continuous
 62
     7
370
    25
100
AcDbLine
 10
1210.4814342162
 20
1618.2250323449
 30
0.0
 11
1210.4814342162
 21
1703.2250323449
 31
0.0
  0
LINE
  5
14C
330
1F
100
AcDbEntity
  8
0
  6
Continuous
 62
     7
370
    25
100
AcDbLine
 10
1208.4814342162
 20
1618.2250323449
 30
0.0
 11
1210.4814342162
 21
1618.2250323449
 31
0.0
  0
LINE
  5
14D
330
1F
100
AcDbEntity
  8
0
  6
Continuous
 62
     7
370
    25
100
AcDbLine
 10
1208.4814342162
 20
1618.2250323449
 30
0.0
 11
1208.4814342162
 21
1703.2250323449
 31
0.0
  0
LINE
  5
14E
330
1F
100
AcDbEntity
  8
0
  6
Continuous
 62
     7
370
    25
100
AcDbLine
 10
1208.4814342162
 20
1613.2250323449
 30
0.0
 11
1210.4814342162
 21
1613.2250323449
 31
0.0
  0
LINE
  5
14F
330
1F
100
AcDbEntity
  8
0
  6
Continuous
 62
     7
370
    25
100
AcDbLine
 10
1208.4814342162
 20
1613.2250323449
 30
0.0
 11
1208.4814342162
 21
1618.2250323449
 31
0.0
  0
LINE
  5
150
330
1F
100
AcDbEntity
  8
0
  6
Continuous
 62
     7
370
    25
100
AcDbLine
 10
1210.4814342162
 20
1613.2250323449
 30
0.0
 11
1210.4814342162
 21
1618.2250323449
 31
0.0
  0
LINE
  5
151
330
1F
100
AcDbEntity
  8
0
  6
Continuous
 62
     7
370
    25
100
AcDbLine
 10
1214.9814342162
 20
1703.2250323449
 30
0.0
 11
1214.9814342162
 21
1618.2250323402
 31
0.0
  0
LINE
  5
152
330
1F
100
AcDbEntity
  8
0
  6
Continuous
 62
     7
370
    25
100
AcDbLine
 10
1217.9814342162
 20
1703.2250323449
 30
0.0
 11
1214.9814342162
 21
1703.2250323449
 31
0.0
  0
LINE
  5
153
330
1F
100
AcDbEntity
  8
0
  6
Continuous
 62
     7
370
    25
100
AcDbLine
 10
1217.9814342162
 20
1703.2250323449
 30
0.0
 11
1217.9814342162
 21
1618.2250323449
 31
0.0
  0
LINE
  5
154
330
1F
100
AcDbEntity
  8
0
  6
Continuous
 62
     7
370
    25
100
AcDbLine
 10
1214.9814342162
 20
1618.2250323449
 30
0.0
 11
1217.9814342162
 21
1618.2250323449
 31
0.0
  0
LINE
  5
155
330
1F
100
AcDbEntity
  8
0
  6
Continuous
 62
     7
370
    25
100
AcDbLine
 10
1210.4814342162
 20
1618.2250323449
 30
0.0
 11
1214.9814342162
 21
1618.2250323449
 31
0.0
  0
LINE
  5
156
330
1F
100
AcDbEntity
  8
0
  6
Continuous
 62
     7
370
    25
100
AcDbLine
 10
1214.9814342162
 20
1618.2250323355
 30
0.0
 11
1214.9814342162
 21
1615.2250323449
 31
0.0
  0
LINE
  5
157
330
1F
100
AcDbEntity
  8
0
  6
Continuous
 62
     7
370
    25
100
AcDbLine
 10
1214.9814342162
 20
1615.2250323449
 30
0.0
 11
1210.4814342162
 21
1615.2250323449
 31
0.0
  0
LINE
  5
158
330
1F
100
AcDbEntity
  8
0
  6
Continuous
 62
     7
370
    25
100
AcDbLine
 10
1214.9814342162
 20
1703.2250323449
 30
0.0
 11
1210.4814342162
 21
1703.2250323449
 31
0.0
  0
LINE
  5
159
330
1F
100
AcDbEntity
  8
0
  6
Continuous
 62
     7
370
    25
100
AcDbLine
 10
1210.4814342162
 20
1706.2250323449
 30
0.0
 11
1214.9814342162
 21
1706.2250323449
 31
0.0
  0
LINE
  5
15A
330
1F
100
AcDbEntity
  8
0
  6
Continuous
 62
     7
370
    25
100
AcDbLine
 10
1214.9814342162
 20
1706.2250323449
 30
0.0
 11
1214.9814342162
 21
1703.2250323449
 31
0.0
  0
ARC
  5
15B
330
1F
100
AcDbEntity
  8
0
  6
Continuous
 62
     7
370
    25
100
AcDbCircle
 10
1214.9814342162
 20
1703.2250323449
 30
0.0
 40
3.0
100
AcDbArc
 50
0.0
 51
90.0
  0
ARC
  5
15C
330
1F
100
AcDbEntity
  8
0
  6
Continuous
 62
     7
370
    25
100
AcDbCircle
 10
1214.9814342162
 20
1618.2250323449
 30
0.0
 40
3.0
100
AcDbArc
 50
270.0
 51
0.0
  0
LINE
  5
15D
330
1F
100
AcDbEntity
  8
0
  6
Continuous
 62
     7
370
    25
100
AcDbLine
 10
538.4814342162
 20
1708.225032345
 30
0.0
 11
1208.4814342162
 21
1708.225032345
 31
0.0
  0
LINE
  5
15E
330
1F
100
AcDbEntity
  8
0
  6
Continuous
 62
     7
370
    25
100
AcDbLine
 10
538.4814342162
 20
1703.225032345
 30
0.0
 11
1208.4814342162
 21
1703.225032345
 31
0.0
  0
LINE
  5
15F
330
1F
100
AcDbEntity
  8
0
  6
Continuous
 62
     7
370
    25
100
AcDbLine
 10
538.4814342162
 20
1618.225032345
 30
0.0
 11
1208.4814342162
 21
1618.225032345
 31
0.0
  0
LINE
  5
160
330
1F
100
AcDbEntity
  8
0
  6
Continuous
 62
     7
370
    25
100
AcDbLine
 10
538.4814342162
 20
1613.225032345
 30
0.0
 11
1208.4814342162
 21
1613.225032345
 31
0.0
  0
LINE
  5
161
330
1F
100
AcDbEntity
  8
0
  6
Continuous
 62
     7
370
    25
100
AcDbLine
 10
1212.7400873613
 20
1588.225032345
 30
0.0
 11
1198.7400873613
 21
1588.225032345
 31
0.0
  0
LWPOLYLINE
  5
162
330
1F
100
AcDbEntity
  8
0
  6
Continuous
 62
     7
370
    25
100
AcDbPolyline
 90
       16
 70
   128
 43
0.0
 10
821.3538557173
 20
1595.7250323451
 10
819.5478551664
 20
1595.8612901462
 10
817.6966998596
 20
1596.220648565
 10
815.7968765956
 20
1596.7463466905
 10
814.4892719088
 20
1597.170664491
 10
813.0211168185
 20
1597.6872997994
 10
812.6833429662
 20
1597.810324709
 10
812.3389648045
 20
1597.9369683826
 10
811.987839466
 20
1598.0670589896
 10
811.6297971582
 20
1598.2004002662
 10
810.6001207085
 20
1598.5879338506
 10
810.3343990422
 20
1598.6880915364
 10
810.2637364683
 20
1598.7144693427
 10
810.243961416
 20
1598.7217277954
 10
810.2379636454
 20
1598.7238743104
 10
810.2345592163
 20
1598.7250323451
  0
LINE
  5
163
330
1F
100
AcDbEntity
  8
0
  6
Continuous
 62
     7
370
    25
100
AcDbLine
 10
821.4707307173
 20
1594.7250323451
 30
0.0
 11
821.3538557173
 21
1595.7250323451
 31
0.0
  0
LWPOLYLINE
  5
164
330
1F
100
AcDbEntity
  8
0
  6
Continuous
 62
     7
370
    25
100
AcDbPolyline
 90
       16
 70
   128
 43
0.0
 10
821.4707307173
 20
1594.7250323451
 10
819.4859907373
 20
1594.9043004412
 10
817.5128603752
 20
1595.3831697346
 10
815.5645238037
 20
1596.0867923829
 10
814.7249773522
 20
1596.4474620759
 10
813.8226335983
 20
1596.8656607758
 10
812.857492542
 20
1597.3413884827
 10
811.5406491632
 20
1598.0255216226
 10
811.3019208921
 20
1598.1521981757
 10
811.08404077
 20
1598.2685789176
 10
810.8870087968
 20
1598.374663848
 10
810.4116514622
 20
1598.6311506194
 10
810.2858222031
 20
1598.698417113
 10
810.2508699257
 20
1598.7168061367
 10
810.240384375
 20
1598.7221895928
 10
810.2345592163
 20
1598.7250323451
  0
LINE
  5
165
330
1F
100
AcDbEntity
  8
0
  6
Continuous
 62
     7
370
    25
100
AcDbLine
 10
810.2345592163
 20
1589.7250323451
 30
0.0
 11
810.2345592163
 21
1598.7250323451
 31
0.0
  0
LINE
  5
166
330
1F
100
AcDbEntity
  8
0
  6
Continuous
 62
     7
370
    25
100
AcDbLine
 10
810.2345592163
 20
1589.7250323451
 30
0.0
 11
793.4814342163
 21
1589.7250323451
 31
0.0
  0
LINE
  5
167
330
1F
100
AcDbEntity
  8
0
  6
Continuous
 62
     7
370
    25
100
AcDbLine
 10
810.2345592163
 20
1609.5250323451
 30
0.0
 11
793.4814342163
 21
1609.5250323451
 31
0.0
  0
LINE
  5
168
330
1F
100
AcDbEntity
  8
0
  6
Continuous
 62
     7
370
    25
100
AcDbLine
 10
823.4814342162
 20
1609.5250323451
 30
0.0
 11
810.2345592163
 21
1609.5250323451
 31
0.0
  0
LINE
  5
169
330
1F
100
AcDbEntity
  8
0
  6
Continuous
 62
     7
370
    25
100
AcDbLine
 10
810.1176842163
 20
1588.7250323451
 30
0.0
 11
810.2345592163
 21
1589.7250323451
 31
0.0
  0
LINE
  5
16A
330
1F
100
AcDbEntity
  8
0
  6
Continuous
 62
     7
370
    25
100
AcDbLine
 10
810.1176842163
 20
1588.7250323451
 30
0.0
 11
794.4814342163
 21
1588.7250323451
 31
0.0
  0
LINE
  5
16B
330
1F
100
AcDbEntity
  8
0
  6
Continuous
 62
     7
370
    25
100
AcDbLine
 10
810.2111842163
 20
1609.7250323451
 30
0.0
 11
793.6814342163
 21
1609.7250323451
 31
0.0
  0
LINE
  5
16C
330
1F
100
AcDbEntity
  8
0
  6
Continuous
 62
     7
370
    25
100
AcDbLine
 10
823.2814342162
 20
1609.7250323451
 30
0.0
 11
810.2111842163
 21
1609.7250323451
 31
0.0
  0
LINE
  5
16D
330
1F
100
AcDbEntity
  8
0
  6
Continuous
 62
     7
370
    25
100
AcDbLine
 10
1019.2634062592
 20
1589.725032345
 30
0.0
 11
1019.2634062592
 21
1594.725032345
 31
0.0
  0
LINE
  5
16E
330
1F
100
AcDbEntity
  8
0
  6
Continuous
 62
     7
370
    25
100
AcDbLine
 10
1019.2634062592
 20
1589.725032345
 30
0.0
 11
810.2345592163
 21
1589.7250323451
 31
0.0
  0
LINE
  5
16F
330
1F
100
AcDbEntity
  8
0
  6
Continuous
 62
     7
370
    25
100
AcDbLine
 10
1019.2634062592
 20
1594.725032345
 30
0.0
 11
821.4707307173
 21
1594.7250323451
 31
0.0
  0
LINE
  5
170
330
1F
100
AcDbEntity
  8
0
  6
Continuous
 62
     7
370
    25
100
AcDbLine
 10
1019.2634062592
 20
1589.725032345
 30
0.0
 11
1019.1465312592
 21
1588.7250323451
 31
0.0
  0
LINE
  5
171
330
1F
100
AcDbEntity
  8
0
  6
Continuous
 62
     7
370
    25
100
AcDbLine
 10
1019.1465312592
 20
1588.7250323451
 30
0.0
 11
810.1176842163
 21
1588.7250323451
 31
0.0
  0
LINE
  5
172
330
1F
100
AcDbEntity
  8
0
  6
Continuous
 62
     7
370
    25
100
AcDbLine
 10
821.3538557173
 20
1595.7250323451
 30
0.0
 11
1019.1465312592
 21
1595.725032345
 31
0.0
  0
LINE
  5
173
330
1F
100
AcDbEntity
  8
0
  6
Continuous
 62
     7
370
    25
100
AcDbLine
 10
1019.2634062592
 20
1594.725032345
 30
0.0
 11
1019.1465312592
 21
1595.725032345
 31
0.0
  0
LWPOLYLINE
  5
174
330
1F
100
AcDbEntity
  8
0
  6
Continuous
 62
     7
370
    25
100
AcDbPolyline
 90
        9
 70
   128
 43
0.0
 10
806.6052837209
 20
1609.7250323451
 10
806.5194882481
 20
1609.740605777
 10
806.4363650352
 20
1609.7868410092
 10
806.3585031096
 20
1609.8622979591
 10
806.2883276262
 20
1609.9646263795
 10
806.228024331
 20
1610.090639061
 10
806.1794714827
 20
1610.2364111036
 10
806.1441813502
 20
1610.3974021656
 10
806.1232531104
 20
1610.5685978801
  0
ARC
  5
175
330
1F
100
AcDbEntity
  8
0
  6
Continuous
 62
     7
370
    25
100
AcDbCircle
 10
804.6694436848
 20
1610.6425892112
 30
0.0
 40
0.9191498472628982
100
AcDbArc
 50
273.3737472447
 51
355.3827081635
  0
ARC
  5
176
330
1F
100
AcDbEntity
  8
0
  6
Continuous
 62
     7
370
    25
100
AcDbCircle
 10
805.8544318235
 20
1611.1025620084
 30
0.0
 40
0.5978148330872943
100
AcDbArc
 50
243.2772849693
 51
296.7227163649
  0
LWPOLYLINE
  5
177
330
1F
100
AcDbEntity
  8
0
  6
Continuous
 62
     7
370
    25
100
AcDbPolyline
 90
        3
 70
   128
 43
0.0
 10
809.2852167755
 20
1609.9646263795
 10
809.379691659
 20
1609.7868410092
 10
809.4950478192
 20
1609.7250323451
  0
LINE
  5
178
330
1F
100
AcDbEntity
  8
0
  6
Continuous
 62
     7
370
    25
100
AcDbLine
 10
806.1232531104
 20
1610.5685978801
 30
0.0
 11
809.2272673108
 21
1610.5685978801
 31
0.0
  0
LWPOLYLINE
  5
179
330
1F
100
AcDbEntity
  8
0
  6
Continuous
 62
     7
370
    25
100
AcDbPolyline
 90
        3
 70
   128
 43
0.0
 10
809.2272673108
 20
1610.5685978801
 10
809.2299231576
 20
1610.2364111036
 10
809.2852167755
 20
1609.9646263795
  0
LWPOLYLINE
  5
17A
330
1F
100
AcDbEntity
  8
0
  6
Continuous
 62
     7
370
    25
100
AcDbPolyline
 90
        3
 70
   128
 43
0.0
 10
809.5536472655
 20
1609.9646263775
 10
809.5552827272
 20
1610.2364111022
 10
809.5275725775
 20
1610.5685978801
  0
LINE
  5
17B
330
1F
100
AcDbEntity
  8
0
  6
Continuous
 62
     7
370
    25
100
AcDbLine
 10
809.5275725775
 20
1610.5685978801
 30
0.0
 11
812.9497056867
 21
1610.5685978801
 31
0.0
  0
LWPOLYLINE
  5
17C
330
1F
100
AcDbEntity
  8
0
  6
Continuous
 62
     7
370
    25
100
AcDbPolyline
 90
        9
 70
   128
 43
0.0
 10
812.9497056867
 20
1610.5685978801
 10
812.9380381717
 20
1610.3974021655
 10
812.9183638868
 20
1610.2364111036
 10
812.8912956244
 20
1610.0906390609
 10
812.8576764759
 20
1609.9646263795
 10
812.8185535723
 20
1609.8622979591
 10
812.7751454694
 20
1609.7868410092
 10
812.7288041935
 20
1609.740605777
 10
812.6809731299
 20
1609.7250323451
  0
LWPOLYLINE
  5
17D
330
1F
100
AcDbEntity
  8
0
  6
Continuous
 62
     7
370
    25
100
AcDbPolyline
 90
        3
 70
   128
 43
0.0
 10
809.4950478192
 20
1609.7250323451
 10
809.5301682088
 20
1609.7868410086
 10
809.5536472655
 20
1609.9646263775
  0
LWPOLYLINE
  5
17E
330
1F
100
AcDbEntity
  8
0
  6
Continuous
 62
     7
370
    25
100
AcDbPolyline
 90
        3
 70
   128
 43
0.0
 10
803.6146733372
 20
1609.9646263775
 10
803.7794048993
 20
1610.2364111022
 10
803.8499977282
 20
1610.5685978801
  0
LINE
  5
17F
330
1F
100
AcDbEntity
  8
0
  6
Continuous
 62
     7
370
    25
100
AcDbLine
 10
803.8499977282
 20
1610.5685978801
 30
0.0
 11
805.5856105499
 21
1610.5685978801
 31
0.0
  0
LWPOLYLINE
  5
180
330
1F
100
AcDbEntity
  8
0
  6
Continuous
 62
     7
370
    25
100
AcDbPolyline
 90
        3
 70
   128
 43
0.0
 10
803.1077200611
 20
1609.7250323451
 10
803.3798690027
 20
1609.7868410087
 10
803.6146733372
 20
1609.9646263775
  0
ARC
  5
181
330
1F
100
AcDbEntity
  8
0
  6
Continuous
 62
     7
370
    25
100
AcDbCircle
 10
814.4030452407
 20
1610.6994084101
 30
0.0
 40
0.9744953823065936
100
AcDbArc
 50
187.7143350978
 51
269.1033892401
  0
ARC
  5
182
330
1F
100
AcDbEntity
  8
0
  6
Continuous
 62
     7
370
    25
100
AcDbCircle
 10
813.1935375312
 20
1610.9829702733
 30
0.0
 40
0.4807894070820778
100
AcDbArc
 50
239.5258911221
 51
300.4741103489
  0
LWPOLYLINE
  5
183
330
1F
100
AcDbEntity
  8
0
  6
Continuous
 62
     7
370
    25
100
AcDbPolyline
 90
        3
 70
   128
 43
0.0
 10
814.6970613228
 20
1609.9646263795
 10
814.9722519405
 20
1609.7868410092
 10
815.2886144757
 20
1609.7250323451
  0
LINE
  5
184
330
1F
100
AcDbEntity
  8
0
  6
Continuous
 62
     7
370
    25
100
AcDbLine
 10
813.4373693865
 20
1610.5685978801
 30
0.0
 11
814.4049752939
 21
1610.5685978801
 31
0.0
  0
LWPOLYLINE
  5
185
330
1F
100
AcDbEntity
  8
0
  6
Continuous
 62
     7
370
    25
100
AcDbPolyline
 90
        3
 70
   128
 43
0.0
 10
814.4049752939
 20
1610.5685978801
 10
814.4991249779
 20
1610.2364111036
 10
814.6970613228
 20
1609.9646263795
  0
ARC
  5
186
330
1F
100
AcDbEntity
  8
0
  6
Continuous
 62
     7
370
    25
100
AcDbCircle
 10
807.9867190928
 20
1611.0165333323
 30
0.0
 40
1.671108754473074
100
AcDbArc
 50
320.9892283156
 51
327.6243106453
  0
ARC
  5
187
330
1F
100
AcDbEntity
  8
0
  6
Continuous
 62
     7
370
    25
100
AcDbCircle
 10
810.2564634813
 20
1610.8163396061
 30
0.0
 40
1.104249091883753
100
AcDbArc
 50
218.9803668011
 51
230.4712529789
  0
LINE
  5
188
330
1F
100
AcDbEntity
  8
0
  6
Continuous
 62
     7
370
    25
100
AcDbLine
 10
809.3741849456
 20
1610.5560633391
 30
0.0
 11
809.2272673108
 21
1610.5685978801
 31
0.0
  0
ARC
  5
189
330
1F
100
AcDbEntity
  8
0
  6
Continuous
 62
     7
370
    25
100
AcDbCircle
 10
815.7312146238
 20
1610.6876916207
 30
0.0
 40
6.358392235795881
100
AcDbArc
 50
181.1861930225
 51
185.1068718155
  0
LINE
  5
18A
330
1F
100
AcDbEntity
  8
0
  6
Continuous
 62
     7
370
    25
100
AcDbLine
 10
809.5275725775
 20
1610.5685978801
 30
0.0
 11
809.3741849456
 21
1610.5560633391
 31
0.0
  0
LWPOLYLINE
  5
18B
330
1F
100
AcDbEntity
  8
0
  6
Continuous
 62
     7
370
    25
100
AcDbPolyline
 90
        3
 70
   128
 43
0.0
 10
803.4025273062
 20
1609.9646263795
 10
803.2609443501
 20
1609.7868410092
 10
803.1077200611
 20
1609.7250323451
  0
LWPOLYLINE
  5
18C
330
1F
100
AcDbEntity
  8
0
  6
Continuous
 62
     7
370
    25
100
AcDbPolyline
 90
        9
 70
   128
 43
0.0
 10
799.9217947867
 20
1609.7250323451
 10
799.9696258503
 20
1609.740605777
 10
800.0159671262
 20
1609.7868410092
 10
800.0593752291
 20
1609.8622979591
 10
800.0984981327
 20
1609.9646263795
 10
800.1321172812
 20
1610.090639061
 10
800.1591855437
 20
1610.2364111036
 10
800.1788598285
 20
1610.3974021656
 10
800.1905273436
 20
1610.5685978801
  0
LINE
  5
18D
330
1F
100
AcDbEntity
  8
0
  6
Continuous
 62
     7
370
    25
100
AcDbLine
 10
800.1905273436
 20
1610.5685978801
 30
0.0
 11
803.6126604162
 21
1610.5685978801
 31
0.0
  0
LWPOLYLINE
  5
18E
330
1F
100
AcDbEntity
  8
0
  6
Continuous
 62
     7
370
    25
100
AcDbPolyline
 90
        3
 70
   128
 43
0.0
 10
803.6126604162
 20
1610.5685978801
 10
803.5222666667
 20
1610.2364111036
 10
803.4025273062
 20
1609.9646263795
  0
ARC
  5
18F
330
1F
100
AcDbEntity
  8
0
  6
Continuous
 62
     7
370
    25
100
AcDbCircle
 10
802.9244508773
 20
1610.8639711209
 30
0.0
 40
1.018517567681541
100
AcDbArc
 50
297.9943549487
 51
313.2167180074
  0
ARC
  5
190
330
1F
100
AcDbEntity
  8
0
  6
Continuous
 62
     7
370
    25
100
AcDbCircle
 10
803.1560826836
 20
1610.0644035101
 30
0.0
 40
0.4693195752943513
100
AcDbArc
 50
347.7252635686
 51
7.0132914395
  0
ARC
  5
191
330
1F
100
AcDbEntity
  8
0
  6
Continuous
 62
     7
370
    25
100
AcDbCircle
 10
802.4043670534
 20
1610.7127791874
 30
0.0
 40
1.353414193743664
100
AcDbArc
 50
334.104790299
 51
353.3506380247
  0
LINE
  5
192
330
1F
100
AcDbEntity
  8
0
  6
Continuous
 62
     7
370
    25
100
AcDbLine
 10
803.8499977282
 20
1610.5685978801
 30
0.0
 11
803.7486775441
 21
1610.5560633391
 31
0.0
  0
LINE
  5
193
330
1F
100
AcDbEntity
  8
0
  6
Continuous
 62
     7
370
    25
100
AcDbLine
 10
803.7486775441
 20
1610.5560633391
 30
0.0
 11
803.6126604162
 21
1610.5685978801
 31
0.0
  0
LINE
  5
194
330
1F
100
AcDbEntity
  8
0
  6
Continuous
 62
     7
370
    25
100
AcDbLine
 10
799.1081033693
 20
1609.7357766863
 30
0.0
 11
798.9674228589
 21
1609.7250323451
 31
0.0
  0
LWPOLYLINE
  5
195
330
1F
100
AcDbEntity
  8
0
  6
Continuous
 62
     7
370
    25
100
AcDbPolyline
 90
        8
 70
   128
 43
0.0
 10
799.9178496416
 20
1610.5685978738
 10
799.8959173518
 20
1610.5237272059
 10
799.9096006874
 20
1610.5108684223
 10
799.9407929164
 20
1610.5065462481
 10
799.9878784696
 20
1610.5109429645
 10
800.0436599153
 20
1610.5227042332
 10
800.1116232804
 20
1610.541911739
 10
800.1905273436
 20
1610.5685978801
  0
LWPOLYLINE
  5
196
330
1F
100
AcDbEntity
  8
0
  6
Continuous
 62
     7
370
    25
100
AcDbPolyline
 90
        3
 70
   128
 43
0.0
 10
814.8645333313
 20
1609.9646263775
 10
814.7021146614
 20
1610.2364111022
 10
814.592333763
 20
1610.5685978801
  0
LINE
  5
197
330
1F
100
AcDbEntity
  8
0
  6
Continuous
 62
     7
370
    25
100
AcDbLine
 10
814.592333763
 20
1610.5685978801
 30
0.0
 11
817.6963479966
 21
1610.5685978801
 31
0.0
  0
LWPOLYLINE
  5
198
330
1F
100
AcDbEntity
  8
0
  6
Continuous
 62
     7
370
    25
100
AcDbPolyline
 90
        9
 70
   128
 43
0.0
 10
817.6963479966
 20
1610.5685978801
 10
817.7172762363
 20
1610.3974021655
 10
817.7525663689
 20
1610.2364111036
 10
817.8011192172
 20
1610.0906390609
 10
817.8614225124
 20
1609.9646263795
 10
817.9315979958
 20
1609.8622979591
 10
818.0094599214
 20
1609.7868410092
 10
818.0925831343
 20
1609.740605777
 10
818.178378607
 20
1609.7250323451
  0
LWPOLYLINE
  5
199
330
1F
100
AcDbEntity
  8
0
  6
Continuous
 62
     7
370
    25
100
AcDbPolyline
 90
        3
 70
   128
 43
0.0
 10
815.2886144757
 20
1609.7250323451
 10
815.0661332653
 20
1609.7868410086
 10
814.8645333313
 20
1609.9646263775
  0
ARC
  5
19A
330
1F
100
AcDbEntity
  8
0
  6
Continuous
 62
     7
370
    25
100
AcDbCircle
 10
814.9899831437
 20
1610.166008036
 30
0.0
 40
0.3554683736876842
100
AcDbArc
 50
187.1591901882
 51
214.5082446728
  0
ARC
  5
19B
330
1F
100
AcDbEntity
  8
0
  6
Continuous
 62
     7
370
    25
100
AcDbCircle
 10
815.2790000651
 20
1610.8071495667
 30
0.0
 40
0.9389504767866309
100
AcDbArc
 50
226.8871512525
 51
243.8058075804
  0
LINE
  5
19C
330
1F
100
AcDbEntity
  8
0
  6
Continuous
 62
     7
370
    25
100
AcDbLine
 10
814.4767310777
 20
1610.5560633391
 30
0.0
 11
814.4049752939
 21
1610.5685978801
 31
0.0
  0
ARC
  5
19D
330
1F
100
AcDbEntity
  8
0
  6
Continuous
 62
     7
370
    25
100
AcDbCircle
 10
815.6101268916
 20
1610.7281583457
 30
0.0
 40
1.146386562264149
100
AcDbArc
 50
188.6338504035
 51
211.9386567672
  0
LINE
  5
19E
330
1F
100
AcDbEntity
  8
0
  6
Continuous
 62
     7
370
    25
100
AcDbLine
 10
814.592333763
 20
1610.5685978801
 30
0.0
 11
814.4767310777
 21
1610.5560633391
 31
0.0
  0
LWPOLYLINE
  5
19F
330
1F
100
AcDbEntity
  8
0
  6
Continuous
 62
     7
370
    25
100
AcDbPolyline
 90
        9
 70
   128
 43
0.0
 10
817.696347997
 20
1610.5685978738
 10
817.7685791425
 20
1610.5414700087
 10
817.8269111983
 20
1610.5220927652
 10
817.8701776923
 20
1610.5103975116
 10
817.8978891351
 20
1610.506458875
 10
817.9103506065
 20
1610.5103911899
 10
817.9069152409
 20
1610.5220850204
 10
817.8864475921
 20
1610.5414646895
 10
817.8483660541
 20
1610.5685978801
  0
ARC
  5
1A0
330
1F
100
AcDbEntity
  8
0
  6
Continuous
 62
     7
370
    25
100
AcDbCircle
 10
798.1983355133
 20
1610.6425892112
 30
0.0
 40
0.9191498472661659
100
AcDbArc
 50
273.3737472448
 51
355.3827081651
  0
LINE
  5
1A1
330
1F
100
AcDbEntity
  8
0
  6
Continuous
 62
     7
370
    25
100
AcDbLine
 10
1020.1743169037
 20
1588.7250323451
 30
0.0
 11
1020.3121671209
 21
1589.725032345
 31
0.0
  0
LINE
  5
1A2
330
1F
100
AcDbEntity
  8
0
  6
Continuous
 62
     7
370
    25
100
AcDbLine
 10
1019.2634062592
 20
1589.725032345
 30
0.0
 11
1020.3121671209
 21
1589.725032345
 31
0.0
  0
LINE
  5
1A3
330
1F
100
AcDbEntity
  8
0
  6
Continuous
 62
     7
370
    25
100
AcDbLine
 10
1020.1743169037
 20
1588.7250323451
 30
0.0
 11
1019.1465312592
 21
1588.7250323451
 31
0.0
  0
LINE
  5
1A4
330
1F
100
AcDbEntity
  8
0
  6
Continuous
 62
     7
370
    25
100
AcDbLine
 10
1020.3121671209
 20
1594.725032345
 30
0.0
 11
1019.2634062592
 21
1594.725032345
 31
0.0
  0
LINE
  5
1A5
330
1F
100
AcDbEntity
  8
0
  6
Continuous
 62
     7
370
    25
100
AcDbLine
 10
1020.3121671209
 20
1594.725032345
 30
0.0
 11
1020.3121671209
 21
1589.725032345
 31
0.0
  0
LINE
  5
1A6
330
1F
100
AcDbEntity
  8
0
  6
Continuous
 62
     7
370
    25
100
AcDbLine
 10
1020.1743169037
 20
1595.725032345
 30
0.0
 11
1020.3121671209
 21
1594.725032345
 31
0.0
  0
LINE
  5
1A7
330
1F
100
AcDbEntity
  8
0
  6
Continuous
 62
     7
370
    25
100
AcDbLine
 10
1019.1465312592
 20
1595.725032345
 30
0.0
 11
1020.1743169037
 21
1595.725032345
 31
0.0
  0
LINE
  5
1A8
330
1F
100
AcDbEntity
  8
0
  6
Continuous
 62
     7
370
    25
100
AcDbLine
 10
1207.1185895337
 20
1588.725032345
 30
0.0
 11
1207.2564397509
 21
1589.725032345
 31
0.0
  0
LINE
  5
1A9
330
1F
100
AcDbEntity
  8
0
  6
Continuous
 62
     7
370
    25
100
AcDbLine
 10
1207.2564397509
 20
1589.725032345
 30
0.0
 11
1020.3121671209
 21
1589.725032345
 31
0.0
  0
LINE
  5
1AA
330
1F
100
AcDbEntity
  8
0
  6
Continuous
 62
     7
370
    25
100
AcDbLine
 10
1207.1185895337
 20
1588.725032345
 30
0.0
 11
1020.1743169037
 21
1588.7250323451
 31
0.0
  0
LINE
  5
1AB
330
1F
100
AcDbEntity
  8
0
  6
Continuous
 62
     7
370
    25
100
AcDbLine
 10
1207.2564397509
 20
1594.725032345
 30
0.0
 11
1207.1185895337
 21
1595.725032345
 31
0.0
  0
LINE
  5
1AC
330
1F
100
AcDbEntity
  8
0
  6
Continuous
 62
     7
370
    25
100
AcDbLine
 10
1207.2564397509
 20
1594.725032345
 30
0.0
 11
1020.3121671209
 21
1594.725032345
 31
0.0
  0
LINE
  5
1AD
330
1F
100
AcDbEntity
  8
0
  6
Continuous
 62
     7
370
    25
100
AcDbLine
 10
1020.1743169037
 20
1595.725032345
 30
0.0
 11
1207.1185895337
 21
1595.725032345
 31
0.0
  0
LINE
  5
1AE
330
1F
100
AcDbEntity
  8
0
  6
Continuous
 62
     7
370
    25
100
AcDbLine
 10
1207.2564397509
 20
1589.725032345
 30
0.0
 11
1207.2564397509
 21
1594.725032345
 31
0.0
  0
LINE
  5
1AF
330
1F
100
AcDbEntity
  8
0
  6
Continuous
 62
     7
370
    25
100
AcDbLine
 10
1216.7400873613
 20
1594.725032345
 30
0.0
 11
1207.2564397509
 21
1594.725032345
 31
0.0
  0
LINE
  5
1B0
330
1F
100
AcDbEntity
  8
0
  6
Continuous
 62
     7
370
    25
100
AcDbLine
 10
1207.1185895337
 20
1595.725032345
 30
0.0
 11
1215.7400873613
 21
1595.725032345
 31
0.0
  0
LINE
  5
1B1
330
1F
100
AcDbEntity
  8
0
  6
Continuous
 62
     7
370
    25
100
AcDbLine
 10
1216.7400873613
 20
1589.725032345
 30
0.0
 11
1207.2564397509
 21
1589.725032345
 31
0.0
  0
LINE
  5
1B2
330
1F
100
AcDbEntity
  8
0
  6
Continuous
 62
     7
370
    25
100
AcDbLine
 10
1215.7400873613
 20
1588.725032345
 30
0.0
 11
1207.1185895337
 21
1588.725032345
 31
0.0
  0
LINE
  5
1B3
330
1F
100
AcDbEntity
  8
0
  6
Continuous
 62
     7
370
    25
100
AcDbLine
 10
1260.4814364458
 20
1585.7250323512
 30
0.0
 11
1260.4814364458
 21
1569.7250323512
 31
0.0
  0
LINE
  5
1B4
330
1F
100
AcDbEntity
  8
0
  6
Continuous
 62
     7
370
    25
100
AcDbLine
 10
1259.9814364458
 20
1569.7250323512
 30
0.0
 11
1260.4814364458
 21
1569.7250323512
 31
0.0
  0
LINE
  5
1B5
330
1F
100
AcDbEntity
  8
0
  6
Continuous
 62
     7
370
    25
100
AcDbLine
 10
1259.9814364458
 20
1585.7250323512
 30
0.0
 11
1259.9814364458
 21
1569.7250323512
 31
0.0
  0
LINE
  5
1B6
330
1F
100
AcDbEntity
  8
0
  6
Continuous
 62
     7
370
    25
100
AcDbLine
 10
1260.4814364458
 20
1585.7250323512
 30
0.0
 11
1259.9814364458
 21
1585.7250323512
 31
0.0
  0
LINE
  5
1B7
330
1F
100
AcDbEntity
  8
0
  6
Continuous
 62
     7
370
    25
100
AcDbLine
 10
1242.4814364462
 20
1569.7250323512
 30
0.0
 11
1259.9814364458
 21
1569.7250323512
 31
0.0
  0
LINE
  5
1B8
330
1F
100
AcDbEntity
  8
0
  6
Continuous
 62
     7
370
    25
100
AcDbLine
 10
1242.4814364464
 20
1585.7250323512
 30
0.0
 11
1242.4814364462
 21
1569.7250323512
 31
0.0
  0
LINE
  5
1B9
330
1F
100
AcDbEntity
  8
0
  6
Continuous
 62
     7
370
    25
100
AcDbLine
 10
1259.9814364458
 20
1585.7250323512
 30
0.0
 11
1242.4814364464
 21
1585.7250323512
 31
0.0
  0
LINE
  5
1BA
330
1F
100
AcDbEntity
  8
0
  6
Continuous
 62
     7
370
    25
100
AcDbLine
 10
1241.9814364461
 20
1569.7250323512
 30
0.0
 11
1242.4814364462
 21
1569.7250323512
 31
0.0
  0
LINE
  5
1BB
330
1F
100
AcDbEntity
  8
0
  6
Continuous
 62
     7
370
    25
100
AcDbLine
 10
1241.9814364464
 20
1585.7250323512
 30
0.0
 11
1241.9814364461
 21
1569.7250323512
 31
0.0
  0
LINE
  5
1BC
330
1F
100
AcDbEntity
  8
0
  6
Continuous
 62
     7
370
    25
100
AcDbLine
 10
1242.4814364464
 20
1585.7250323512
 30
0.0
 11
1241.9814364464
 21
1585.7250323512
 31
0.0
  0
LINE
  5
1BD
330
1F
100
AcDbEntity
  8
0
  6
Continuous
 62
     7
370
    25
100
AcDbLine
 10
1242.4814364464
 20
1586.2250323512
 30
0.0
 11
1242.4814364464
 21
1585.7250323512
 31
0.0
  0
LINE
  5
1BE
330
1F
100
AcDbEntity
  8
0
  6
Continuous
 62
     7
370
    25
100
AcDbLine
 10
1242.4814364464
 20
1586.2250323512
 30
0.0
 11
1259.9814364458
 21
1586.2250323512
 31
0.0
  0
LINE
  5
1BF
330
1F
100
AcDbEntity
  8
0
  6
Continuous
 62
     7
370
    25
100
AcDbLine
 10
1259.9814364458
 20
1586.2250323512
 30
0.0
 11
1259.9814364458
 21
1585.7250323512
 31
0.0
  0
ARC
  5
1C0
330
1F
100
AcDbEntity
  8
0
  6
Continuous
 62
     7
370
    25
100
AcDbCircle
 10
1259.9814364458
 20
1585.7250323512
 30
0.0
 40
0.5
100
AcDbArc
 50
0.0000000002
 51
90.0
  0
ARC
  5
1C1
330
1F
100
AcDbEntity
  8
0
  6
Continuous
 62
     7
370
    25
100
AcDbCircle
 10
1242.4814364464
 20
1585.7250323512
 30
0.0
 40
0.5000000000004547
100
AcDbArc
 50
90.0
 51
179.9999999989
  0
ARC
  5
1C2
330
1F
100
AcDbEntity
  8
0
  6
Continuous
 62
     7
370
    25
100
AcDbCircle
 10
1259.9814364458
 20
1569.7250323512
 30
0.0
 40
0.5
100
AcDbArc
 50
270.0
 51
0.0
  0
LINE
  5
1C3
330
1F
100
AcDbEntity
  8
0
  6
Continuous
 62
     7
370
    25
100
AcDbLine
 10
1259.9814364458
 20
1569.7250323512
 30
0.0
 11
1259.9814364458
 21
1569.2250323512
 31
0.0
  0
LINE
  5
1C4
330
1F
100
AcDbEntity
  8
0
  6
Continuous
 62
     7
370
    25
100
AcDbLine
 10
1259.9814364458
 20
1569.2250323512
 30
0.0
 11
1242.4814364461
 21
1569.2250323512
 31
0.0
  0
LINE
  5
1C5
330
1F
100
AcDbEntity
  8
0
  6
Continuous
 62
     7
370
    25
100
AcDbLine
 10
1242.4814364462
 20
1569.7250323512
 30
0.0
 11
1242.4814364461
 21
1569.2250323512
 31
0.0
  0
ARC
  5
1C6
330
1F
100
AcDbEntity
  8
0
  6
Continuous
 62
     7
370
    25
100
AcDbCircle
 10
1242.4814364461
 20
1569.7250323512
 30
0.0
 40
0.5
100
AcDbArc
 50
179.9999999989
 51
270.0
  0
LINE
  5
1C7
330
1F
100
AcDbEntity
  8
0
  6
Continuous
 62
     7
370
    25
100
AcDbLine
 10
625.9814364451
 20
1585.7250323512
 30
0.0
 11
625.4814364452
 21
1585.7250323512
 31
0.0
  0
LINE
  5
1C8
330
1F
100
AcDbEntity
  8
0
  6
Continuous
 62
     7
370
    25
100
AcDbLine
 10
625.9814364454
 20
1569.7250323512
 30
0.0
 11
625.9814364451
 21
1585.7250323512
 31
0.0
  0
LINE
  5
1C9
330
1F
100
AcDbEntity
  8
0
  6
Continuous
 62
     7
370
    25
100
AcDbLine
 10
625.4814364454
 20
1569.7250323512
 30
0.0
 11
625.9814364454
 21
1569.7250323512
 31
0.0
  0
LINE
  5
1CA
330
1F
100
AcDbEntity
  8
0
  6
Continuous
 62
     7
370
    25
100
AcDbLine
 10
625.4814364454
 20
1569.7250323512
 30
0.0
 11
625.4814364452
 21
1585.7250323512
 31
0.0
  0
LINE
  5
1CB
330
1F
100
AcDbEntity
  8
0
  6
Continuous
 62
     7
370
    25
100
AcDbLine
 10
607.9814364458
 20
1569.7250323512
 30
0.0
 11
607.9814364458
 21
1585.7250323512
 31
0.0
  0
LINE
  5
1CC
330
1F
100
AcDbEntity
  8
0
  6
Continuous
 62
     7
370
    25
100
AcDbLine
 10
625.4814364452
 20
1585.7250323512
 30
0.0
 11
607.9814364458
 21
1585.7250323512
 31
0.0
  0
LINE
  5
1CD
330
1F
100
AcDbEntity
  8
0
  6
Continuous
 62
     7
370
    25
100
AcDbLine
 10
607.9814364458
 20
1569.7250323512
 30
0.0
 11
625.4814364454
 21
1569.7250323512
 31
0.0
  0
ARC
  5
1CE
330
1F
100
AcDbEntity
  8
0
  6
Continuous
 62
     7
370
    25
100
AcDbCircle
 10
625.4814364451
 20
1585.7250323512
 30
0.0
 40
0.5
100
AcDbArc
 50
0.000000003
 51
90.0
  0
LINE
  5
1CF
330
1F
100
AcDbEntity
  8
0
  6
Continuous
 62
     7
370
    25
100
AcDbLine
 10
625.4814364452
 20
1585.7250323512
 30
0.0
 11
625.4814364451
 21
1586.2250323512
 31
0.0
  0
LINE
  5
1D0
330
1F
100
AcDbEntity
  8
0
  6
Continuous
 62
     7
370
    25
100
AcDbLine
 10
607.9814364458
 20
1585.7250323512
 30
0.0
 11
607.9814364458
 21
1586.2250323512
 31
0.0
  0
LINE
  5
1D1
330
1F
100
AcDbEntity
  8
0
  6
Continuous
 62
     7
370
    25
100
AcDbLine
 10
607.9814364458
 20
1586.2250323512
 30
0.0
 11
625.4814364451
 21
1586.2250323512
 31
0.0
  0
LINE
  5
1D2
330
1F
100
AcDbEntity
  8
0
  6
Continuous
 62
     7
370
    25
100
AcDbLine
 10
607.9814364458
 20
1585.7250323512
 30
0.0
 11
607.4814364458
 21
1585.7250323512
 31
0.0
  0
ARC
  5
1D3
330
1F
100
AcDbEntity
  8
0
  6
Continuous
 62
     7
370
    25
100
AcDbCircle
 10
607.9814364458
 20
1585.7250323512
 30
0.0
 40
0.5000000000001137
100
AcDbArc
 50
89.999999994
 51
180.0
  0
LINE
  5
1D4
330
1F
100
AcDbEntity
  8
0
  6
Continuous
 62
     7
370
    25
100
AcDbLine
 10
607.4814364458
 20
1569.7250323512
 30
0.0
 11
607.9814364458
 21
1569.7250323512
 31
0.0
  0
LINE
  5
1D5
330
1F
100
AcDbEntity
  8
0
  6
Continuous
 62
     7
370
    25
100
AcDbLine
 10
607.4814364458
 20
1569.7250323512
 30
0.0
 11
607.4814364458
 21
1585.7250323512
 31
0.0
  0
LINE
  5
1D6
330
1F
100
AcDbEntity
  8
0
  6
Continuous
 62
     7
370
    25
100
AcDbLine
 10
607.9814364458
 20
1569.7250323512
 30
0.0
 11
607.9814364458
 21
1569.2250323512
 31
0.0
  0
LINE
  5
1D7
330
1F
100
AcDbEntity
  8
0
  6
Continuous
 62
     7
370
    25
100
AcDbLine
 10
625.4814364454
 20
1569.2250323512
 30
0.0
 11
625.4814364454
 21
1569.7250323512
 31
0.0
  0
LINE
  5
1D8
330
1F
100
AcDbEntity
  8
0
  6
Continuous
 62
     7
370
    25
100
AcDbLine
 10
625.4814364454
 20
1569.2250323512
 30
0.0
 11
607.9814364458
 21
1569.2250323512
 31
0.0
  0
ARC
  5
1D9
330
1F
100
AcDbEntity
  8
0
  6
Continuous
 62
     7
370
    25
100
AcDbCircle
 10
607.9814364458
 20
1569.7250323512
 30
0.0
 40
0.5000000000001137
100
AcDbArc
 50
180.0
 51
270.0
  0
ARC
  5
1DA
330
1F
100
AcDbEntity
  8
0
  6
Continuous
 62
     7
370
    25
100
AcDbCircle
 10
625.4814364454
 20
1569.7250323512
 30
0.0
 40
0.5000000000004547
100
AcDbArc
 50
270.0
 51
0.000000001
  0
LINE
  5
1DB
330
1F
100
AcDbEntity
  8
0
  6
Continuous
 62
     7
370
    25
100
AcDbLine
 10
625.4814364451
 20
1586.2250323492
 30
0.0
 11
1242.4814364464
 21
1586.2250323492
 31
0.0
  0
LINE
  5
1DC
330
1F
100
AcDbEntity
  8
0
  6
Continuous
 62
     7
370
    25
100
AcDbLine
 10
1242.4814364461
 20
1569.2250323512
 30
0.0
 11
625.4814364454
 21
1569.2250323512
 31
0.0
  0
LINE
  5
1DD
330
1F
100
AcDbEntity
  8
0
  6
Continuous
 62
     7
370
    25
100
AcDbLine
 10
1503.4814342162
 20
1594.725032345
 30
0.0
 11
1216.7400873613
 21
1594.725032345
 31
0.0
  0
LINE
  5
1DE
330
1F
100
AcDbEntity
  8
0
  6
Continuous
 62
     7
370
    25
100
AcDbLine
 10
793.4814342163
 20
1594.725032345
 30
0.0
 11
553.4814342162
 21
1594.725032345
 31
0.0
  0
LINE
  5
1DF
330
1F
100
AcDbEntity
  8
0
  6
Continuous
 62
     7
370
    25
100
AcDbLine
 10
553.4814342162
 20
1299.725032345
 30
0.0
 11
1503.4814342162
 21
1299.725032345
 31
0.0
  0
LINE
  5
1E0
330
1F
100
AcDbEntity
  8
0
  6
Continuous
 62
     7
370
    25
100
AcDbLine
 10
553.4814342162
 20
1594.725032345
 30
0.0
 11
553.4814342162
 21
1299.725032345
 31
0.0
  0
LINE
  5
1E1
330
1F
100
AcDbEntity
  8
0
  6
Continuous
 62
     7
370
    25
100
AcDbLine
 10
1503.4814342162
 20
1299.725032345
 30
0.0
 11
1503.4814342162
 21
1594.725032345
 31
0.0
  0
LINE
  5
1E2
330
1F
100
AcDbEntity
  8
0
  6
Continuous
 62
     7
370
    25
100
AcDbLine
 10
1508.4814342162
 20
1299.725032345
 30
0.0
 11
1503.4814342162
 21
1299.725032345
 31
0.0
  0
LINE
  5
1E3
330
1F
100
AcDbEntity
  8
0
  6
Continuous
 62
     7
370
    25
100
AcDbLine
 10
553.4814342162
 20
1299.725032345
 30
0.0
 11
548.4814342162
 21
1299.725032345
 31
0.0
  0
LINE
  5
1E4
330
1F
100
AcDbEntity
  8
0
  6
Continuous
 62
     7
370
    25
100
AcDbLine
 10
1628.4814342162
 20
1799.725032345
 30
0.0
 11
428.4814342162
 21
1799.725032345
 31
0.0
  0
LINE
  5
1E5
330
1F
100
AcDbEntity
  8
0
  6
Continuous
 62
     7
370
    25
100
AcDbLine
 10
1628.4814342162
 20
1299.725032345
 30
0.0
 11
1628.4814342162
 21
1799.725032345
 31
0.0
  0
LINE
  5
1E6
330
1F
100
AcDbEntity
  8
0
  6
Continuous
 62
     7
370
    25
100
AcDbLine
 10
1508.4814342162
 20
1299.725032345
 30
0.0
 11
1508.4814342162
 21
1599.725032345
 31
0.0
  0
LINE
  5
1E7
330
1F
100
AcDbEntity
  8
0
  6
Continuous
 62
     7
370
    25
100
AcDbLine
 10
1508.4814342162
 20
1599.725032345
 30
0.0
 11
823.4814342162
 21
1599.725032345
 31
0.0
  0
LINE
  5
1E8
330
1F
100
AcDbEntity
  8
0
  6
Continuous
 62
     7
370
    25
100
AcDbLine
 10
793.4814342163
 20
1599.725032345
 30
0.0
 11
548.4814342162
 21
1599.725032345
 31
0.0
  0
LINE
  5
1E9
330
1F
100
AcDbEntity
  8
0
  6
Continuous
 62
     7
370
    25
100
AcDbLine
 10
428.4814342162
 20
1299.725032345
 30
0.0
 11
548.4814342162
 21
1299.725032345
 31
0.0
  0
LINE
  5
1EA
330
1F
100
AcDbEntity
  8
0
  6
Continuous
 62
     7
370
    25
100
AcDbLine
 10
1508.4814342162
 20
1299.725032345
 30
0.0
 11
1628.4814342162
 21
1299.725032345
 31
0.0
  0
LINE
  5
1EB
330
1F
100
AcDbEntity
  8
0
  6
Continuous
 62
     7
370
    25
100
AcDbLine
 10
428.4814342162
 20
1799.725032345
 30
0.0
 11
428.4814342162
 21
1299.725032345
 31
0.0
  0
LINE
  5
1EC
330
1F
100
AcDbEntity
  8
0
  6
Continuous
 62
     7
370
    25
100
AcDbLine
 10
548.4814342162
 20
1599.725032345
 30
0.0
 11
548.4814342162
 21
1299.725032345
 31
0.0
  0
LINE
  5
1ED
330
1F
100
AcDbEntity
  8
0
  6
Continuous
 62
     7
370
    25
100
AcDbLine
 10
810.2345592163
 20
1598.7250323451
 30
0.0
 11
823.4814342162
 21
1598.7250323451
 31
0.0
  0
LINE
  5
1EE
330
1F
100
AcDbEntity
  8
0
  6
Continuous
 62
     7
370
    25
100
AcDbLine
 10
806.1781278253
 20
1611.4690163761
 30
0.0
 11
806.1232531104
 21
1610.5685978801
 31
0.0
  0
LINE
  5
1EF
330
1F
100
AcDbEntity
  8
0
  6
Continuous
 62
     7
370
    25
100
AcDbLine
 10
805.5856105494
 20
1610.5685978801
 30
0.0
 11
805.6404852624
 21
1611.4690163761
 31
0.0
  0
LINE
  5
1F0
330
1F
100
AcDbEntity
  8
0
  6
Continuous
 62
     7
370
    25
100
AcDbLine
 10
803.9456434019
 20
1611.4690163761
 30
0.0
 11
803.8499977282
 21
1610.5685978801
 31
0.0
  0
LINE
  5
1F1
330
1F
100
AcDbEntity
  8
0
  6
Continuous
 62
     7
370
    25
100
AcDbLine
 10
809.2272673108
 20
1610.5685978801
 30
0.0
 11
809.209226203
 21
1611.4690163761
 31
0.0
  0
LINE
  5
1F2
330
1F
100
AcDbEntity
  8
0
  6
Continuous
 62
     7
370
    25
100
AcDbLine
 10
812.9497056858
 20
1610.5685978801
 30
0.0
 11
812.8512758803
 21
1611.4690163761
 31
0.0
  0
LINE
  5
1F3
330
1F
100
AcDbEntity
  8
0
  6
Continuous
 62
     7
370
    25
100
AcDbLine
 10
809.5095314698
 20
1611.4690163761
 30
0.0
 11
809.5275725775
 21
1610.5685978801
 31
0.0
  0
LINE
  5
1F4
330
1F
100
AcDbEntity
  8
0
  6
Continuous
 62
     7
370
    25
100
AcDbLine
 10
813.3389395847
 20
1611.4690163761
 30
0.0
 11
813.4373693865
 21
1610.5685978801
 31
0.0
  0
LINE
  5
1F5
330
1F
100
AcDbEntity
  8
0
  6
Continuous
 62
     7
370
    25
100
AcDbLine
 10
814.4049752939
 20
1610.5685978801
 30
0.0
 11
814.2838156409
 21
1611.4690163761
 31
0.0
  0
LINE
  5
1F6
330
1F
100
AcDbEntity
  8
0
  6
Continuous
 62
     7
370
    25
100
AcDbLine
 10
803.6126604162
 20
1610.5685978801
 30
0.0
 11
803.7083060899
 21
1611.4690163761
 31
0.0
  0
LINE
  5
1F7
330
1F
100
AcDbEntity
  8
0
  6
Continuous
 62
     7
370
    25
100
AcDbLine
 10
800.3665617114
 20
1611.4690163761
 30
0.0
 11
800.1905273436
 21
1610.5685978801
 31
0.0
  0
LINE
  5
1F8
330
1F
100
AcDbEntity
  8
0
  6
Continuous
 62
     7
370
    25
100
AcDbLine
 10
814.47117411
 20
1611.4690163761
 30
0.0
 11
814.592333763
 21
1610.5685978801
 31
0.0
  0
LINE
  5
1F9
330
1F
100
AcDbEntity
  8
0
  6
Continuous
 62
     7
370
    25
100
AcDbLine
 10
817.6963479957
 20
1610.5685978801
 30
0.0
 11
817.5022725168
 21
1611.4690163761
 31
0.0
  0
LINE
  5
1FA
330
1F
100
AcDbEntity
  8
0
  6
Continuous
 62
     7
370
    25
100
AcDbLine
 10
799.1145023784
 20
1610.5685978801
 30
0.0
 11
799.9026811273
 21
1610.5685978801
 31
0.0
  0
LINE
  5
1FB
330
1F
100
AcDbEntity
  8
0
  6
Continuous
 62
     7
370
    25
100
AcDbLine
 10
799.308577854
 20
1611.4690163761
 30
0.0
 11
799.1145023784
 21
1610.5685978801
 31
0.0
  0
LWPOLYLINE
  5
1FC
330
1F
100
AcDbEntity
  8
0
  6
Continuous
 62
     7
370
    25
100
AcDbPolyline
 90
        3
 70
   128
 43
0.0
 10
799.0539996502
 20
1610.5152906761
 10
799.0574538783
 20
1610.5237132243
 10
799.1145023784
 20
1610.5685978801
  0
LINE
  5
1FD
330
1F
100
AcDbEntity
  8
0
  6
Continuous
 62
     7
370
    25
100
AcDbLine
 10
1241.9814364464
 20
1585.7250323492
 30
0.0
 11
625.9814364451
 21
1585.7250323492
 31
0.0
  0
LINE
  5
1FE
330
1F
100
AcDbEntity
  8
0
  6
Continuous
 62
     7
370
    25
100
AcDbLine
 10
1241.9814364461
 20
1569.7250323512
 30
0.0
 11
625.9814364454
 21
1569.7250323512
 31
0.0
  0
DIMENSION
  5
1FF
330
1F
100
AcDbEntity
  8
FORMAT
100
AcDbDimension
  2
_D
 10
1260.4814364458
 20
1437.605730913
 30
0.0
 11
933.9814364458
 21
1437.605730913
 31
0.0
 70
   160
  1
<>
 71
     2
 42
-1.0
  3
SLDDIMSTYLE0
100
AcDbAlignedDimension
 13
607.4814364458
 23
1569.7250323512
 33
0.0
 14
1260.4814364458
 24
1569.7250323512
 34
0.0
 50
0.0
100
AcDbRotatedDimension
  0
DIMENSION
  5
20A
330
1F
100
AcDbEntity
  8
FORMAT
100
AcDbDimension
  2
_D_1
 10
1303.0202345932
 20
1586.2250323512
 30
0.0
 11
1303.0202345932
 21
1520.4824960262
 31
0.0
 70
   160
  1
<>
 71
     2
 42
-1.0
  3
SLDDIMSTYLE1
100
AcDbAlignedDimension
 13
1259.9814364458
 23
1569.2250323512
 33
0.0
 14
1259.9814364458
 24
1586.2250323512
 34
0.0
 50
90.0
100
AcDbRotatedDimension
  0
DIMENSION
  5
217
330
1F
100
AcDbEntity
  8
FORMAT
100
AcDbDimension
  2
_D_2
 10
504.4061093794
 20
1708.225032345
 30
0.0
 11
504.4061093794
 21
1660.725032345
 31
0.0
 70
   160
  1
<>
 71
     2
 42
-1.0
  3
SLDDIMSTYLE0
100
AcDbAlignedDimension
 13
538.4814342162
 23
1613.225032345
 33
0.0
 14
538.4814342162
 24
1708.225032345
 34
0.0
 50
90.0
100
AcDbRotatedDimension
  0
DIMENSION
  5
221
330
1F
100
AcDbEntity
  8
FORMAT
100
AcDbDimension
  2
_D_3
 10
1217.9814342162
 20
1748.818208806
 30
0.0
 11
873.4814342162
 21
1748.818208806
 31
0.0
 70
   160
  1
<>
 71
     2
 42
-1.0
  3
SLDDIMSTYLE0
100
AcDbAlignedDimension
 13
528.9814342162
 23
1703.225032345
 33
0.0
 14
1217.9814342162
 24
1703.2250323449
 34
0.0
 50
0.0
100
AcDbRotatedDimension
  0
DIMENSION
  5
22B
330
1F
100
AcDbEntity
  8
FORMAT
100
AcDbDimension
  2
_D_4
 10
808.4814342162
 20
1384.4362569477
 30
0.0
 11
668.4814342162
 21
1384.4362569477
 31
0.0
 70
   160
  1
<>
 71
     2
 42
-1.0
  3
SLDDIMSTYLE0
100
AcDbAlignedDimension
 13
528.4814342162
 23
1354.871995177
 33
0.0
 14
808.4814342162
 24
1580.2250323451
 34
0.0
100
AcDbRotatedDimension
  0
LINE
  5
234
330
1F
100
AcDbEntity
  8
0
  6
CENTER
 62
     7
370
    18
100
AcDbLine
 10
652.7545896446
 20
1859.725032345
 30
0.0
 11
652.7545896446
 21
1239.725032345
 31
0.0
  0
LINE
  5
235
330
1F
100
AcDbEntity
  8
0
  6
Continuous
 62
     7
370
    18
100
AcDbLine
 10
563.8545896445
 20
1845.725032345
 30
0.0
 11
652.7545896445
 21
1845.725032345
 31
0.0
  0
SOLID
  5
236
330
1F
100
AcDbEntity
  8
0
  6
Continuous
 62
     7
370
    18
100
AcDbTrace
 10
652.7545896445
 20
1845.725032345
 30
0.0
 11
608.3045896445
 21
1852.837032345
 31
0.0
 12
608.3045896445
 22
1838.613032345
 32
0.0
 13
608.3045896445
 23
1838.613032345
 33
0.0
  0
LINE
  5
237
330
1F
100
AcDbEntity
  8
0
  6
Continuous
 62
     7
370
    18
100
AcDbLine
 10
563.8545896445
 20
1253.725032345
 30
0.0
 11
652.7545896445
 21
1253.725032345
 31
0.0
  0
SOLID
  5
238
330
1F
100
AcDbEntity
  8
0
  6
Continuous
 62
     7
370
    18
100
AcDbTrace
 10
652.7545896445
 20
1253.725032345
 30
0.0
 11
608.3045896445
 21
1260.837032345
 31
0.0
 12
608.3045896445
 22
1246.613032345
 32
0.0
 13
608.3045896445
 23
1246.613032345
 33
0.0
  0
MTEXT
  5
239
330
1F
100
AcDbEntity
  8
0
  6
Continuous
 62
     7
100
AcDbMText
 10
563.8545896445
 20
1899.4234228632
 30
0.0
 40
35.0
 41
0.0
 71
     1
 72
     1
  1
A
  7
SLDTEXTSTYLE0
 73
     1
 44
1.0
  0
MTEXT
  5
23A
330
1F
100
AcDbEntity
  8
0
  6
Continuous
 62
     7
100
AcDbMText
 10
563.8545896445
 20
1235.8434683024
 30
0.0
 40
35.0
 41
0.0
 71
     1
 72
     1
  1
A
  7
SLDTEXTSTYLE0
 73
     1
 44
1.0
  0
LINE
  5
23B
330
1F
100
AcDbEntity
  8
FORMAT
  6
CENTERX2
370
    18
100
AcDbLine
 10
808.4814342162
 20
1580.2250323451
 30
0.0
 11
808.4814342163
 21
1623.5250323451
 31
0.0
  0
LINE
  5
23C
330
1F
100
AcDbEntity
  8
FORMAT
  6
CENTERX2
370
    18
100
AcDbLine
 10
528.4814342162
 20
1468.725032345
 30
0.0
 11
528.4814342162
 21
1354.871995177
 31
0.0
  0
ARC
  5
23D
330
1F
100
AcDbEntity
  8
0
  6
Continuous
 62
     7
370
    25
100
AcDbCircle
 10
1197.9814342162
 20
844.9576068591
 30
0.0
 40
1.999999999999894
100
AcDbArc
 50
14.4775121862
 51
165.5224878125
  0
ARC
  5
23E
330
1F
100
AcDbEntity
  8
0
  6
Continuous
 62
     7
370
    25
100
AcDbCircle
 10
1178.4814342162
 20
844.9576068591
 30
0.0
 40
3.250000000000158
100
AcDbArc
 50
8.8498831004
 51
171.1501169005
  0
ARC
  5
23F
330
1F
100
AcDbEntity
  8
0
  6
Continuous
 62
     7
370
    25
100
AcDbCircle
 10
952.4814342162
 20
844.9576068591
 30
0.0
 40
3.249999999996354
100
AcDbArc
 50
8.8498830993
 51
171.1501169007
  0
ARC
  5
240
330
1F
100
AcDbEntity
  8
0
  6
Continuous
 62
     7
370
    25
100
AcDbCircle
 10
885.4814342162
 20
844.9576068591
 30
0.0
 40
3.00000000000034
100
AcDbArc
 50
9.5940682278
 51
170.4059317722
  0
ARC
  5
241
330
1F
100
AcDbEntity
  8
0
  6
Continuous
 62
     7
370
    25
100
AcDbCircle
 10
761.4814342162
 20
844.9576068591
 30
0.0
 40
3.000000000000232
100
AcDbArc
 50
9.594068228
 51
170.4059317719
  0
ARC
  5
242
330
1F
100
AcDbEntity
  8
0
  6
Continuous
 62
     7
370
    25
100
AcDbCircle
 10
745.4814342162
 20
844.9576068591
 30
0.0
 40
3.249999999996314
100
AcDbArc
 50
8.8498830994
 51
171.1501169005
  0
ARC
  5
243
330
1F
100
AcDbEntity
  8
0
  6
Continuous
 62
     7
370
    25
100
AcDbCircle
 10
578.4814342162
 20
844.9576068591
 30
0.0
 40
2.000000000000544
100
AcDbArc
 50
14.4775121877
 51
165.5224878124
  0
ARC
  5
244
330
1F
100
AcDbEntity
  8
0
  6
Continuous
 62
     7
370
    25
100
AcDbCircle
 10
548.9814342162
 20
844.9576068591
 30
0.0
 40
2.000000000000513
100
AcDbArc
 50
14.4775121876
 51
165.5224878126
  0
LINE
  5
245
330
1F
100
AcDbEntity
  8
0
  6
Continuous
 62
     7
370
    25
100
AcDbLine
 10
1208.4814342162
 20
851.4576068591
 30
0.0
 11
1208.4814342162
 21
845.4576068591
 31
0.0
  0
LINE
  5
246
330
1F
100
AcDbEntity
  8
0
  6
Continuous
 62
     7
370
    25
100
AcDbLine
 10
538.4814342162
 20
845.4576068591
 30
0.0
 11
538.4814342162
 21
851.4576068591
 31
0.0
  0
ARC
  5
247
330
1F
100
AcDbEntity
  8
0
  6
Continuous
 62
     7
370
    25
100
AcDbCircle
 10
548.9814342162
 20
844.9576068591
 30
0.0
 40
2.000000000000655
100
AcDbArc
 50
165.5224878126
 51
180.0000000001
  0
LINE
  5
248
330
1F
100
AcDbEntity
  8
0
  6
Continuous
 62
     7
370
    25
100
AcDbLine
 10
538.4814342162
 20
845.4576068591
 30
0.0
 11
538.4814342162
 21
844.9576068591
 31
0.0
  0
ARC
  5
249
330
1F
100
AcDbEntity
  8
0
  6
Continuous
 62
     7
370
    25
100
AcDbCircle
 10
548.9814342162
 20
844.9576068591
 30
0.0
 40
2.0
100
AcDbArc
 50
180.0000000001
 51
194.4775121861
  0
LINE
  5
24A
330
1F
100
AcDbEntity
  8
0
  6
Continuous
 62
     7
370
    25
100
AcDbLine
 10
538.4814342162
 20
844.9576068591
 30
0.0
 11
538.4814342162
 21
844.4576068591
 31
0.0
  0
ARC
  5
24B
330
1F
100
AcDbEntity
  8
0
  6
Continuous
 62
     7
370
    25
100
AcDbCircle
 10
548.9814342162
 20
844.9576068591
 30
0.0
 40
2.00000000000005
100
AcDbArc
 50
194.4775121861
 51
345.5224878139
  0
ARC
  5
24C
330
1F
100
AcDbEntity
  8
0
  6
Continuous
 62
     7
370
    25
100
AcDbCircle
 10
578.4814342162
 20
844.9576068591
 30
0.0
 40
2.00000000000023
100
AcDbArc
 50
194.4775121861
 51
345.5224878141
  0
ARC
  5
24D
330
1F
100
AcDbEntity
  8
0
  6
Continuous
 62
     7
370
    25
100
AcDbCircle
 10
745.4814342162
 20
844.9576068591
 30
0.0
 40
3.249999999995996
100
AcDbArc
 50
188.8498830984
 51
351.1501169016
  0
ARC
  5
24E
330
1F
100
AcDbEntity
  8
0
  6
Continuous
 62
     7
370
    25
100
AcDbCircle
 10
761.4814342162
 20
844.9576068591
 30
0.0
 40
3.000000000000107
100
AcDbArc
 50
189.5940682267
 51
350.4059317733
  0
ARC
  5
24F
330
1F
100
AcDbEntity
  8
0
  6
Continuous
 62
     7
370
    25
100
AcDbCircle
 10
885.4814342162
 20
844.9576068591
 30
0.0
 40
3.000000000000111
100
AcDbArc
 50
189.5940682269
 51
350.4059317731
  0
ARC
  5
250
330
1F
100
AcDbEntity
  8
0
  6
Continuous
 62
     7
370
    25
100
AcDbCircle
 10
952.4814342162
 20
844.9576068591
 30
0.0
 40
3.249999999995996
100
AcDbArc
 50
188.8498830984
 51
351.1501169016
  0
ARC
  5
251
330
1F
100
AcDbEntity
  8
0
  6
Continuous
 62
     7
370
    25
100
AcDbCircle
 10
1178.4814342162
 20
844.9576068591
 30
0.0
 40
3.250000000000168
100
AcDbArc
 50
188.8498830983
 51
351.1501169018
  0
ARC
  5
252
330
1F
100
AcDbEntity
  8
0
  6
Continuous
 62
     7
370
    25
100
AcDbCircle
 10
1197.9814342162
 20
844.9576068591
 30
0.0
 40
2.000000000000204
100
AcDbArc
 50
194.4775121856
 51
345.5224878144
  0
LINE
  5
253
330
1F
100
AcDbEntity
  8
0
  6
Continuous
 62
     7
370
    25
100
AcDbLine
 10
1208.4814342162
 20
844.4576068591
 30
0.0
 11
1208.4814342162
 21
832.9576068591
 31
0.0
  0
LINE
  5
254
330
1F
100
AcDbEntity
  8
0
  6
Continuous
 62
     7
370
    25
100
AcDbLine
 10
538.4814342162
 20
832.9576068591
 30
0.0
 11
538.4814342162
 21
844.4576068591
 31
0.0
  0
ARC
  5
255
330
1F
100
AcDbEntity
  8
0
  6
Continuous
 62
     7
370
    25
100
AcDbCircle
 10
745.4814342162
 20
768.9576068591
 30
0.0
 40
3.249999999996298
100
AcDbArc
 50
8.8498830984
 51
171.1501169016
  0
ARC
  5
256
330
1F
100
AcDbEntity
  8
0
  6
Continuous
 62
     7
370
    25
100
AcDbCircle
 10
578.4814342162
 20
768.9576068591
 30
0.0
 40
2.000000000000075
100
AcDbArc
 50
14.4775121861
 51
165.5224878138
  0
ARC
  5
257
330
1F
100
AcDbEntity
  8
0
  6
Continuous
 62
     7
370
    25
100
AcDbCircle
 10
548.9814342162
 20
768.9576068591
 30
0.0
 40
2.000000000000057
100
AcDbArc
 50
14.4775121862
 51
165.5224878138
  0
LINE
  5
258
330
1F
100
AcDbEntity
  8
0
  6
Continuous
 62
     7
370
    25
100
AcDbLine
 10
538.4814342162
 20
769.4576068591
 30
0.0
 11
538.4814342162
 21
779.1576068591
 31
0.0
  0
ARC
  5
259
330
1F
100
AcDbEntity
  8
0
  6
Continuous
 62
     7
370
    25
100
AcDbCircle
 10
1197.9814342162
 20
768.9576068591
 30
0.0
 40
2.000000000000555
100
AcDbArc
 50
14.4775121862
 51
165.5224878136
  0
ARC
  5
25A
330
1F
100
AcDbEntity
  8
0
  6
Continuous
 62
     7
370
    25
100
AcDbCircle
 10
1178.4814342162
 20
768.9576068591
 30
0.0
 40
3.250000000000196
100
AcDbArc
 50
8.8498830987
 51
171.1501169013
  0
ARC
  5
25B
330
1F
100
AcDbEntity
  8
0
  6
Continuous
 62
     7
370
    25
100
AcDbCircle
 10
952.4814342162
 20
768.9576068591
 30
0.0
 40
3.249999999995926
100
AcDbArc
 50
8.8498830985
 51
171.1501169015
  0
ARC
  5
25C
330
1F
100
AcDbEntity
  8
0
  6
Continuous
 62
     7
370
    25
100
AcDbCircle
 10
885.4814342162
 20
768.9576068591
 30
0.0
 40
3.000000000000036
100
AcDbArc
 50
9.5940682269
 51
170.4059317731
  0
ARC
  5
25D
330
1F
100
AcDbEntity
  8
0
  6
Continuous
 62
     7
370
    25
100
AcDbCircle
 10
761.4814342162
 20
768.9576068591
 30
0.0
 40
3.000000000000508
100
AcDbArc
 50
9.5940682272
 51
170.4059317729
  0
LINE
  5
25E
330
1F
100
AcDbEntity
  8
0
  6
Continuous
 62
     7
370
    25
100
AcDbLine
 10
1208.4814342162
 20
779.1576068591
 30
0.0
 11
1208.4814342162
 21
769.4576068591
 31
0.0
  0
ARC
  5
25F
330
1F
100
AcDbEntity
  8
0
  6
Continuous
 62
     7
370
    25
100
AcDbCircle
 10
1197.9814342162
 20
768.9576068591
 30
0.0
 40
2.000000000000555
100
AcDbArc
 50
0.0000000001
 51
14.4775121862
  0
LINE
  5
260
330
1F
100
AcDbEntity
  8
0
  6
Continuous
 62
     7
370
    25
100
AcDbLine
 10
1208.4814342162
 20
768.9576068591
 30
0.0
 11
1208.4814342162
 21
769.4576068591
 31
0.0
  0
ARC
  5
261
330
1F
100
AcDbEntity
  8
0
  6
Continuous
 62
     7
370
    25
100
AcDbCircle
 10
1197.9814342162
 20
844.9576068591
 30
0.0
 40
2.000000000000062
100
AcDbArc
 50
345.5224878144
 51
0.0000000003
  0
LINE
  5
262
330
1F
100
AcDbEntity
  8
0
  6
Continuous
 62
     7
370
    25
100
AcDbLine
 10
1208.4814342162
 20
844.4576068591
 30
0.0
 11
1208.4814342162
 21
844.9576068591
 31
0.0
  0
ARC
  5
263
330
1F
100
AcDbEntity
  8
0
  6
Continuous
 62
     7
370
    25
100
AcDbCircle
 10
1197.9814342162
 20
844.9576068591
 30
0.0
 40
2.000000000000036
100
AcDbArc
 50
0.0000000003
 51
14.4775121862
  0
LINE
  5
264
330
1F
100
AcDbEntity
  8
0
  6
Continuous
 62
     7
370
    25
100
AcDbLine
 10
1208.4814342162
 20
844.9576068591
 30
0.0
 11
1208.4814342162
 21
845.4576068591
 31
0.0
  0
LINE
  5
265
330
1F
100
AcDbEntity
  8
0
  6
Continuous
 62
     7
370
    25
100
AcDbLine
 10
1208.4814342162
 20
832.9576068591
 30
0.0
 11
1208.4814342162
 21
832.4576068591
 31
0.0
  0
LINE
  5
266
330
1F
100
AcDbEntity
  8
0
  6
Continuous
 62
     7
370
    25
100
AcDbLine
 10
538.4814342162
 20
832.4576068591
 30
0.0
 11
538.4814342162
 21
832.9576068591
 31
0.0
  0
ARC
  5
267
330
1F
100
AcDbEntity
  8
0
  6
Continuous
 62
     7
370
    25
100
AcDbCircle
 10
548.9814342162
 20
768.9576068591
 30
0.0
 40
2.000000000000063
100
AcDbArc
 50
179.9999999998
 51
194.4775121859
  0
LINE
  5
268
330
1F
100
AcDbEntity
  8
0
  6
Continuous
 62
     7
370
    25
100
AcDbLine
 10
538.4814342162
 20
768.9576068591
 30
0.0
 11
538.4814342162
 21
768.4576068591
 31
0.0
  0
ARC
  5
269
330
1F
100
AcDbEntity
  8
0
  6
Continuous
 62
     7
370
    25
100
AcDbCircle
 10
952.4814342162
 20
768.9576068591
 30
0.0
 40
3.249999999995978
100
AcDbArc
 50
188.8498830984
 51
351.1501169016
  0
ARC
  5
26A
330
1F
100
AcDbEntity
  8
0
  6
Continuous
 62
     7
370
    25
100
AcDbCircle
 10
1178.4814342162
 20
768.9576068591
 30
0.0
 40
3.249999999999943
100
AcDbArc
 50
188.8498830983
 51
351.1501169018
  0
ARC
  5
26B
330
1F
100
AcDbEntity
  8
0
  6
Continuous
 62
     7
370
    25
100
AcDbCircle
 10
1197.9814342162
 20
768.9576068591
 30
0.0
 40
1.999999999999927
100
AcDbArc
 50
194.4775121873
 51
345.5224878127
  0
ARC
  5
26C
330
1F
100
AcDbEntity
  8
0
  6
Continuous
 62
     7
370
    25
100
AcDbCircle
 10
548.9814342162
 20
768.9576068591
 30
0.0
 40
2.000000000000063
100
AcDbArc
 50
194.4775121859
 51
345.5224878142
  0
ARC
  5
26D
330
1F
100
AcDbEntity
  8
0
  6
Continuous
 62
     7
370
    25
100
AcDbCircle
 10
578.4814342162
 20
768.9576068591
 30
0.0
 40
2.000000000000094
100
AcDbArc
 50
194.4775121858
 51
345.5224878144
  0
ARC
  5
26E
330
1F
100
AcDbEntity
  8
0
  6
Continuous
 62
     7
370
    25
100
AcDbCircle
 10
745.4814342162
 20
768.9576068591
 30
0.0
 40
3.249999999995978
100
AcDbArc
 50
188.8498830984
 51
351.1501169015
  0
ARC
  5
26F
330
1F
100
AcDbEntity
  8
0
  6
Continuous
 62
     7
370
    25
100
AcDbCircle
 10
761.4814342162
 20
768.9576068591
 30
0.0
 40
3.000000000000063
100
AcDbArc
 50
189.5940682268
 51
350.4059317733
  0
ARC
  5
270
330
1F
100
AcDbEntity
  8
0
  6
Continuous
 62
     7
370
    25
100
AcDbCircle
 10
885.4814342162
 20
768.9576068591
 30
0.0
 40
3.00000000000013
100
AcDbArc
 50
189.5940682269
 51
350.4059317731
  0
LINE
  5
271
330
1F
100
AcDbEntity
  8
0
  6
Continuous
 62
     7
370
    25
100
AcDbLine
 10
538.4814342162
 20
762.4576068591
 30
0.0
 11
538.4814342162
 21
768.4576068591
 31
0.0
  0
LINE
  5
272
330
1F
100
AcDbEntity
  8
0
  6
Continuous
 62
     7
370
    25
100
AcDbLine
 10
1208.4814342162
 20
768.4576068591
 30
0.0
 11
1208.4814342162
 21
762.4576068591
 31
0.0
  0
ARC
  5
273
330
1F
100
AcDbEntity
  8
0
  6
Continuous
 62
     7
370
    25
100
AcDbCircle
 10
1197.9814342162
 20
768.9576068591
 30
0.0
 40
2.0
100
AcDbArc
 50
345.5224878127
 51
0.0000000001
  0
LINE
  5
274
330
1F
100
AcDbEntity
  8
0
  6
Continuous
 62
     7
370
    25
100
AcDbLine
 10
1208.4814342162
 20
768.4576068591
 30
0.0
 11
1208.4814342162
 21
768.9576068591
 31
0.0
  0
ARC
  5
275
330
1F
100
AcDbEntity
  8
0
  6
Continuous
 62
     7
370
    25
100
AcDbCircle
 10
548.9814342162
 20
768.9576068591
 30
0.0
 40
2.0
100
AcDbArc
 50
165.5224878138
 51
179.9999999998
  0
LINE
  5
276
330
1F
100
AcDbEntity
  8
0
  6
Continuous
 62
     7
370
    25
100
AcDbLine
 10
538.4814342162
 20
769.4576068591
 30
0.0
 11
538.4814342162
 21
768.9576068591
 31
0.0
  0
LINE
  5
277
330
1F
100
AcDbEntity
  8
0
  6
Continuous
 62
     7
370
    25
100
AcDbLine
 10
1208.4814342162
 20
852.4576068591
 30
0.0
 11
538.4814342162
 21
852.4576068591
 31
0.0
  0
LINE
  5
278
330
1F
100
AcDbEntity
  8
0
  6
Continuous
 62
     7
370
    25
100
AcDbLine
 10
1208.4814342162
 20
851.4576068591
 30
0.0
 11
1208.4814342162
 21
852.4576068591
 31
0.0
  0
LINE
  5
279
330
1F
100
AcDbEntity
  8
0
  6
Continuous
 62
     7
370
    25
100
AcDbLine
 10
538.4814342162
 20
852.4576068591
 30
0.0
 11
538.4814342162
 21
851.4576068591
 31
0.0
  0
LINE
  5
27A
330
1F
100
AcDbEntity
  8
0
  6
Continuous
 62
     7
370
    25
100
AcDbLine
 10
538.4814342162
 20
761.4576068591
 30
0.0
 11
1208.4814342162
 21
761.4576068591
 31
0.0
  0
LINE
  5
27B
330
1F
100
AcDbEntity
  8
0
  6
Continuous
 62
     7
370
    25
100
AcDbLine
 10
538.4814342162
 20
762.4576068591
 30
0.0
 11
538.4814342162
 21
761.4576068591
 31
0.0
  0
LINE
  5
27C
330
1F
100
AcDbEntity
  8
0
  6
Continuous
 62
     7
370
    25
100
AcDbLine
 10
1208.4814342162
 20
761.4576068591
 30
0.0
 11
1208.4814342162
 21
762.4576068591
 31
0.0
  0
ARC
  5
27D
330
1F
100
AcDbEntity
  8
0
  6
Continuous
 62
     7
370
    25
100
AcDbCircle
 10
885.4814342162
 20
844.9576068591
 30
0.0
 40
3.000000000000227
100
AcDbArc
 50
170.4059317722
 51
180.0000000001
  0
ARC
  5
27E
330
1F
100
AcDbEntity
  8
0
  6
Continuous
 62
     7
370
    25
100
AcDbCircle
 10
761.4814342162
 20
844.9576068591
 30
0.0
 40
3.000000000000232
100
AcDbArc
 50
0.0000000001
 51
9.594068228
  0
ARC
  5
27F
330
1F
100
AcDbEntity
  8
0
  6
Continuous
 62
     7
370
    25
100
AcDbCircle
 10
1197.9814342162
 20
844.9576068591
 30
0.0
 40
2.000000000000007
100
AcDbArc
 50
165.5224878124
 51
179.9999999991
  0
ARC
  5
280
330
1F
100
AcDbEntity
  8
0
  6
Continuous
 62
     7
370
    25
100
AcDbCircle
 10
1178.4814342162
 20
844.9576068591
 30
0.0
 40
3.25
100
AcDbArc
 50
0.0000000005
 51
8.8498831004
  0
ARC
  5
281
330
1F
100
AcDbEntity
  8
0
  6
Continuous
 62
     7
370
    25
100
AcDbCircle
 10
952.4814342162
 20
844.9576068591
 30
0.0
 40
3.249999999996215
100
AcDbArc
 50
359.9999999999
 51
8.8498830993
  0
ARC
  5
282
330
1F
100
AcDbEntity
  8
0
  6
Continuous
 62
     7
370
    25
100
AcDbCircle
 10
1178.4814342162
 20
844.9576068591
 30
0.0
 40
3.250000000000227
100
AcDbArc
 50
171.1501169005
 51
179.9999999999
  0
ARC
  5
283
330
1F
100
AcDbEntity
  8
0
  6
Continuous
 62
     7
370
    25
100
AcDbCircle
 10
745.4814342162
 20
844.9576068591
 30
0.0
 40
3.249999999995907
100
AcDbArc
 50
359.9999999999
 51
8.8498830994
  0
ARC
  5
284
330
1F
100
AcDbEntity
  8
0
  6
Continuous
 62
     7
370
    25
100
AcDbCircle
 10
761.4814342162
 20
844.9576068591
 30
0.0
 40
3.000000000000114
100
AcDbArc
 50
170.4059317719
 51
179.9999999999
  0
ARC
  5
285
330
1F
100
AcDbEntity
  8
0
  6
Continuous
 62
     7
370
    25
100
AcDbCircle
 10
578.4814342162
 20
844.9576068591
 30
0.0
 40
2.00000000000012
100
AcDbArc
 50
165.5224878124
 51
180.0000000001
  0
ARC
  5
286
330
1F
100
AcDbEntity
  8
0
  6
Continuous
 62
     7
370
    25
100
AcDbCircle
 10
548.9814342162
 20
844.9576068591
 30
0.0
 40
2.00000000000001
100
AcDbArc
 50
359.9999999999
 51
14.4775121876
  0
ARC
  5
287
330
1F
100
AcDbEntity
  8
0
  6
Continuous
 62
     7
370
    25
100
AcDbCircle
 10
578.4814342162
 20
844.9576068591
 30
0.0
 40
2.000000000000686
100
AcDbArc
 50
0.0
 51
14.4775121877
  0
ARC
  5
288
330
1F
100
AcDbEntity
  8
0
  6
Continuous
 62
     7
370
    25
100
AcDbCircle
 10
745.4814342162
 20
844.9576068591
 30
0.0
 40
3.249999999996104
100
AcDbArc
 50
171.1501169005
 51
180.0
  0
ARC
  5
289
330
1F
100
AcDbEntity
  8
0
  6
Continuous
 62
     7
370
    25
100
AcDbCircle
 10
952.4814342162
 20
844.9576068591
 30
0.0
 40
3.249999999996215
100
AcDbArc
 50
171.1501169007
 51
180.0
  0
ARC
  5
28A
330
1F
100
AcDbEntity
  8
0
  6
Continuous
 62
     7
370
    25
100
AcDbCircle
 10
885.4814342162
 20
844.9576068591
 30
0.0
 40
3.00000000000034
100
AcDbArc
 50
360.0
 51
9.5940682278
  0
ARC
  5
28B
330
1F
100
AcDbEntity
  8
0
  6
Continuous
 62
     7
370
    25
100
AcDbCircle
 10
1178.4814342162
 20
768.9576068591
 30
0.0
 40
3.250000000000031
100
AcDbArc
 50
351.1501169017
 51
0.0000000002
  0
ARC
  5
28C
330
1F
100
AcDbEntity
  8
0
  6
Continuous
 62
     7
370
    25
100
AcDbCircle
 10
1197.9814342162
 20
768.9576068591
 30
0.0
 40
2.0
100
AcDbArc
 50
179.9999999997
 51
194.4775121873
  0
ARC
  5
28D
330
1F
100
AcDbEntity
  8
0
  6
Continuous
 62
     7
370
    25
100
AcDbCircle
 10
885.4814342162
 20
768.9576068591
 30
0.0
 40
3.000000000000073
100
AcDbArc
 50
0.0
 51
9.5940682269
  0
ARC
  5
28E
330
1F
100
AcDbEntity
  8
0
  6
Continuous
 62
     7
370
    25
100
AcDbCircle
 10
952.4814342162
 20
768.9576068591
 30
0.0
 40
3.249999999996021
100
AcDbArc
 50
171.1501169015
 51
180.0
  0
ARC
  5
28F
330
1F
100
AcDbEntity
  8
0
  6
Continuous
 62
     7
370
    25
100
AcDbCircle
 10
1178.4814342162
 20
768.9576068591
 30
0.0
 40
3.250000000000109
100
AcDbArc
 50
0.0000000002
 51
8.8498830987
  0
ARC
  5
290
330
1F
100
AcDbEntity
  8
0
  6
Continuous
 62
     7
370
    25
100
AcDbCircle
 10
1197.9814342162
 20
768.9576068591
 30
0.0
 40
2.000000000000072
100
AcDbArc
 50
165.5224878136
 51
179.9999999997
  0
ARC
  5
291
330
1F
100
AcDbEntity
  8
0
  6
Continuous
 62
     7
370
    25
100
AcDbCircle
 10
578.4814342162
 20
768.9576068591
 30
0.0
 40
2.000000000000075
100
AcDbArc
 50
0.0000000001
 51
14.4775121861
  0
ARC
  5
292
330
1F
100
AcDbEntity
  8
0
  6
Continuous
 62
     7
370
    25
100
AcDbCircle
 10
745.4814342162
 20
768.9576068591
 30
0.0
 40
3.24999999999621
100
AcDbArc
 50
171.1501169016
 51
180.0000000001
  0
ARC
  5
293
330
1F
100
AcDbEntity
  8
0
  6
Continuous
 62
     7
370
    25
100
AcDbCircle
 10
885.4814342162
 20
768.9576068591
 30
0.0
 40
3.000000000000114
100
AcDbArc
 50
170.4059317731
 51
180.0
  0
ARC
  5
294
330
1F
100
AcDbEntity
  8
0
  6
Continuous
 62
     7
370
    25
100
AcDbCircle
 10
761.4814342162
 20
768.9576068591
 30
0.0
 40
3.0
100
AcDbArc
 50
0.0000000001
 51
9.5940682272
  0
ARC
  5
295
330
1F
100
AcDbEntity
  8
0
  6
Continuous
 62
     7
370
    25
100
AcDbCircle
 10
952.4814342162
 20
768.9576068591
 30
0.0
 40
3.249999999996021
100
AcDbArc
 50
360.0
 51
8.8498830985
  0
ARC
  5
296
330
1F
100
AcDbEntity
  8
0
  6
Continuous
 62
     7
370
    25
100
AcDbCircle
 10
1178.4814342162
 20
768.9576068591
 30
0.0
 40
3.250000000000227
100
AcDbArc
 50
171.1501169013
 51
179.9999999998
  0
ARC
  5
297
330
1F
100
AcDbEntity
  8
0
  6
Continuous
 62
     7
370
    25
100
AcDbCircle
 10
761.4814342162
 20
768.9576068591
 30
0.0
 40
3.000000000000546
100
AcDbArc
 50
170.4059317729
 51
180.0
  0
ARC
  5
298
330
1F
100
AcDbEntity
  8
0
  6
Continuous
 62
     7
370
    25
100
AcDbCircle
 10
745.4814342162
 20
768.9576068591
 30
0.0
 40
3.24999999999621
100
AcDbArc
 50
359.9999999999
 51
8.8498830984
  0
ARC
  5
299
330
1F
100
AcDbEntity
  8
0
  6
Continuous
 62
     7
370
    25
100
AcDbCircle
 10
745.4814342162
 20
844.9576068591
 30
0.0
 40
3.249999999996205
100
AcDbArc
 50
351.1501169015
 51
359.9999999999
  0
ARC
  5
29A
330
1F
100
AcDbEntity
  8
0
  6
Continuous
 62
     7
370
    25
100
AcDbCircle
 10
761.4814342162
 20
844.9576068591
 30
0.0
 40
3.000000000000114
100
AcDbArc
 50
179.9999999999
 51
189.5940682267
  0
ARC
  5
29B
330
1F
100
AcDbEntity
  8
0
  6
Continuous
 62
     7
370
    25
100
AcDbCircle
 10
952.4814342162
 20
844.9576068591
 30
0.0
 40
3.249999999996136
100
AcDbArc
 50
180.0
 51
188.8498830985
  0
ARC
  5
29C
330
1F
100
AcDbEntity
  8
0
  6
Continuous
 62
     7
370
    25
100
AcDbCircle
 10
885.4814342162
 20
844.9576068591
 30
0.0
 40
3.000000000000111
100
AcDbArc
 50
350.4059317731
 51
360.0
  0
ARC
  5
29D
330
1F
100
AcDbEntity
  8
0
  6
Continuous
 62
     7
370
    25
100
AcDbCircle
 10
1197.9814342162
 20
844.9576068591
 30
0.0
 40
2.000000000000062
100
AcDbArc
 50
179.9999999991
 51
194.4775121856
  0
ARC
  5
29E
330
1F
100
AcDbEntity
  8
0
  6
Continuous
 62
     7
370
    25
100
AcDbCircle
 10
1178.4814342162
 20
844.9576068591
 30
0.0
 40
3.25000000000022
100
AcDbArc
 50
351.1501169017
 51
0.0000000005
  0
ARC
  5
29F
330
1F
100
AcDbEntity
  8
0
  6
Continuous
 62
     7
370
    25
100
AcDbCircle
 10
578.4814342162
 20
844.9576068591
 30
0.0
 40
2.0
100
AcDbArc
 50
180.0000000001
 51
194.4775121861
  0
ARC
  5
2A0
330
1F
100
AcDbEntity
  8
0
  6
Continuous
 62
     7
370
    25
100
AcDbCircle
 10
548.9814342162
 20
844.9576068591
 30
0.0
 40
2.0
100
AcDbArc
 50
345.5224878139
 51
359.9999999999
  0
ARC
  5
2A1
330
1F
100
AcDbEntity
  8
0
  6
Continuous
 62
     7
370
    25
100
AcDbCircle
 10
952.4814342162
 20
844.9576068591
 30
0.0
 40
3.249999999996136
100
AcDbArc
 50
351.1501169015
 51
359.9999999999
  0
ARC
  5
2A2
330
1F
100
AcDbEntity
  8
0
  6
Continuous
 62
     7
370
    25
100
AcDbCircle
 10
1178.4814342162
 20
844.9576068591
 30
0.0
 40
3.250000000000227
100
AcDbArc
 50
179.9999999999
 51
188.8498830983
  0
ARC
  5
2A3
330
1F
100
AcDbEntity
  8
0
  6
Continuous
 62
     7
370
    25
100
AcDbCircle
 10
578.4814342162
 20
844.9576068591
 30
0.0
 40
2.000000000000088
100
AcDbArc
 50
345.5224878141
 51
0.0
  0
ARC
  5
2A4
330
1F
100
AcDbEntity
  8
0
  6
Continuous
 62
     7
370
    25
100
AcDbCircle
 10
745.4814342162
 20
844.9576068591
 30
0.0
 40
3.249999999996205
100
AcDbArc
 50
180.0
 51
188.8498830985
  0
ARC
  5
2A5
330
1F
100
AcDbEntity
  8
0
  6
Continuous
 62
     7
370
    25
100
AcDbCircle
 10
885.4814342162
 20
844.9576068591
 30
0.0
 40
3.000000000000114
100
AcDbArc
 50
180.0000000001
 51
189.5940682269
  0
ARC
  5
2A6
330
1F
100
AcDbEntity
  8
0
  6
Continuous
 62
     7
370
    25
100
AcDbCircle
 10
761.4814342162
 20
844.9576068591
 30
0.0
 40
3.000000000000107
100
AcDbArc
 50
350.4059317733
 51
0.0000000001
  0
LINE
  5
2A7
330
1F
100
AcDbEntity
  8
0
  6
Continuous
 62
     7
370
    25
100
AcDbLine
 10
538.4814342162
 20
779.4576068591
 30
0.0
 11
538.4814342162
 21
779.1576068591
 31
0.0
  0
LINE
  5
2A8
330
1F
100
AcDbEntity
  8
0
  6
Continuous
 62
     7
370
    25
100
AcDbLine
 10
1208.4814342162
 20
779.1576068591
 30
0.0
 11
1208.4814342162
 21
779.4576068591
 31
0.0
  0
ARC
  5
2A9
330
1F
100
AcDbEntity
  8
0
  6
Continuous
 62
     7
370
    25
100
AcDbCircle
 10
885.4814342162
 20
768.9576068591
 30
0.0
 40
3.000000000000114
100
AcDbArc
 50
180.0
 51
189.5940682269
  0
ARC
  5
2AA
330
1F
100
AcDbEntity
  8
0
  6
Continuous
 62
     7
370
    25
100
AcDbCircle
 10
761.4814342162
 20
768.9576068591
 30
0.0
 40
3.0
100
AcDbArc
 50
350.4059317733
 51
0.0000000001
  0
ARC
  5
2AB
330
1F
100
AcDbEntity
  8
0
  6
Continuous
 62
     7
370
    25
100
AcDbCircle
 10
578.4814342162
 20
768.9576068591
 30
0.0
 40
2.000000000000052
100
AcDbArc
 50
179.9999999998
 51
194.4775121858
  0
ARC
  5
2AC
330
1F
100
AcDbEntity
  8
0
  6
Continuous
 62
     7
370
    25
100
AcDbCircle
 10
548.9814342162
 20
768.9576068591
 30
0.0
 40
2.0
100
AcDbArc
 50
345.5224878142
 51
0.0000000002
  0
ARC
  5
2AD
330
1F
100
AcDbEntity
  8
0
  6
Continuous
 62
     7
370
    25
100
AcDbCircle
 10
578.4814342162
 20
768.9576068591
 30
0.0
 40
2.000000000000094
100
AcDbArc
 50
345.5224878144
 51
0.0000000001
  0
ARC
  5
2AE
330
1F
100
AcDbEntity
  8
0
  6
Continuous
 62
     7
370
    25
100
AcDbCircle
 10
745.4814342162
 20
768.9576068591
 30
0.0
 40
3.249999999996065
100
AcDbArc
 50
180.0000000001
 51
188.8498830985
  0
ARC
  5
2AF
330
1F
100
AcDbEntity
  8
0
  6
Continuous
 62
     7
370
    25
100
AcDbCircle
 10
885.4814342162
 20
768.9576068591
 30
0.0
 40
3.000000000000092
100
AcDbArc
 50
350.4059317731
 51
0.0
  0
ARC
  5
2B0
330
1F
100
AcDbEntity
  8
0
  6
Continuous
 62
     7
370
    25
100
AcDbCircle
 10
952.4814342162
 20
768.9576068591
 30
0.0
 40
3.249999999996065
100
AcDbArc
 50
180.0
 51
188.8498830985
  0
ARC
  5
2B1
330
1F
100
AcDbEntity
  8
0
  6
Continuous
 62
     7
370
    25
100
AcDbCircle
 10
952.4814342162
 20
768.9576068591
 30
0.0
 40
3.249999999996065
100
AcDbArc
 50
351.1501169016
 51
360.0
  0
ARC
  5
2B2
330
1F
100
AcDbEntity
  8
0
  6
Continuous
 62
     7
370
    25
100
AcDbCircle
 10
1178.4814342162
 20
768.9576068591
 30
0.0
 40
3.250000000000227
100
AcDbArc
 50
179.9999999998
 51
188.8498830983
  0
ARC
  5
2B3
330
1F
100
AcDbEntity
  8
0
  6
Continuous
 62
     7
370
    25
100
AcDbCircle
 10
578.4814342162
 20
768.9576068591
 30
0.0
 40
2.0
100
AcDbArc
 50
165.5224878138
 51
179.9999999998
  0
ARC
  5
2B4
330
1F
100
AcDbEntity
  8
0
  6
Continuous
 62
     7
370
    25
100
AcDbCircle
 10
548.9814342162
 20
768.9576068591
 30
0.0
 40
2.000000000000057
100
AcDbArc
 50
0.0000000002
 51
14.4775121862
  0
ARC
  5
2B5
330
1F
100
AcDbEntity
  8
0
  6
Continuous
 62
     7
370
    25
100
AcDbCircle
 10
761.4814342162
 20
768.9576068591
 30
0.0
 40
3.000000000000024
100
AcDbArc
 50
180.0
 51
189.5940682268
  0
ARC
  5
2B6
330
1F
100
AcDbEntity
  8
0
  6
Continuous
 62
     7
370
    25
100
AcDbCircle
 10
745.4814342162
 20
768.9576068591
 30
0.0
 40
3.249999999995954
100
AcDbArc
 50
351.1501169015
 51
359.9999999999
  0
ARC
  5
2B7
330
1F
100
AcDbEntity
  8
0
  6
Continuous
 62
     7
370
    25
100
AcDbCircle
 10
561.4814342162
 20
825.4576068591
 30
0.0
 40
5.000000000004775
100
AcDbArc
 50
0.0000000002
 51
90.0
  0
LINE
  5
2B8
330
1F
100
AcDbEntity
  8
0
  6
Continuous
 62
     7
370
    25
100
AcDbLine
 10
538.4814342162
 20
830.4576068591
 30
0.0
 11
561.4814342162
 21
830.4576068591
 31
0.0
  0
LINE
  5
2B9
330
1F
100
AcDbEntity
  8
0
  6
Continuous
 62
     7
370
    25
100
AcDbLine
 10
1185.4814342162
 20
830.4576068591
 30
0.0
 11
1208.4814342162
 21
830.4576068591
 31
0.0
  0
ARC
  5
2BA
330
1F
100
AcDbEntity
  8
0
  6
Continuous
 62
     7
370
    25
100
AcDbCircle
 10
1185.4814342162
 20
825.4576068591
 30
0.0
 40
5.000000000000227
100
AcDbArc
 50
90.0
 51
180.0000000001
  0
LINE
  5
2BB
330
1F
100
AcDbEntity
  8
0
  6
Continuous
 62
     7
370
    25
100
AcDbLine
 10
1180.4814342162
 20
825.4576068591
 30
0.0
 11
1180.4814342162
 21
819.6537592818
 31
0.0
  0
LINE
  5
2BC
330
1F
100
AcDbEntity
  8
0
  6
Continuous
 62
     7
370
    25
100
AcDbLine
 10
566.4814342162
 20
819.6537592818
 30
0.0
 11
566.4814342162
 21
825.4576068591
 31
0.0
  0
LINE
  5
2BD
330
1F
100
AcDbEntity
  8
0
  6
Continuous
 62
     7
370
    25
100
AcDbLine
 10
1208.4814342162
 20
830.4576068591
 30
0.0
 11
1208.4814342162
 21
832.4576068591
 31
0.0
  0
LINE
  5
2BE
330
1F
100
AcDbEntity
  8
0
  6
Continuous
 62
     7
370
    25
100
AcDbLine
 10
538.4814342162
 20
832.4576068591
 30
0.0
 11
538.4814342162
 21
830.4576068591
 31
0.0
  0
LINE
  5
2BF
330
1F
100
AcDbEntity
  8
0
  6
Continuous
 62
     7
370
    25
100
AcDbLine
 10
1180.4814342162
 20
819.6537592818
 30
0.0
 11
1180.4814342162
 21
815.3236322629
 31
0.0
  0
LINE
  5
2C0
330
1F
100
AcDbEntity
  8
0
  6
Continuous
 62
     7
370
    25
100
AcDbLine
 10
566.4814342162
 20
815.3236322629
 30
0.0
 11
566.4814342162
 21
819.6537592818
 31
0.0
  0
LINE
  5
2C1
330
1F
100
AcDbEntity
  8
0
  6
Continuous
 62
     7
370
    25
100
AcDbLine
 10
1180.4814342162
 20
815.3236322629
 30
0.0
 11
1180.4814342162
 21
812.8698936189
 31
0.0
  0
LINE
  5
2C2
330
1F
100
AcDbEntity
  8
0
  6
Continuous
 62
     7
370
    25
100
AcDbLine
 10
566.4814342162
 20
812.8698936189
 30
0.0
 11
566.4814342162
 21
815.3236322629
 31
0.0
  0
LINE
  5
2C3
330
1F
100
AcDbEntity
  8
0
  6
Continuous
 62
     7
370
    25
100
AcDbLine
 10
1180.4814342162
 20
812.8698936189
 30
0.0
 11
1180.4814342162
 21
811.5708555132
 31
0.0
  0
LINE
  5
2C4
330
1F
100
AcDbEntity
  8
0
  6
Continuous
 62
     7
370
    25
100
AcDbLine
 10
566.4814342162
 20
811.5708555132
 30
0.0
 11
566.4814342162
 21
812.8698936189
 31
0.0
  0
LINE
  5
2C5
330
1F
100
AcDbEntity
  8
0
  6
Continuous
 62
     7
370
    25
100
AcDbLine
 10
538.4814342162
 20
783.4576068591
 30
0.0
 11
561.4814342162
 21
783.4576068591
 31
0.0
  0
ARC
  5
2C6
330
1F
100
AcDbEntity
  8
0
  6
Continuous
 62
     7
370
    25
100
AcDbCircle
 10
561.4814342162
 20
788.4576068591
 30
0.0
 40
5.0
100
AcDbArc
 50
270.0
 51
359.9999999999
  0
ARC
  5
2C7
330
1F
100
AcDbEntity
  8
0
  6
Continuous
 62
     7
370
    25
100
AcDbCircle
 10
1185.4814342162
 20
788.4576068591
 30
0.0
 40
5.000000000010914
100
AcDbArc
 50
180.0000000003
 51
270.0
  0
LINE
  5
2C8
330
1F
100
AcDbEntity
  8
0
  6
Continuous
 62
     7
370
    25
100
AcDbLine
 10
1185.4814342162
 20
783.4576068591
 30
0.0
 11
1208.4814342162
 21
783.4576068591
 31
0.0
  0
LINE
  5
2C9
330
1F
100
AcDbEntity
  8
0
  6
Continuous
 62
     7
370
    25
100
AcDbLine
 10
1180.4814342162
 20
811.5708555132
 30
0.0
 11
1180.4814342162
 21
788.4576068591
 31
0.0
  0
LINE
  5
2CA
330
1F
100
AcDbEntity
  8
0
  6
Continuous
 62
     7
370
    25
100
AcDbLine
 10
566.4814342162
 20
788.4576068591
 30
0.0
 11
566.4814342162
 21
811.5708555132
 31
0.0
  0
LINE
  5
2CB
330
1F
100
AcDbEntity
  8
0
  6
Continuous
 62
     7
370
    25
100
AcDbLine
 10
538.4814342162
 20
779.4576068591
 30
0.0
 11
538.4814342162
 21
783.4576068591
 31
0.0
  0
LINE
  5
2CC
330
1F
100
AcDbEntity
  8
0
  6
Continuous
 62
     7
370
    25
100
AcDbLine
 10
1208.4814342162
 20
783.4576068591
 30
0.0
 11
1208.4814342162
 21
779.4576068591
 31
0.0
  0
CIRCLE
  5
2CD
330
1F
100
AcDbEntity
  8
0
  6
Continuous
 62
     7
370
    25
100
AcDbCircle
 10
1250.4814342162
 20
723.7076068595
 30
0.0
 40
2.499999999999773
  0
CIRCLE
  5
2CE
330
1F
100
AcDbEntity
  8
0
  6
Continuous
 62
     7
370
    25
100
AcDbCircle
 10
617.4814342162
 20
723.7076068595
 30
0.0
 40
2.5
  0
LINE
  5
2CF
330
1F
100
AcDbEntity
  8
0
  6
Continuous
 62
     7
370
    25
100
AcDbLine
 10
1503.4814342162
 20
740.9576068595
 30
0.0
 11
553.4814342162
 21
740.9576068595
 31
0.0
  0
LINE
  5
2D0
330
1F
100
AcDbEntity
  8
0
  6
Continuous
 62
     7
370
    25
100
AcDbLine
 10
1503.4814342162
 20
445.9576068595
 30
0.0
 11
1503.4814342162
 21
740.9576068595
 31
0.0
  0
LINE
  5
2D1
330
1F
100
AcDbEntity
  8
0
  6
Continuous
 62
     7
370
    25
100
AcDbLine
 10
553.4814342162
 20
445.9576068595
 30
0.0
 11
1503.4814342162
 21
445.9576068595
 31
0.0
  0
LINE
  5
2D2
330
1F
100
AcDbEntity
  8
0
  6
Continuous
 62
     7
370
    25
100
AcDbLine
 10
553.4814342162
 20
740.9576068595
 30
0.0
 11
553.4814342162
 21
445.9576068595
 31
0.0
  0
LINE
  5
2D3
330
1F
100
AcDbEntity
  8
0
  6
Continuous
 62
     7
370
    25
100
AcDbLine
 10
1508.4814342162
 20
445.9576068595
 30
0.0
 11
1503.4814342162
 21
445.9576068595
 31
0.0
  0
LINE
  5
2D4
330
1F
100
AcDbEntity
  8
0
  6
Continuous
 62
     7
370
    25
100
AcDbLine
 10
553.4814342162
 20
445.9576068595
 30
0.0
 11
548.4814342162
 21
445.9576068595
 31
0.0
  0
LINE
  5
2D5
330
1F
100
AcDbEntity
  8
0
  6
Continuous
 62
     7
370
    25
100
AcDbLine
 10
1508.4814342162
 20
445.9576068595
 30
0.0
 11
1508.4814342162
 21
745.9576068595
 31
0.0
  0
LINE
  5
2D6
330
1F
100
AcDbEntity
  8
0
  6
Continuous
 62
     7
370
    25
100
AcDbLine
 10
1508.4814342162
 20
745.9576068595
 30
0.0
 11
548.4814342162
 21
745.9576068595
 31
0.0
  0
LINE
  5
2D7
330
1F
100
AcDbEntity
  8
0
  6
Continuous
 62
     7
370
    25
100
AcDbLine
 10
1628.4814342162
 20
945.9576068595
 30
0.0
 11
428.4814342162
 21
945.9576068595
 31
0.0
  0
LINE
  5
2D8
330
1F
100
AcDbEntity
  8
0
  6
Continuous
 62
     7
370
    25
100
AcDbLine
 10
1508.4814342162
 20
445.9576068595
 30
0.0
 11
1628.4814342162
 21
445.9576068595
 31
0.0
  0
LINE
  5
2D9
330
1F
100
AcDbEntity
  8
0
  6
Continuous
 62
     7
370
    25
100
AcDbLine
 10
548.4814342162
 20
745.9576068595
 30
0.0
 11
548.4814342162
 21
445.9576068595
 31
0.0
  0
LINE
  5
2DA
330
1F
100
AcDbEntity
  8
0
  6
Continuous
 62
     7
370
    25
100
AcDbLine
 10
1628.4814342162
 20
445.9576068595
 30
0.0
 11
1628.4814342162
 21
945.9576068595
 31
0.0
  0
CIRCLE
  5
2DB
330
1F
100
AcDbEntity
  8
0
  6
Continuous
 62
     7
370
    25
100
AcDbCircle
 10
552.4814342162
 20
795.9576068595
 30
0.0
 40
10.0
  0
CIRCLE
  5
2DC
330
1F
100
AcDbEntity
  8
0
  6
Continuous
 62
     7
370
    25
100
AcDbCircle
 10
1194.4814342162
 20
819.9576068595
 30
0.0
 40
10.00000000000023
  0
CIRCLE
  5
2DD
330
1F
100
AcDbEntity
  8
0
  6
Continuous
 62
     7
370
    25
100
AcDbCircle
 10
1194.4814342162
 20
795.9576068595
 30
0.0
 40
10.00000000000023
  0
CIRCLE
  5
2DE
330
1F
100
AcDbEntity
  8
0
  6
Continuous
 62
     7
370
    25
100
AcDbCircle
 10
552.4814342162
 20
819.9576068595
 30
0.0
 40
10.0
  0
LINE
  5
2DF
330
1F
100
AcDbEntity
  8
0
  6
Continuous
 62
     7
370
    25
100
AcDbLine
 10
428.4814342162
 20
945.9576068595
 30
0.0
 11
428.4814342162
 21
445.9576068595
 31
0.0
  0
LINE
  5
2E0
330
1F
100
AcDbEntity
  8
0
  6
Continuous
 62
     7
370
    25
100
AcDbLine
 10
428.4814342162
 20
445.9576068595
 30
0.0
 11
548.4814342162
 21
445.9576068595
 31
0.0
  0
DIMENSION
  5
2E1
330
1F
100
AcDbEntity
  8
FORMAT
100
AcDbDimension
  2
_D_5
 10
1250.4814342162
 20
589.3779694965
 30
0.0
 11
933.9814342162
 21
589.3779694965
 31
0.0
 70
   160
  1
<>
 71
     2
 42
-1.0
  3
SLDDIMSTYLE0
100
AcDbAlignedDimension
 13
617.4814342162
 23
718.7076068595
 33
0.0
 14
1250.4814342162
 24
718.7076068595
 34
0.0
100
AcDbRotatedDimension
  0
DIMENSION
  5
2EB
330
1F
100
AcDbEntity
  8
FORMAT
100
AcDbDimension
  2
_D_6
 10
1256.2490122719
 20
852.4576068591
 30
0.0
 11
1256.2490122719
 21
806.9576068591
 31
0.0
 70
   160
  1
<>
 71
     2
 42
-1.0
  3
SLDDIMSTYLE0
100
AcDbAlignedDimension
 13
1208.4814342162
 23
761.4576068591
 33
0.0
 14
1208.4814342162
 24
852.4576068591
 34
0.0
 50
90.0
100
AcDbRotatedDimension
  0
DIMENSION
  5
2F5
330
1F
100
AcDbEntity
  8
FORMAT
100
AcDbDimension
  2
_D_7
 10
730.2457166855
 20
768.9576068591
 30
0.0
 11
730.2457166855
 21
694.0639824743
 31
0.0
 70
   160
  1
<>
 71
     2
 42
-1.0
  3
SLDDIMSTYLE1
100
AcDbAlignedDimension
 13
548.4814342162
 23
745.9576068595
 33
0.0
 14
745.4814342162
 24
768.9576068591
 34
0.0
 50
90.0
100
AcDbRotatedDimension
  0
DIMENSION
  5
300
330
1F
100
AcDbEntity
  8
FORMAT
100
AcDbDimension
  2
_D_8
 10
1308.1558908515
 20
723.7076068595
 30
0.0
 11
1308.1558908515
 21
674.2384397418
 31
0.0
 70
   160
  1
<>
 71
     2
 42
-1.0
  3
SLDDIMSTYLE2
100
AcDbAlignedDimension
 13
1508.4814342162
 23
745.9576068595
 33
0.0
 14
1255.4814342162
 24
723.7076068595
 34
0.0
 50
90.0
100
AcDbRotatedDimension
  0
DIMENSION
  5
30C
330
1F
100
AcDbEntity
  8
FORMAT
100
AcDbDimension
  2
_D_9
 10
617.4814342162
 20
589.3779694965
 30
0.0
 11
572.9814342162
 21
589.3779694965
 31
0.0
 70
   160
  1
<>
 71
     2
 42
-1.0
  3
SLDDIMSTYLE0
100
AcDbAlignedDimension
 13
528.4814342162
 23
614.9576068595
 33
0.0
 14
617.4814342162
 24
718.7076068595
 34
0.0
100
AcDbRotatedDimension
  0
DIMENSION
  5
315
330
1F
100
AcDbEntity
  8
FORMAT
100
AcDbDimension
  2
_D_10
 10
538.4814342162
 20
963.9479130319
 30
0.0
 11
471.662483019
 21
963.9479130319
 31
0.0
 70
   160
  1
<>
 71
     2
 42
-1.0
  3
SLDDIMSTYLE1
100
AcDbAlignedDimension
 13
528.4814342162
 23
614.9576068595
 33
0.0
 14
538.4814342162
 24
779.4576068591
 34
0.0
100
AcDbRotatedDimension
  0
DIMENSION
  5
321
330
1F
100
AcDbEntity
  8
FORMAT
100
AcDbDimension
  2
_D_11
 10
552.4814342162
 20
1005.2112069478
 30
0.0
 11
471.662483019
 21
1005.2112069478
 31
0.0
 70
   160
  1
<>
 71
     2
 42
-1.0
  3
SLDDIMSTYLE1
100
AcDbAlignedDimension
 13
528.4814342162
 23
614.9576068595
 33
0.0
 14
552.4814342162
 24
808.4576068595
 34
0.0
100
AcDbRotatedDimension
  0
DIMENSION
  5
32D
330
1F
100
AcDbEntity
  8
FORMAT
100
AcDbDimension
  2
_D_12
 10
745.4814342162
 20
1034.7605304135
 30
0.0
 11
636.9814342162
 21
1034.7605304135
 31
0.0
 70
   160
  1
<>
 71
     2
 42
-1.0
  3
SLDDIMSTYLE0
100
AcDbAlignedDimension
 13
528.4814342162
 23
614.9576068595
 33
0.0
 14
745.4814342162
 24
850.7076068591
 34
0.0
100
AcDbRotatedDimension
  0
DIMENSION
  5
337
330
1F
100
AcDbEntity
  8
FORMAT
100
AcDbDimension
  2
_D_13
 10
952.4814342162
 20
1034.7605304135
 30
0.0
 11
848.9814342162
 21
1034.7605304135
 31
0.0
 70
   160
  1
<>
 71
     2
 42
-1.0
  3
SLDDIMSTYLE0
100
AcDbAlignedDimension
 13
745.4814342162
 23
850.7076068591
 33
0.0
 14
952.4814342162
 24
850.7076068591
 34
0.0
100
AcDbRotatedDimension
  0
DIMENSION
  5
341
330
1F
100
AcDbEntity
  8
FORMAT
100
AcDbDimension
  2
_D_14
 10
1178.4814342162
 20
1034.7605304135
 30
0.0
 11
1065.4814342162
 21
1034.7605304135
 31
0.0
 70
   160
  1
<>
 71
     2
 42
-1.0
  3
SLDDIMSTYLE0
100
AcDbAlignedDimension
 13
952.4814342162
 23
850.7076068591
 33
0.0
 14
1178.4814342162
 24
850.7076068591
 34
0.0
100
AcDbRotatedDimension
  0
DIMENSION
  5
34B
330
1F
100
AcDbEntity
  8
FORMAT
100
AcDbDimension
  2
_D_15
 10
1194.4814342162
 20
1080.2165999197
 30
0.0
 11
861.4814342162
 21
1080.2165999197
 31
0.0
 70
   160
  1
<>
 71
     2
 42
-1.0
  3
SLDDIMSTYLE0
100
AcDbAlignedDimension
 13
528.4814342162
 23
614.9576068595
 33
0.0
 14
1194.4814342162
 24
832.4576068595
 34
0.0
100
AcDbRotatedDimension
  0
DIMENSION
  5
355
330
1F
100
AcDbEntity
  8
FORMAT
100
AcDbDimension
  2
_D_16
 10
1208.4814342162
 20
1120.0503436668
 30
0.0
 11
868.4814342162
 21
1120.0503436668
 31
0.0
 70
   160
  1
<>
 71
     2
 42
-1.0
  3
SLDDIMSTYLE0
100
AcDbAlignedDimension
 13
528.4814342162
 23
614.9576068595
 33
0.0
 14
1208.4814342162
 24
844.9576068591
 34
0.0
100
AcDbRotatedDimension
  0
DIMENSION
  5
35F
330
1F
100
AcDbEntity
  8
FORMAT
100
AcDbDimension
  2
_D_17
 10
409.1013031524
 20
761.4576068591
 30
0.0
 11
409.1013031524
 21
684.4361078454
 31
0.0
 70
   160
  1
<>
 71
     2
 42
-1.0
  3
SLDDIMSTYLE2
100
AcDbAlignedDimension
 13
548.4814342162
 23
745.9576068595
 33
0.0
 14
538.4814342162
 24
761.4576068591
 34
0.0
 50
90.0
100
AcDbRotatedDimension
  0
DIMENSION
  5
36B
330
1F
100
AcDbEntity
  8
FORMAT
100
AcDbDimension
  2
_D_18
 10
369.3949627173
 20
795.9576068595
 30
0.0
 11
369.3949627173
 21
684.4361078454
 31
0.0
 70
   160
  1
<>
 71
     2
 42
-1.0
  3
SLDDIMSTYLE2
100
AcDbAlignedDimension
 13
538.4814342162
 23
761.4576068591
 33
0.0
 14
539.9814342162
 24
795.9576068595
 34
0.0
 50
90.0
100
AcDbRotatedDimension
  0
DIMENSION
  5
378
330
1F
100
AcDbEntity
  8
FORMAT
100
AcDbDimension
  2
_D_19
 10
327.5792604231
 20
819.9576068595
 30
0.0
 11
327.5792604231
 21
684.4361078454
 31
0.0
 70
   160
  1
<>
 71
     2
 42
-1.0
  3
SLDDIMSTYLE1
100
AcDbAlignedDimension
 13
539.9814342162
 23
795.9576068595
 33
0.0
 14
539.9814342162
 24
819.9576068595
 34
0.0
 50
90.0
100
AcDbRotatedDimension
  0
MTEXT
  5
386
330
1F
100
AcDbEntity
  8
FORMAT
100
AcDbMText
 10
1362.0317906468
 20
997.9006718919
 30
0.0
 40
18.5208333333
 41
0.0
 71
     1
 72
     1
  1
ø20 (optional)
  7
SLDTEXTSTYLE0
 73
     1
 44
1.0
  0
LEADER
  5
388
330
1F
100
AcDbEntity
  8
FORMAT
100
AcDbLeader
  3
SLDDIMSTYLE3
 76
     3
 10
1203.2051081218
 20
824.8461151789
 30
0.0
 10
1313.6174769489
 20
988.935405768
 30
0.0
 10
1358.0674769489
 20
988.935405768
 30
0.0
  0
INSERT
  5
38E
102
{ACAD_REACTORS
330
38F
102
}
330
1F
100
AcDbEntity
  8
FORMAT
100
AcDbBlockReference
  2
SW_NOTE_0_5
 10
386.785058454
 20
955.5012289471
 30
0.0
  0
LEADER
  5
38F
330
1F
100
AcDbEntity
  8
FORMAT
100
AcDbLeader
  3
SLDDIMSTYLE3
 73
     2
 76
     3
 10
543.6382018715
 20
824.6263584805
 30
0.0
 10
431.235058454
 20
955.5012289471
 30
0.0
 10
386.785058454
 20
955.5012289471
 30
0.0
340
38E
  0
MTEXT
  5
390
330
1F
100
AcDbEntity
  8
FORMAT
100
AcDbMText
 10
1374.8043197965
 20
853.234393893
 30
0.0
 40
18.5208333333
 41
0.0
 71
     1
 72
     1
  1
Unterkante Türrahmen
  7
SLDTEXTSTYLE0
 73
     1
 44
1.0
  0
LEADER
  5
391
330
1F
100
AcDbEntity
  8
FORMAT
100
AcDbLeader
  3
SLDDIMSTYLE3
 76
     3
 10
1326.0897844089
 20
745.9576068595
 30
0.0
 10
1326.5261106454
 20
844.0066547202
 30
0.0
 10
1370.9761106454
 20
844.0066547202
 30
0.0
  0
INSERT
  5
39D
330
1F
100
AcDbEntity
  8
FORMAT
100
AcDbBlockReference
  2
SW_CENTERMARKSYMBOL_0
 10
617.4814342162
 20
723.7076068595
 30
0.0
  0
INSERT
  5
3A9
330
1F
100
AcDbEntity
  8
FORMAT
100
AcDbBlockReference
  2
SW_CENTERMARKSYMBOL_1
 10
1250.4814342162
 20
723.7076068595
 30
0.0
  0
INSERT
  5
3B5
330
1F
100
AcDbEntity
  8
FORMAT
100
AcDbBlockReference
  2
SW_CENTERMARKSYMBOL_2
 10
745.4814342162
 20
768.9576068591
 30
0.0
  0
INSERT
  5
3C1
330
1F
100
AcDbEntity
  8
FORMAT
100
AcDbBlockReference
  2
SW_CENTERMARKSYMBOL_3
 10
745.4814342162
 20
844.9576068591
 30
0.0
  0
INSERT
  5
3CD
330
1F
100
AcDbEntity
  8
FORMAT
100
AcDbBlockReference
  2
SW_CENTERMARKSYMBOL_4
 10
952.4814342162
 20
844.9576068591
 30
0.0
  0
INSERT
  5
3D9
330
1F
100
AcDbEntity
  8
FORMAT
100
AcDbBlockReference
  2
SW_CENTERMARKSYMBOL_5
 10
952.4814342162
 20
768.9576068591
 30
0.0
  0
INSERT
  5
3E5
330
1F
100
AcDbEntity
  8
FORMAT
100
AcDbBlockReference
  2
SW_CENTERMARKSYMBOL_6
 10
1178.4814342162
 20
768.9576068591
 30
0.0
  0
INSERT
  5
3F1
330
1F
100
AcDbEntity
  8
FORMAT
100
AcDbBlockReference
  2
SW_CENTERMARKSYMBOL_7
 10
1178.4814342162
 20
844.9576068591
 30
0.0
  0
INSERT
  5
3FD
330
1F
100
AcDbEntity
  8
FORMAT
100
AcDbBlockReference
  2
SW_CENTERMARKSYMBOL_8
 10
552.4814342162
 20
795.9576068595
 30
0.0
  0
INSERT
  5
409
330
1F
100
AcDbEntity
  8
FORMAT
100
AcDbBlockReference
  2
SW_CENTERMARKSYMBOL_9
 10
552.4814342162
 20
819.9576068595
 30
0.0
  0
INSERT
  5
415
330
1F
100
AcDbEntity
  8
FORMAT
100
AcDbBlockReference
  2
SW_CENTERMARKSYMBOL_10
 10
1194.4814342162
 20
795.9576068595
 30
0.0
  0
INSERT
  5
421
330
1F
100
AcDbEntity
  8
FORMAT
100
AcDbBlockReference
  2
SW_CENTERMARKSYMBOL_11
 10
1194.4814342162
 20
819.9576068595
 30
0.0
  0
CIRCLE
  5
422
330
1F
100
AcDbEntity
  8
0
  6
Continuous
 62
     7
370
    18
100
AcDbCircle
 10
743.6687165646
 20
805.1474715884
 30
0.0
 40
56.13765846928993
  0
MTEXT
  5
423
330
1F
100
AcDbEntity
  8
0
  6
Continuous
 62
     7
370
    18
100
AcDbMText
 10
787.2971660596
 20
907.7149168345
 30
0.0
 40
35.0
 41
0.0
 71
     1
 72
     1
  1
C
  7
SLDTEXTSTYLE0
 73
     1
 44
1.0
  0
LINE
  5
424
330
1F
100
AcDbEntity
  8
FORMAT
  6
CENTERX2
370
    18
100
AcDbLine
 10
528.4814342162
 20
614.9576068595
 30
0.0
 11
528.4814342162
 21
506.0525872263
 31
0.0
  0
LINE
  5
425
330
1F
100
AcDbEntity
  8
0
  6
Continuous
 62
     7
370
    25
100
AcDbLine
 10
2516.1382659232
 20
1611.4690163761
 30
0.0
 11
2516.1382659232
 21
1613.225032345
 31
0.0
  0
LINE
  5
426
330
1F
100
AcDbEntity
  8
0
  6
Continuous
 62
     7
370
    25
100
AcDbLine
 10
2486.1382659232
 20
1612.225032345
 30
0.0
 11
2486.1382659232
 21
1611.4690163761
 31
0.0
  0
LINE
  5
427
330
1F
100
AcDbEntity
  8
0
  6
Continuous
 62
     7
370
    25
100
AcDbLine
 10
2524.138265923
 20
1708.225032345
 30
0.0
 11
2524.138265923
 21
1709.225032345
 31
0.0
  0
LINE
  5
428
330
1F
100
AcDbEntity
  8
0
  6
Continuous
 62
     7
370
    25
100
AcDbLine
 10
2447.388265922
 20
1588.225032345
 30
0.0
 11
2447.388265922
 21
1586.2250323512
 31
0.0
  0
LINE
  5
429
330
1F
100
AcDbEntity
  8
0
  6
Continuous
 62
     7
370
    25
100
AcDbLine
 10
2461.388265922
 20
1586.2250323512
 30
0.0
 11
2461.388265922
 21
1588.225032345
 31
0.0
  0
LINE
  5
42A
330
1F
100
AcDbEntity
  8
0
  6
Continuous
 62
     7
370
    25
100
AcDbLine
 10
2459.388265922
 20
1588.225032345
 30
0.0
 11
2459.388265922
 21
1588.725032345
 31
0.0
  0
LINE
  5
42B
330
1F
100
AcDbEntity
  8
0
  6
Continuous
 62
     7
370
    25
100
AcDbLine
 10
2449.388265922
 20
1588.725032345
 30
0.0
 11
2449.388265922
 21
1588.225032345
 31
0.0
  0
LINE
  5
42C
330
1F
100
AcDbEntity
  8
0
  6
Continuous
 62
     7
370
    25
100
AcDbLine
 10
2486.1382659232
 20
1609.5250323451
 30
0.0
 11
2486.1382659232
 21
1598.7250323451
 31
0.0
  0
LINE
  5
42D
330
1F
100
AcDbEntity
  8
0
  6
Continuous
 62
     7
370
    25
100
AcDbLine
 10
2516.1382659231
 20
1589.7250323451
 30
0.0
 11
2516.1382659231
 21
1609.5250323451
 31
0.0
  0
LINE
  5
42E
330
1F
100
AcDbEntity
  8
0
  6
Continuous
 62
     7
370
    25
100
AcDbLine
 10
2515.1382659231
 20
1588.7250323451
 30
0.0
 11
2516.1382659231
 21
1589.7250323451
 31
0.0
  0
LINE
  5
42F
330
1F
100
AcDbEntity
  8
0
  6
Continuous
 62
     7
370
    25
100
AcDbLine
 10
2516.1382659231
 20
1609.5250323451
 30
0.0
 11
2515.9382659231
 21
1609.7250323451
 31
0.0
  0
LINE
  5
430
330
1F
100
AcDbEntity
  8
0
  6
Continuous
 62
     7
370
    25
100
AcDbLine
 10
2486.3382659232
 20
1609.7250323451
 30
0.0
 11
2486.1382659232
 21
1609.5250323451
 31
0.0
  0
LWPOLYLINE
  5
431
330
1F
100
AcDbEntity
  8
0
  6
Continuous
 62
     7
370
    25
100
AcDbPolyline
 90
       12
 70
   128
 43
0.0
 10
2492.5525563794
 20
1610.5330134041
 10
2492.4425807439
 20
1610.2339667459
 10
2492.2579583956
 20
1609.9977541857
 10
2492.1469939977
 20
1609.9074009094
 10
2492.033150752
 20
1609.8380062499
 10
2491.9268309336
 20
1609.7891577014
 10
2491.8382389684
 20
1609.7577211554
 10
2491.7770979941
 20
1609.7394346697
 10
2491.7526752326
 20
1609.7300966899
 10
2491.7735055374
 20
1609.7261954039
 10
2491.8463888993
 20
1609.7251063528
 10
2491.931966225
 20
1609.7250568708
  0
LINE
  5
432
330
1F
100
AcDbEntity
  8
0
  6
Continuous
 62
     7
370
    25
100
AcDbLine
 10
2492.7355472021
 20
1611.4690163761
 30
0.0
 11
2492.539423436
 21
1610.4658402994
 31
0.0
  0
LWPOLYLINE
  5
433
330
1F
100
AcDbEntity
  8
0
  6
Continuous
 62
     7
370
    25
100
AcDbPolyline
 90
        4
 70
   128
 43
0.0
 10
2511.3685598239
 20
1609.7250550808
 10
2511.4081683989
 20
1609.7250777659
 10
2511.4337978957
 20
1609.7261290898
 10
2511.43306935
 20
1609.7262879544
  0
ARC
  5
434
330
1F
100
AcDbEntity
  8
0
  6
Continuous
 62
     7
370
    25
100
AcDbCircle
 10
2511.5595810614
 20
1610.7362118039
 30
0.0
 40
1.016334646529089
100
AcDbArc
 50
192.6141786487
 51
261.8326251793
  0
LWPOLYLINE
  5
435
330
1F
100
AcDbEntity
  8
0
  6
Continuous
 62
     7
370
    25
100
AcDbPolyline
 90
        3
 70
   128
 43
0.0
 10
2485.9860811911
 20
1597.6675087607
 10
2485.9218948936
 20
1597.3239013677
 10
2485.8360069809
 20
1596.9355588897
  0
LINE
  5
436
330
1F
100
AcDbEntity
  8
0
  6
Continuous
 62
     7
370
    25
100
AcDbLine
 10
2510.5677786656
 20
1610.51425792
 30
0.0
 11
2510.3619907989
 21
1611.4690163761
 31
0.0
  0
ARC
  5
437
330
1F
100
AcDbEntity
  8
0
  6
Continuous
 62
     7
370
    25
100
AcDbCircle
 10
2483.1382659232
 20
1598.7250323451
 30
0.0
 40
3.0
100
AcDbArc
 50
347.449168654
 51
0.0000000003
  0
LINE
  5
438
330
1F
100
AcDbEntity
  8
0
  6
Continuous
 62
     7
370
    25
100
AcDbLine
 10
2491.9145410474
 20
1611.4690163761
 30
0.0
 11
2491.7087530917
 21
1610.5142575073
 31
0.0
  0
ARC
  5
439
330
1F
100
AcDbEntity
  8
0
  6
Continuous
 62
     7
370
    25
100
AcDbCircle
 10
2490.6788807849
 20
1610.7579695706
 30
0.0
 40
1.058316156627905
100
AcDbArc
 50
282.572982315
 51
346.6864040549
  0
LINE
  5
43A
330
1F
100
AcDbEntity
  8
0
  6
Continuous
 62
     7
370
    25
100
AcDbLine
 10
2443.3882659224
 20
1589.725032345
 30
0.0
 11
2444.3882659224
 21
1588.725032345
 31
0.0
  0
LINE
  5
43B
330
1F
100
AcDbEntity
  8
0
  6
Continuous
 62
     7
370
    25
100
AcDbLine
 10
2444.3882659224
 20
1595.725032345
 30
0.0
 11
2443.3882659224
 21
1594.725032345
 31
0.0
  0
LINE
  5
43C
330
1F
100
AcDbEntity
  8
0
  6
Continuous
 62
     7
370
    25
100
AcDbLine
 10
2443.3882659224
 20
1594.725032345
 30
0.0
 11
2443.3882659224
 21
1589.725032345
 31
0.0
  0
LINE
  5
43D
330
1F
100
AcDbEntity
  8
0
  6
Continuous
 62
     7
370
    25
100
AcDbLine
 10
2371.1382659234
 20
1619.725032345
 30
0.0
 11
2411.1382659234
 21
1619.725032345
 31
0.0
  0
LINE
  5
43E
330
1F
100
AcDbEntity
  8
0
  6
Continuous
 62
     7
370
    25
100
AcDbLine
 10
2411.1382659234
 20
1594.725032345
 30
0.0
 11
2411.1382659234
 21
1619.725032345
 31
0.0
  0
LINE
  5
43F
330
1F
100
AcDbEntity
  8
0
  6
Continuous
 62
     7
370
    25
100
AcDbLine
 10
2411.1382659234
 20
1594.725032345
 30
0.0
 11
2441.1382659234
 21
1594.725032345
 31
0.0
  0
LINE
  5
440
330
1F
100
AcDbEntity
  8
0
  6
Continuous
 62
     7
370
    25
100
AcDbLine
 10
2441.1382659234
 20
1594.725032345
 30
0.0
 11
2441.1382659234
 21
1585.7250323492
 31
0.0
  0
LINE
  5
441
330
1F
100
AcDbEntity
  8
0
  6
Continuous
 62
     7
370
    25
100
AcDbLine
 10
2441.1382659234
 20
1569.7250323512
 30
0.0
 11
2441.1382659234
 21
1299.725032345
 31
0.0
  0
LINE
  5
442
330
1F
100
AcDbEntity
  8
0
  6
Continuous
 62
     7
370
    25
100
AcDbLine
 10
2441.1382659234
 20
1299.725032345
 30
0.0
 11
2371.1382659234
 21
1299.725032345
 31
0.0
  0
LINE
  5
443
330
1F
100
AcDbEntity
  8
0
  6
Continuous
 62
     7
370
    25
100
AcDbLine
 10
2371.1382659234
 20
1299.725032345
 30
0.0
 11
2371.1382659234
 21
1619.725032345
 31
0.0
  0
LINE
  5
444
330
1F
100
AcDbEntity
  8
0
  6
Continuous
 62
     7
370
    25
100
AcDbLine
 10
2441.1382659234
 20
1799.725032345
 30
0.0
 11
2441.1382659234
 21
1708.225032345
 31
0.0
  0
LINE
  5
445
330
1F
100
AcDbEntity
  8
0
  6
Continuous
 62
     7
370
    25
100
AcDbLine
 10
2441.1382659234
 20
1613.225032345
 30
0.0
 11
2441.1382659234
 21
1599.725032345
 31
0.0
  0
LINE
  5
446
330
1F
100
AcDbEntity
  8
0
  6
Continuous
 62
     7
370
    25
100
AcDbLine
 10
2441.1382659234
 20
1599.725032345
 30
0.0
 11
2411.1382659234
 21
1599.725032345
 31
0.0
  0
LINE
  5
447
330
1F
100
AcDbEntity
  8
0
  6
Continuous
 62
     7
370
    25
100
AcDbLine
 10
2411.1382659234
 20
1599.725032345
 30
0.0
 11
2411.1382659234
 21
1624.725032345
 31
0.0
  0
LINE
  5
448
330
1F
100
AcDbEntity
  8
0
  6
Continuous
 62
     7
370
    25
100
AcDbLine
 10
2411.1382659234
 20
1624.725032345
 30
0.0
 11
2371.1382659234
 21
1624.725032345
 31
0.0
  0
LINE
  5
449
330
1F
100
AcDbEntity
  8
0
  6
Continuous
 62
     7
370
    25
100
AcDbLine
 10
2371.1382659234
 20
1799.725032345
 30
0.0
 11
2371.1382659234
 21
1624.725032345
 31
0.0
  0
LINE
  5
44A
330
1F
100
AcDbEntity
  8
0
  6
Continuous
 62
     7
370
    25
100
AcDbLine
 10
2371.1382659234
 20
1799.725032345
 30
0.0
 11
2441.1382659234
 21
1799.725032345
 31
0.0
  0
LINE
  5
44B
330
1F
100
AcDbEntity
  8
0
  6
Continuous
 62
     7
370
    25
100
AcDbLine
 10
2441.1382659234
 20
1594.725032345
 30
0.0
 11
2441.1382659234
 21
1599.725032345
 31
0.0
  0
LINE
  5
44C
330
1F
100
AcDbEntity
  8
0
  6
Continuous
 62
     7
370
    25
100
AcDbLine
 10
2371.1382659234
 20
1624.725032345
 30
0.0
 11
2371.1382659234
 21
1619.725032345
 31
0.0
  0
LINE
  5
44D
330
1F
100
AcDbEntity
  8
0
  6
Continuous
 62
     7
370
    25
100
AcDbLine
 10
2487.9252023418
 20
1611.4690163761
 30
0.0
 11
2516.1382659232
 21
1611.4690163761
 31
0.0
  0
LINE
  5
44E
330
1F
100
AcDbEntity
  8
0
  6
Continuous
 62
     7
370
    25
100
AcDbLine
 10
2486.1382659232
 20
1611.4690163761
 30
0.0
 11
2487.9252023418
 21
1611.4690163761
 31
0.0
  0
LINE
  5
44F
330
1F
100
AcDbEntity
  8
0
  6
Continuous
 62
     7
370
    25
100
AcDbLine
 10
2442.138265923
 20
1709.225032345
 30
0.0
 11
2501.138265923
 21
1709.225032345
 31
0.0
  0
LINE
  5
450
330
1F
100
AcDbEntity
  8
0
  6
Continuous
 62
     7
370
    25
100
AcDbLine
 10
2501.138265923
 20
1709.225032345
 30
0.0
 11
2501.138265923
 21
1708.225032345
 31
0.0
  0
LINE
  5
451
330
1F
100
AcDbEntity
  8
0
  6
Continuous
 62
     7
370
    25
100
AcDbLine
 10
2442.138265923
 20
1708.225032345
 30
0.0
 11
2442.138265923
 21
1709.225032345
 31
0.0
  0
LINE
  5
452
330
1F
100
AcDbEntity
  8
0
  6
Continuous
 62
     7
370
    25
100
AcDbLine
 10
2501.138265923
 20
1709.225032345
 30
0.0
 11
2524.138265923
 21
1709.225032345
 31
0.0
  0
LINE
  5
453
330
1F
100
AcDbEntity
  8
0
  6
Continuous
 62
     7
370
    25
100
AcDbLine
 10
2498.138265923
 20
1613.225032345
 30
0.0
 11
2498.138265923
 21
1612.225032345
 31
0.0
  0
LINE
  5
454
330
1F
100
AcDbEntity
  8
0
  6
Continuous
 62
     7
370
    25
100
AcDbLine
 10
2498.138265923
 20
1612.225032345
 30
0.0
 11
2442.138265923
 21
1612.225032345
 31
0.0
  0
LINE
  5
455
330
1F
100
AcDbEntity
  8
0
  6
Continuous
 62
     7
370
    25
100
AcDbLine
 10
2442.138265923
 20
1612.225032345
 30
0.0
 11
2442.138265923
 21
1613.225032345
 31
0.0
  0
LINE
  5
456
330
1F
100
AcDbEntity
  8
0
  6
Continuous
 62
     7
370
    25
100
AcDbLine
 10
2556.138265923
 20
1618.225032345
 30
0.0
 11
2556.138265923
 21
1703.225032345
 31
0.0
  0
LINE
  5
457
330
1F
100
AcDbEntity
  8
0
  6
Continuous
 62
     7
370
    25
100
AcDbLine
 10
2441.138265923
 20
1618.225032345
 30
0.0
 11
2556.138265923
 21
1618.225032345
 31
0.0
  0
LINE
  5
458
330
1F
100
AcDbEntity
  8
0
  6
Continuous
 62
     7
370
    25
100
AcDbLine
 10
2441.138265923
 20
1703.225032345
 30
0.0
 11
2441.138265923
 21
1618.225032345
 31
0.0
  0
LINE
  5
459
330
1F
100
AcDbEntity
  8
0
  6
Continuous
 62
     7
370
    25
100
AcDbLine
 10
2556.138265923
 20
1703.225032345
 30
0.0
 11
2441.138265923
 21
1703.225032345
 31
0.0
  0
LINE
  5
45A
330
1F
100
AcDbEntity
  8
0
  6
Continuous
 62
     7
370
    25
100
AcDbLine
 10
2453.138265923
 20
1690.225032345
 30
0.0
 11
2453.138265923
 21
1631.225032345
 31
0.0
  0
ARC
  5
45B
330
1F
100
AcDbEntity
  8
0
  6
Continuous
 62
     7
370
    25
100
AcDbCircle
 10
2456.138265923
 20
1631.225032345
 30
0.0
 40
3.000000000000227
100
AcDbArc
 50
180.0
 51
270.0
  0
LINE
  5
45C
330
1F
100
AcDbEntity
  8
0
  6
Continuous
 62
     7
370
    25
100
AcDbLine
 10
2456.138265923
 20
1628.225032345
 30
0.0
 11
2542.138265923
 21
1628.225032345
 31
0.0
  0
ARC
  5
45D
330
1F
100
AcDbEntity
  8
0
  6
Continuous
 62
     7
370
    25
100
AcDbCircle
 10
2542.138265923
 20
1631.225032345
 30
0.0
 40
3.0
100
AcDbArc
 50
270.0
 51
0.0
  0
LINE
  5
45E
330
1F
100
AcDbEntity
  8
0
  6
Continuous
 62
     7
370
    25
100
AcDbLine
 10
2545.138265923
 20
1631.225032345
 30
0.0
 11
2545.138265923
 21
1690.225032345
 31
0.0
  0
ARC
  5
45F
330
1F
100
AcDbEntity
  8
0
  6
Continuous
 62
     7
370
    25
100
AcDbCircle
 10
2542.138265923
 20
1690.225032345
 30
0.0
 40
2.999999999999773
100
AcDbArc
 50
0.0
 51
90.0
  0
LINE
  5
460
330
1F
100
AcDbEntity
  8
0
  6
Continuous
 62
     7
370
    25
100
AcDbLine
 10
2542.138265923
 20
1693.225032345
 30
0.0
 11
2456.138265923
 21
1693.225032345
 31
0.0
  0
ARC
  5
461
330
1F
100
AcDbEntity
  8
0
  6
Continuous
 62
     7
370
    25
100
AcDbCircle
 10
2456.138265923
 20
1690.225032345
 30
0.0
 40
3.0
100
AcDbArc
 50
90.0
 51
180.0
  0
LINE
  5
462
330
1F
100
AcDbEntity
  8
0
  6
Continuous
 62
     7
370
    25
100
AcDbLine
 10
2556.138265923
 20
1706.225032345
 30
0.0
 11
2449.638265923
 21
1706.225032345
 31
0.0
  0
LINE
  5
463
330
1F
100
AcDbEntity
  8
0
  6
Continuous
 62
     7
370
    25
100
AcDbLine
 10
2556.138265923
 20
1703.225032345
 30
0.0
 11
2556.138265923
 21
1706.225032345
 31
0.0
  0
LINE
  5
464
330
1F
100
AcDbEntity
  8
0
  6
Continuous
 62
     7
370
    25
100
AcDbLine
 10
2441.138265923
 20
1703.225032345
 30
0.0
 11
2441.138265923
 21
1706.225032345
 31
0.0
  0
LINE
  5
465
330
1F
100
AcDbEntity
  8
0
  6
Continuous
 62
     7
370
    25
100
AcDbLine
 10
2444.638265923
 20
1706.225032345
 30
0.0
 11
2441.138265923
 21
1706.225032345
 31
0.0
  0
ARC
  5
466
330
1F
100
AcDbEntity
  8
0
  6
Continuous
 62
     7
370
    25
100
AcDbCircle
 10
2447.138265923
 20
1707.5583656783
 30
0.0
 40
2.833333333333512
100
AcDbArc
 50
208.0724869359
 51
331.9275130641
  0
LINE
  5
467
330
1F
100
AcDbEntity
  8
0
  6
Continuous
 62
     7
370
    25
100
AcDbLine
 10
2441.138265923
 20
1615.225032345
 30
0.0
 11
2444.638265923
 21
1615.225032345
 31
0.0
  0
LINE
  5
468
330
1F
100
AcDbEntity
  8
0
  6
Continuous
 62
     7
370
    25
100
AcDbLine
 10
2441.138265923
 20
1615.225032345
 30
0.0
 11
2441.138265923
 21
1618.225032345
 31
0.0
  0
LINE
  5
469
330
1F
100
AcDbEntity
  8
0
  6
Continuous
 62
     7
370
    25
100
AcDbLine
 10
2556.138265923
 20
1615.225032345
 30
0.0
 11
2556.138265923
 21
1618.225032345
 31
0.0
  0
LINE
  5
46A
330
1F
100
AcDbEntity
  8
0
  6
Continuous
 62
     7
370
    25
100
AcDbLine
 10
2449.638265923
 20
1615.225032345
 30
0.0
 11
2556.138265923
 21
1615.225032345
 31
0.0
  0
ARC
  5
46B
330
1F
100
AcDbEntity
  8
0
  6
Continuous
 62
     7
370
    25
100
AcDbCircle
 10
2447.138265923
 20
1613.8916990116
 30
0.0
 40
2.833333333332789
100
AcDbArc
 50
28.0724869359
 51
151.9275130641
  0
LINE
  5
46C
330
1F
100
AcDbEntity
  8
0
  6
Continuous
 62
     7
370
    25
100
AcDbLine
 10
2559.138265923
 20
1618.225032345
 30
0.0
 11
2559.138265923
 21
1703.2250323497
 31
0.0
  0
LINE
  5
46D
330
1F
100
AcDbEntity
  8
0
  6
Continuous
 62
     7
370
    25
100
AcDbLine
 10
2556.138265923
 20
1618.225032345
 30
0.0
 11
2559.138265923
 21
1618.225032345
 31
0.0
  0
LINE
  5
46E
330
1F
100
AcDbEntity
  8
0
  6
Continuous
 62
     7
370
    25
100
AcDbLine
 10
2559.138265923
 20
1703.225032345
 30
0.0
 11
2556.138265923
 21
1703.225032345
 31
0.0
  0
ARC
  5
46F
330
1F
100
AcDbEntity
  8
0
  6
Continuous
 62
     7
370
    25
100
AcDbCircle
 10
2556.138265923
 20
1618.225032345
 30
0.0
 40
3.000000000000227
100
AcDbArc
 50
269.9999996402
 51
0.0
  0
ARC
  5
470
330
1F
100
AcDbEntity
  8
0
  6
Continuous
 62
     7
370
    25
100
AcDbCircle
 10
2556.138265923
 20
1703.225032345
 30
0.0
 40
3.000000000000227
100
AcDbArc
 50
0.0000001799
 51
90.0
  0
ARC
  5
471
330
1F
100
AcDbEntity
  8
0
  6
Continuous
 62
     7
370
    25
100
AcDbCircle
 10
2556.138265923
 20
1703.225032345
 30
0.0
 40
5.000000000000227
100
AcDbArc
 50
0.0
 51
90.0
  0
LINE
  5
472
330
1F
100
AcDbEntity
  8
0
  6
Continuous
 62
     7
370
    25
100
AcDbLine
 10
2561.138265923
 20
1703.225032345
 30
0.0
 11
2561.138265923
 21
1618.225032345
 31
0.0
  0
ARC
  5
473
330
1F
100
AcDbEntity
  8
0
  6
Continuous
 62
     7
370
    25
100
AcDbCircle
 10
2556.138265923
 20
1618.225032345
 30
0.0
 40
5.0
100
AcDbArc
 50
270.0
 51
0.0
  0
LINE
  5
474
330
1F
100
AcDbEntity
  8
0
  6
Continuous
 62
     7
370
    25
100
AcDbLine
 10
2556.138265923
 20
1613.225032345
 30
0.0
 11
2441.138265923
 21
1613.225032345
 31
0.0
  0
LINE
  5
475
330
1F
100
AcDbEntity
  8
0
  6
Continuous
 62
     7
370
    25
100
AcDbLine
 10
2441.138265923
 20
1708.225032345
 30
0.0
 11
2556.138265923
 21
1708.225032345
 31
0.0
  0
LINE
  5
476
330
1F
100
AcDbEntity
  8
0
  6
Continuous
 62
     7
370
    25
100
AcDbLine
 10
2441.138265923
 20
1706.225032345
 30
0.0
 11
2441.138265923
 21
1708.225032345
 31
0.0
  0
LINE
  5
477
330
1F
100
AcDbEntity
  8
0
  6
Continuous
 62
     7
370
    25
100
AcDbLine
 10
2441.138265923
 20
1613.225032345
 30
0.0
 11
2441.138265923
 21
1615.225032345
 31
0.0
  0
LINE
  5
478
330
1F
100
AcDbEntity
  8
0
  6
Continuous
 62
     7
370
    25
100
AcDbLine
 10
2447.3921890422
 20
1588.225032345
 30
0.0
 11
2447.388265922
 21
1588.225032345
 31
0.0
  0
LINE
  5
479
330
1F
100
AcDbEntity
  8
0
  6
Continuous
 62
     7
370
    25
100
AcDbLine
 10
2461.388265922
 20
1588.225032345
 30
0.0
 11
2447.3921890422
 21
1588.225032345
 31
0.0
  0
LINE
  5
47A
330
1F
100
AcDbEntity
  8
0
  6
Continuous
 62
     7
370
    25
100
AcDbLine
 10
2516.1382659231
 20
1589.7250323451
 30
0.0
 11
2486.2410664302
 21
1589.7250323451
 31
0.0
  0
LINE
  5
47B
330
1F
100
AcDbEntity
  8
0
  6
Continuous
 62
     7
370
    25
100
AcDbLine
 10
2486.2410664302
 20
1589.7250323451
 30
0.0
 11
2486.2410664302
 21
1598.7250323451
 31
0.0
  0
LINE
  5
47C
330
1F
100
AcDbEntity
  8
0
  6
Continuous
 62
     7
370
    25
100
AcDbLine
 10
2516.1382659231
 20
1609.5250323451
 30
0.0
 11
2486.1382659232
 21
1609.5250323451
 31
0.0
  0
LINE
  5
47D
330
1F
100
AcDbEntity
  8
0
  6
Continuous
 62
     7
370
    25
100
AcDbLine
 10
2515.1382659231
 20
1588.7250323451
 30
0.0
 11
2487.2342130631
 21
1588.7250323451
 31
0.0
  0
LINE
  5
47E
330
1F
100
AcDbEntity
  8
0
  6
Continuous
 62
     7
370
    25
100
AcDbLine
 10
2487.2342130631
 20
1588.7250323451
 30
0.0
 11
2486.2410664302
 21
1589.7250323451
 31
0.0
  0
LINE
  5
47F
330
1F
100
AcDbEntity
  8
0
  6
Continuous
 62
     7
370
    25
100
AcDbLine
 10
2515.9382659231
 20
1609.7250323451
 30
0.0
 11
2486.3382659232
 21
1609.7250323451
 31
0.0
  0
LWPOLYLINE
  5
480
330
1F
100
AcDbEntity
  8
0
  6
Continuous
 62
     7
370
    25
100
AcDbPolyline
 90
        9
 70
   128
 43
0.0
 10
2499.2621154277
 20
1609.7250323451
 10
2499.176319955
 20
1609.740605777
 10
2499.0931967421
 20
1609.7868410092
 10
2499.0153348165
 20
1609.8622979591
 10
2498.945159333
 20
1609.9646263795
 10
2498.8848560379
 20
1610.090639061
 10
2498.8363031896
 20
1610.2364111036
 10
2498.801013057
 20
1610.3974021656
 10
2498.7800848173
 20
1610.5685978801
  0
ARC
  5
481
330
1F
100
AcDbEntity
  8
0
  6
Continuous
 62
     7
370
    25
100
AcDbCircle
 10
2497.3262753917
 20
1610.6425892112
 30
0.0
 40
0.9191498472634967
100
AcDbArc
 50
273.3737472447
 51
355.3827081636
  0
ARC
  5
482
330
1F
100
AcDbEntity
  8
0
  6
Continuous
 62
     7
370
    25
100
AcDbCircle
 10
2498.5112635304
 20
1611.1020551915
 30
0.0
 40
0.5973621911663134
100
AcDbArc
 50
243.2554258351
 51
296.744575499
  0
LWPOLYLINE
  5
483
330
1F
100
AcDbEntity
  8
0
  6
Continuous
 62
     7
370
    25
100
AcDbPolyline
 90
        3
 70
   128
 43
0.0
 10
2501.9420484824
 20
1609.9646263795
 10
2502.0365233659
 20
1609.7868410092
 10
2502.151879526
 20
1609.7250323451
  0
LINE
  5
484
330
1F
100
AcDbEntity
  8
0
  6
Continuous
 62
     7
370
    25
100
AcDbLine
 10
2498.7800848173
 20
1610.5685978801
 30
0.0
 11
2501.8840990177
 21
1610.5685978801
 31
0.0
  0
LWPOLYLINE
  5
485
330
1F
100
AcDbEntity
  8
0
  6
Continuous
 62
     7
370
    25
100
AcDbPolyline
 90
        3
 70
   128
 43
0.0
 10
2501.8840990177
 20
1610.5685978801
 10
2501.8867548644
 20
1610.2364111036
 10
2501.9420484824
 20
1609.9646263795
  0
LWPOLYLINE
  5
486
330
1F
100
AcDbEntity
  8
0
  6
Continuous
 62
     7
370
    25
100
AcDbPolyline
 90
        3
 70
   128
 43
0.0
 10
2502.2104789724
 20
1609.9646263775
 10
2502.2121144341
 20
1610.2364111022
 10
2502.1844042844
 20
1610.5685978801
  0
LINE
  5
487
330
1F
100
AcDbEntity
  8
0
  6
Continuous
 62
     7
370
    25
100
AcDbLine
 10
2502.1844042844
 20
1610.5685978801
 30
0.0
 11
2505.6065373936
 21
1610.5685978801
 31
0.0
  0
LWPOLYLINE
  5
488
330
1F
100
AcDbEntity
  8
0
  6
Continuous
 62
     7
370
    25
100
AcDbPolyline
 90
        9
 70
   128
 43
0.0
 10
2505.6065373936
 20
1610.5685978801
 10
2505.5948698786
 20
1610.3974021655
 10
2505.5751955937
 20
1610.2364111036
 10
2505.5481273313
 20
1610.0906390609
 10
2505.5145081828
 20
1609.9646263795
 10
2505.4753852792
 20
1609.8622979591
 10
2505.4319771763
 20
1609.7868410092
 10
2505.3856359003
 20
1609.740605777
 10
2505.3378048368
 20
1609.7250323451
  0
LWPOLYLINE
  5
489
330
1F
100
AcDbEntity
  8
0
  6
Continuous
 62
     7
370
    25
100
AcDbPolyline
 90
        3
 70
   128
 43
0.0
 10
2502.151879526
 20
1609.7250323451
 10
2502.1869999156
 20
1609.7868410087
 10
2502.2104789724
 20
1609.9646263775
  0
LWPOLYLINE
  5
48A
330
1F
100
AcDbEntity
  8
0
  6
Continuous
 62
     7
370
    25
100
AcDbPolyline
 90
        3
 70
   128
 43
0.0
 10
2496.2715050441
 20
1609.9646263775
 10
2496.4362366061
 20
1610.2364111022
 10
2496.5068294351
 20
1610.5685978801
  0
LINE
  5
48B
330
1F
100
AcDbEntity
  8
0
  6
Continuous
 62
     7
370
    25
100
AcDbLine
 10
2496.5068294351
 20
1610.5685978801
 30
0.0
 11
2498.2424422567
 21
1610.5685978801
 31
0.0
  0
LWPOLYLINE
  5
48C
330
1F
100
AcDbEntity
  8
0
  6
Continuous
 62
     7
370
    25
100
AcDbPolyline
 90
        3
 70
   128
 43
0.0
 10
2495.7645517679
 20
1609.7250323451
 10
2496.0367007096
 20
1609.7868410087
 10
2496.2715050441
 20
1609.9646263775
  0
ARC
  5
48D
330
1F
100
AcDbEntity
  8
0
  6
Continuous
 62
     7
370
    25
100
AcDbCircle
 10
2507.0598769476
 20
1610.6994084101
 30
0.0
 40
0.9744953823061406
100
AcDbArc
 50
187.7143350976
 51
269.1033892401
  0
LWPOLYLINE
  5
48E
330
1F
100
AcDbEntity
  8
0
  6
Continuous
 62
     7
370
    25
100
AcDbPolyline
 90
        8
 70
   128
 43
0.0
 10
2505.6065373933
 20
1610.5685978738
 10
2505.7603336868
 20
1610.5237272059
 10
2505.8404093045
 20
1610.5108684223
 10
2505.9148288818
 20
1610.5065462481
 10
2505.979793317
 20
1610.5109429645
 10
2506.0292476244
 20
1610.5227042332
 10
2506.068200751
 20
1610.541911739
 10
2506.0942010934
 20
1610.5685978801
  0
LWPOLYLINE
  5
48F
330
1F
100
AcDbEntity
  8
0
  6
Continuous
 62
     7
370
    25
100
AcDbPolyline
 90
        3
 70
   128
 43
0.0
 10
2507.3538930297
 20
1609.9646263795
 10
2507.6290836474
 20
1609.7868410092
 10
2507.9454461826
 20
1609.7250323451
  0
LINE
  5
490
330
1F
100
AcDbEntity
  8
0
  6
Continuous
 62
     7
370
    25
100
AcDbLine
 10
2506.0942010934
 20
1610.5685978801
 30
0.0
 11
2507.0618070007
 21
1610.5685978801
 31
0.0
  0
LWPOLYLINE
  5
491
330
1F
100
AcDbEntity
  8
0
  6
Continuous
 62
     7
370
    25
100
AcDbPolyline
 90
        3
 70
   128
 43
0.0
 10
2507.0618070007
 20
1610.5685978801
 10
2507.1559566847
 20
1610.2364111036
 10
2507.3538930297
 20
1609.9646263795
  0
ARC
  5
492
330
1F
100
AcDbEntity
  8
0
  6
Continuous
 62
     7
370
    25
100
AcDbCircle
 10
2500.6435508005
 20
1611.0165333317
 30
0.0
 40
1.671108753475146
100
AcDbArc
 50
320.9892283134
 51
327.6243106471
  0
ARC
  5
493
330
1F
100
AcDbEntity
  8
0
  6
Continuous
 62
     7
370
    25
100
AcDbCircle
 10
2502.9132951882
 20
1610.8163396061
 30
0.0
 40
1.104249091968217
100
AcDbArc
 50
218.9803668017
 51
230.4712529786
  0
LINE
  5
494
330
1F
100
AcDbEntity
  8
0
  6
Continuous
 62
     7
370
    25
100
AcDbLine
 10
2502.0310166525
 20
1610.5560633391
 30
0.0
 11
2501.8840990177
 21
1610.5685978801
 31
0.0
  0
ARC
  5
495
330
1F
100
AcDbEntity
  8
0
  6
Continuous
 62
     7
370
    25
100
AcDbCircle
 10
2508.3880463317
 20
1610.6876916208
 30
0.0
 40
6.358392236789038
100
AcDbArc
 50
181.1861930228
 51
185.1068718152
  0
LINE
  5
496
330
1F
100
AcDbEntity
  8
0
  6
Continuous
 62
     7
370
    25
100
AcDbLine
 10
2502.1844042844
 20
1610.5685978801
 30
0.0
 11
2502.0310166525
 21
1610.5560633391
 31
0.0
  0
LWPOLYLINE
  5
497
330
1F
100
AcDbEntity
  8
0
  6
Continuous
 62
     7
370
    25
100
AcDbPolyline
 90
        3
 70
   128
 43
0.0
 10
2496.0593590131
 20
1609.9646263795
 10
2495.917776057
 20
1609.7868410092
 10
2495.7645517679
 20
1609.7250323451
  0
LWPOLYLINE
  5
498
330
1F
100
AcDbEntity
  8
0
  6
Continuous
 62
     7
370
    25
100
AcDbPolyline
 90
        9
 70
   128
 43
0.0
 10
2492.5786264936
 20
1609.7250323451
 10
2492.6264575572
 20
1609.740605777
 10
2492.6727988331
 20
1609.7868410092
 10
2492.716206936
 20
1609.8622979591
 10
2492.7553298396
 20
1609.9646263795
 10
2492.7889489881
 20
1610.090639061
 10
2492.8160172506
 20
1610.2364111036
 10
2492.8356915354
 20
1610.3974021656
 10
2492.8473590504
 20
1610.5685978801
  0
LINE
  5
499
330
1F
100
AcDbEntity
  8
0
  6
Continuous
 62
     7
370
    25
100
AcDbLine
 10
2492.8473590504
 20
1610.5685978801
 30
0.0
 11
2496.2694921231
 21
1610.5685978801
 31
0.0
  0
LWPOLYLINE
  5
49A
330
1F
100
AcDbEntity
  8
0
  6
Continuous
 62
     7
370
    25
100
AcDbPolyline
 90
        3
 70
   128
 43
0.0
 10
2496.2694921231
 20
1610.5685978801
 10
2496.1790983736
 20
1610.2364111036
 10
2496.0593590131
 20
1609.9646263795
  0
ARC
  5
49B
330
1F
100
AcDbEntity
  8
0
  6
Continuous
 62
     7
370
    25
100
AcDbCircle
 10
2495.5812825842
 20
1610.863971121
 30
0.0
 40
1.018517567753618
100
AcDbArc
 50
297.9943549493
 51
313.2167180069
  0
ARC
  5
49C
330
1F
100
AcDbEntity
  8
0
  6
Continuous
 62
     7
370
    25
100
AcDbCircle
 10
2495.8129143905
 20
1610.0644035101
 30
0.0
 40
0.4693195753306533
100
AcDbArc
 50
347.7252635692
 51
7.0132914387
  0
ARC
  5
49D
330
1F
100
AcDbEntity
  8
0
  6
Continuous
 62
     7
370
    25
100
AcDbCircle
 10
2495.0611987602
 20
1610.7127791874
 30
0.0
 40
1.353414193778533
100
AcDbArc
 50
334.1047902993
 51
353.3506380245
  0
LINE
  5
49E
330
1F
100
AcDbEntity
  8
0
  6
Continuous
 62
     7
370
    25
100
AcDbLine
 10
2496.5068294351
 20
1610.5685978801
 30
0.0
 11
2496.405509251
 21
1610.5560633391
 31
0.0
  0
LINE
  5
49F
330
1F
100
AcDbEntity
  8
0
  6
Continuous
 62
     7
370
    25
100
AcDbLine
 10
2496.405509251
 20
1610.5560633391
 30
0.0
 11
2496.2694921231
 21
1610.5685978801
 31
0.0
  0
LINE
  5
4A0
330
1F
100
AcDbEntity
  8
0
  6
Continuous
 62
     7
370
    25
100
AcDbLine
 10
2491.7649350762
 20
1609.7357766863
 30
0.0
 11
2491.6242545658
 21
1609.7250323451
 31
0.0
  0
LWPOLYLINE
  5
4A1
330
1F
100
AcDbEntity
  8
0
  6
Continuous
 62
     7
370
    25
100
AcDbPolyline
 90
        8
 70
   128
 43
0.0
 10
2492.5746813485
 20
1610.5685978738
 10
2492.5527490587
 20
1610.5237272059
 10
2492.5664323943
 20
1610.5108684224
 10
2492.5976246232
 20
1610.5065462481
 10
2492.6447101765
 20
1610.5109429645
 10
2492.7004916221
 20
1610.5227042332
 10
2492.7684549872
 20
1610.5419117389
 10
2492.8473590504
 20
1610.5685978801
  0
LWPOLYLINE
  5
4A2
330
1F
100
AcDbEntity
  8
0
  6
Continuous
 62
     7
370
    25
100
AcDbPolyline
 90
        3
 70
   128
 43
0.0
 10
2507.5213650382
 20
1609.9646263775
 10
2507.3589463682
 20
1610.2364111022
 10
2507.2491654699
 20
1610.5685978801
  0
LINE
  5
4A3
330
1F
100
AcDbEntity
  8
0
  6
Continuous
 62
     7
370
    25
100
AcDbLine
 10
2507.2491654699
 20
1610.5685978801
 30
0.0
 11
2510.3531797034
 21
1610.5685978801
 31
0.0
  0
LWPOLYLINE
  5
4A4
330
1F
100
AcDbEntity
  8
0
  6
Continuous
 62
     7
370
    25
100
AcDbPolyline
 90
        9
 70
   128
 43
0.0
 10
2510.3531797034
 20
1610.5685978801
 10
2510.3741079432
 20
1610.3974021655
 10
2510.4093980758
 20
1610.2364111036
 10
2510.4579509241
 20
1610.0906390609
 10
2510.5182542192
 20
1609.9646263795
 10
2510.5884297027
 20
1609.8622979591
 10
2510.6662916283
 20
1609.7868410092
 10
2510.7494148411
 20
1609.740605777
 10
2510.8352103139
 20
1609.7250323451
  0
LWPOLYLINE
  5
4A5
330
1F
100
AcDbEntity
  8
0
  6
Continuous
 62
     7
370
    25
100
AcDbPolyline
 90
        3
 70
   128
 43
0.0
 10
2507.9454461826
 20
1609.7250323451
 10
2507.7229649722
 20
1609.7868410087
 10
2507.5213650382
 20
1609.9646263775
  0
ARC
  5
4A6
330
1F
100
AcDbEntity
  8
0
  6
Continuous
 62
     7
370
    25
100
AcDbCircle
 10
2507.6468148506
 20
1610.166008036
 30
0.0
 40
0.3554683736667579
100
AcDbArc
 50
187.1591901875
 51
214.5082446737
  0
ARC
  5
4A7
330
1F
100
AcDbEntity
  8
0
  6
Continuous
 62
     7
370
    25
100
AcDbCircle
 10
2507.935831772
 20
1610.8071495667
 30
0.0
 40
0.9389504768035414
100
AcDbArc
 50
226.8871512526
 51
243.8058075802
  0
LINE
  5
4A8
330
1F
100
AcDbEntity
  8
0
  6
Continuous
 62
     7
370
    25
100
AcDbLine
 10
2507.1335627846
 20
1610.5560633391
 30
0.0
 11
2507.0618070007
 21
1610.5685978801
 31
0.0
  0
ARC
  5
4A9
330
1F
100
AcDbEntity
  8
0
  6
Continuous
 62
     7
370
    25
100
AcDbCircle
 10
2508.2669585985
 20
1610.7281583458
 30
0.0
 40
1.146386562285167
100
AcDbArc
 50
188.6338504039
 51
211.9386567671
  0
LINE
  5
4AA
330
1F
100
AcDbEntity
  8
0
  6
Continuous
 62
     7
370
    25
100
AcDbLine
 10
2507.2491654699
 20
1610.5685978801
 30
0.0
 11
2507.1335627846
 21
1610.5560633391
 31
0.0
  0
LWPOLYLINE
  5
4AB
330
1F
100
AcDbEntity
  8
0
  6
Continuous
 62
     7
370
    25
100
AcDbPolyline
 90
        9
 70
   128
 43
0.0
 10
2510.3531797039
 20
1610.5685978738
 10
2510.4254108494
 20
1610.5414700087
 10
2510.4837429052
 20
1610.5220927651
 10
2510.5270093992
 20
1610.5103975116
 10
2510.554720842
 20
1610.506458875
 10
2510.5671823134
 20
1610.5103911899
 10
2510.5637469477
 20
1610.5220850204
 10
2510.543279299
 20
1610.5414646896
 10
2510.505197761
 20
1610.5685978801
  0
ARC
  5
4AC
330
1F
100
AcDbEntity
  8
0
  6
Continuous
 62
     7
370
    25
100
AcDbCircle
 10
2492.6660400928
 20
1596.6488464731
 30
0.0
 40
6.75209851383033
100
AcDbArc
 50
162.0921195456
 51
171.7423680337
  0
LWPOLYLINE
  5
4AD
330
1F
100
AcDbEntity
  8
0
  6
Continuous
 62
     7
370
    25
100
AcDbPolyline
 90
       11
 70
   128
 43
0.0
 10
2486.2410664302
 20
1598.7250323451
 10
2486.2410431602
 20
1598.7249362833
 10
2486.2408635786
 20
1598.7241438126
 10
2486.2403680025
 20
1598.7219105195
 10
2486.2384986767
 20
1598.7134096515
 10
2486.2312473305
 20
1598.6802707881
 10
2486.0190371926
 20
1597.7200737686
 10
2485.8120529762
 20
1596.8381776586
 10
2485.6138278304
 20
1596.0867860723
 10
2485.2769543988
 20
1595.1283842733
 10
2484.9187767494
 20
1594.7250323451
  0
LINE
  5
4AE
330
1F
100
AcDbEntity
  8
0
  6
Continuous
 62
     7
370
    25
100
AcDbLine
 10
2486.2410664302
 20
1589.7250323451
 30
0.0
 11
2461.6422351095
 21
1589.725032345
 31
0.0
  0
LINE
  5
4AF
330
1F
100
AcDbEntity
  8
0
  6
Continuous
 62
     7
370
    25
100
AcDbLine
 10
2461.6422351095
 20
1594.725032345
 30
0.0
 11
2461.6422351095
 21
1589.725032345
 31
0.0
  0
LINE
  5
4B0
330
1F
100
AcDbEntity
  8
0
  6
Continuous
 62
     7
370
    25
100
AcDbLine
 10
2484.9187767494
 20
1594.7250323451
 30
0.0
 11
2461.6422351095
 21
1594.725032345
 31
0.0
  0
LINE
  5
4B1
330
1F
100
AcDbEntity
  8
0
  6
Continuous
 62
     7
370
    25
100
AcDbLine
 10
2462.6353817423
 20
1588.7250323451
 30
0.0
 11
2461.6422351095
 21
1589.725032345
 31
0.0
  0
LINE
  5
4B2
330
1F
100
AcDbEntity
  8
0
  6
Continuous
 62
     7
370
    25
100
AcDbLine
 10
2487.2342130631
 20
1588.7250323451
 30
0.0
 11
2462.6353817423
 21
1588.7250323451
 31
0.0
  0
ARC
  5
4B3
330
1F
100
AcDbEntity
  8
0
  6
Continuous
 62
     7
370
    25
100
AcDbCircle
 10
2490.8551672202
 20
1610.6425892112
 30
0.0
 40
0.9191498472663271
100
AcDbArc
 50
273.3737472448
 51
355.3827081649
  0
LINE
  5
4B4
330
1F
100
AcDbEntity
  8
0
  6
Continuous
 62
     7
370
    25
100
AcDbLine
 10
2462.6353817423
 20
1595.725032345
 30
0.0
 11
2461.6422351095
 21
1594.725032345
 31
0.0
  0
LINE
  5
4B5
330
1F
100
AcDbEntity
  8
0
  6
Continuous
 62
     7
370
    25
100
AcDbLine
 10
2462.6353817423
 20
1595.725032345
 30
0.0
 11
2485.4866732074
 21
1595.7250323451
 31
0.0
  0
LINE
  5
4B6
330
1F
100
AcDbEntity
  8
0
  6
Continuous
 62
     7
370
    25
100
AcDbLine
 10
2461.5297653176
 20
1589.725032345
 30
0.0
 11
2461.6422351095
 21
1589.725032345
 31
0.0
  0
LINE
  5
4B7
330
1F
100
AcDbEntity
  8
0
  6
Continuous
 62
     7
370
    25
100
AcDbLine
 10
2461.5297653176
 20
1589.725032345
 30
0.0
 11
2461.5297653176
 21
1594.725032345
 31
0.0
  0
LINE
  5
4B8
330
1F
100
AcDbEntity
  8
0
  6
Continuous
 62
     7
370
    25
100
AcDbLine
 10
2461.6422351095
 20
1594.725032345
 30
0.0
 11
2461.5297653176
 21
1594.725032345
 31
0.0
  0
LINE
  5
4B9
330
1F
100
AcDbEntity
  8
0
  6
Continuous
 62
     7
370
    25
100
AcDbLine
 10
2462.5251613463
 20
1588.725032345
 30
0.0
 11
2461.5297653176
 21
1589.725032345
 31
0.0
  0
LINE
  5
4BA
330
1F
100
AcDbEntity
  8
0
  6
Continuous
 62
     7
370
    25
100
AcDbLine
 10
2462.6353817423
 20
1588.7250323451
 30
0.0
 11
2462.5251613463
 21
1588.725032345
 31
0.0
  0
LINE
  5
4BB
330
1F
100
AcDbEntity
  8
0
  6
Continuous
 62
     7
370
    25
100
AcDbLine
 10
2461.5297653176
 20
1594.725032345
 30
0.0
 11
2462.5251613463
 21
1595.725032345
 31
0.0
  0
LINE
  5
4BC
330
1F
100
AcDbEntity
  8
0
  6
Continuous
 62
     7
370
    25
100
AcDbLine
 10
2462.5251613463
 20
1595.725032345
 30
0.0
 11
2462.6353817423
 21
1595.725032345
 31
0.0
  0
LINE
  5
4BD
330
1F
100
AcDbEntity
  8
0
  6
Continuous
 62
     7
370
    25
100
AcDbLine
 10
2444.4343056353
 20
1588.725032345
 30
0.0
 11
2443.4389096066
 21
1589.725032345
 31
0.0
  0
LINE
  5
4BE
330
1F
100
AcDbEntity
  8
0
  6
Continuous
 62
     7
370
    25
100
AcDbLine
 10
2461.5297653176
 20
1589.725032345
 30
0.0
 11
2443.4389096066
 21
1589.725032345
 31
0.0
  0
LINE
  5
4BF
330
1F
100
AcDbEntity
  8
0
  6
Continuous
 62
     7
370
    25
100
AcDbLine
 10
2462.5251613463
 20
1588.725032345
 30
0.0
 11
2444.4343056353
 21
1588.725032345
 31
0.0
  0
LINE
  5
4C0
330
1F
100
AcDbEntity
  8
0
  6
Continuous
 62
     7
370
    25
100
AcDbLine
 10
2443.4389096066
 20
1594.725032345
 30
0.0
 11
2444.4343056353
 21
1595.725032345
 31
0.0
  0
LINE
  5
4C1
330
1F
100
AcDbEntity
  8
0
  6
Continuous
 62
     7
370
    25
100
AcDbLine
 10
2461.5297653176
 20
1594.725032345
 30
0.0
 11
2443.4389096066
 21
1594.725032345
 31
0.0
  0
LINE
  5
4C2
330
1F
100
AcDbEntity
  8
0
  6
Continuous
 62
     7
370
    25
100
AcDbLine
 10
2444.4343056353
 20
1595.725032345
 30
0.0
 11
2462.5251613463
 21
1595.725032345
 31
0.0
  0
LINE
  5
4C3
330
1F
100
AcDbEntity
  8
0
  6
Continuous
 62
     7
370
    25
100
AcDbLine
 10
2443.4389096066
 20
1589.725032345
 30
0.0
 11
2443.4389096066
 21
1594.725032345
 31
0.0
  0
LINE
  5
4C4
330
1F
100
AcDbEntity
  8
0
  6
Continuous
 62
     7
370
    25
100
AcDbLine
 10
2443.4389096066
 20
1589.725032345
 30
0.0
 11
2443.3882659224
 21
1589.725032345
 31
0.0
  0
LINE
  5
4C5
330
1F
100
AcDbEntity
  8
0
  6
Continuous
 62
     7
370
    25
100
AcDbLine
 10
2444.4343056353
 20
1588.725032345
 30
0.0
 11
2444.3882659224
 21
1588.725032345
 31
0.0
  0
LINE
  5
4C6
330
1F
100
AcDbEntity
  8
0
  6
Continuous
 62
     7
370
    25
100
AcDbLine
 10
2443.4389096066
 20
1594.725032345
 30
0.0
 11
2443.3882659224
 21
1594.725032345
 31
0.0
  0
LINE
  5
4C7
330
1F
100
AcDbEntity
  8
0
  6
Continuous
 62
     7
370
    25
100
AcDbLine
 10
2444.3882659224
 20
1595.725032345
 30
0.0
 11
2444.4343056353
 21
1595.725032345
 31
0.0
  0
LINE
  5
4C8
330
1F
100
AcDbEntity
  8
0
  6
Continuous
 62
     7
370
    25
100
AcDbLine
 10
2441.138265921
 20
1569.7250323512
 30
0.0
 11
2441.638265921
 21
1569.7250323512
 31
0.0
  0
LINE
  5
4C9
330
1F
100
AcDbEntity
  8
0
  6
Continuous
 62
     7
370
    25
100
AcDbLine
 10
2441.638265921
 20
1569.7250323512
 30
0.0
 11
2441.638265921
 21
1569.2250323512
 31
0.0
  0
ARC
  5
4CA
330
1F
100
AcDbEntity
  8
0
  6
Continuous
 62
     7
370
    25
100
AcDbCircle
 10
2441.638265921
 20
1569.7250323512
 30
0.0
 40
0.5
100
AcDbArc
 50
180.0
 51
270.0
  0
LINE
  5
4CB
330
1F
100
AcDbEntity
  8
0
  6
Continuous
 62
     7
370
    25
100
AcDbLine
 10
2468.638265921
 20
1585.7250323512
 30
0.0
 11
2468.638265921
 21
1586.2250323512
 31
0.0
  0
LINE
  5
4CC
330
1F
100
AcDbEntity
  8
0
  6
Continuous
 62
     7
370
    25
100
AcDbLine
 10
2468.638265921
 20
1585.7250323512
 30
0.0
 11
2441.638265921
 21
1585.7250323512
 31
0.0
  0
LINE
  5
4CD
330
1F
100
AcDbEntity
  8
0
  6
Continuous
 62
     7
370
    25
100
AcDbLine
 10
2441.638265921
 20
1586.2250323512
 30
0.0
 11
2441.638265921
 21
1585.7250323512
 31
0.0
  0
LINE
  5
4CE
330
1F
100
AcDbEntity
  8
0
  6
Continuous
 62
     7
370
    25
100
AcDbLine
 10
2468.638265921
 20
1586.2250323512
 30
0.0
 11
2441.638265921
 21
1586.2250323512
 31
0.0
  0
LINE
  5
4CF
330
1F
100
AcDbEntity
  8
0
  6
Continuous
 62
     7
370
    25
100
AcDbLine
 10
2441.638265921
 20
1585.7250323512
 30
0.0
 11
2441.138265921
 21
1585.7250323512
 31
0.0
  0
LINE
  5
4D0
330
1F
100
AcDbEntity
  8
0
  6
Continuous
 62
     7
370
    25
100
AcDbLine
 10
2441.638265921
 20
1585.7250323512
 30
0.0
 11
2441.638265921
 21
1569.7250323512
 31
0.0
  0
LINE
  5
4D1
330
1F
100
AcDbEntity
  8
0
  6
Continuous
 62
     7
370
    25
100
AcDbLine
 10
2441.138265921
 20
1585.7250323512
 30
0.0
 11
2441.138265921
 21
1569.7250323512
 31
0.0
  0
ARC
  5
4D2
330
1F
100
AcDbEntity
  8
0
  6
Continuous
 62
     7
370
    25
100
AcDbCircle
 10
2441.638265921
 20
1585.7250323512
 30
0.0
 40
0.5
100
AcDbArc
 50
90.0
 51
180.0
  0
LINE
  5
4D3
330
1F
100
AcDbEntity
  8
0
  6
Continuous
 62
     7
370
    25
100
AcDbLine
 10
2441.638265921
 20
1569.7250323512
 30
0.0
 11
2468.638265921
 21
1569.7250323512
 31
0.0
  0
LINE
  5
4D4
330
1F
100
AcDbEntity
  8
0
  6
Continuous
 62
     7
370
    25
100
AcDbLine
 10
2468.638265921
 20
1569.7250323512
 30
0.0
 11
2468.638265921
 21
1585.7250323512
 31
0.0
  0
LINE
  5
4D5
330
1F
100
AcDbEntity
  8
0
  6
Continuous
 62
     7
370
    25
100
AcDbLine
 10
2468.638265921
 20
1569.2250323512
 30
0.0
 11
2468.638265921
 21
1569.7250323512
 31
0.0
  0
LINE
  5
4D6
330
1F
100
AcDbEntity
  8
0
  6
Continuous
 62
     7
370
    25
100
AcDbLine
 10
2441.638265921
 20
1569.2250323512
 30
0.0
 11
2468.638265921
 21
1569.2250323512
 31
0.0
  0
LINE
  5
4D7
330
1F
100
AcDbEntity
  8
0
  6
Continuous
 62
     7
370
    25
100
AcDbLine
 10
2468.638265921
 20
1569.7250323512
 30
0.0
 11
2469.138265921
 21
1569.7250323512
 31
0.0
  0
ARC
  5
4D8
330
1F
100
AcDbEntity
  8
0
  6
Continuous
 62
     7
370
    25
100
AcDbCircle
 10
2468.638265921
 20
1569.7250323512
 30
0.0
 40
0.5000000000009095
100
AcDbArc
 50
270.0
 51
0.0
  0
LINE
  5
4D9
330
1F
100
AcDbEntity
  8
0
  6
Continuous
 62
     7
370
    25
100
AcDbLine
 10
2469.138265921
 20
1585.7250323512
 30
0.0
 11
2468.638265921
 21
1585.7250323512
 31
0.0
  0
ARC
  5
4DA
330
1F
100
AcDbEntity
  8
0
  6
Continuous
 62
     7
370
    25
100
AcDbCircle
 10
2468.638265921
 20
1585.7250323512
 30
0.0
 40
0.5
100
AcDbArc
 50
360.0
 51
90.0
  0
LINE
  5
4DB
330
1F
100
AcDbEntity
  8
0
  6
Continuous
 62
     7
370
    25
100
AcDbLine
 10
2469.138265921
 20
1569.7250323512
 30
0.0
 11
2469.138265921
 21
1585.7250323512
 31
0.0
  0
LINE
  5
4DC
330
1F
100
AcDbEntity
  8
0
  6
Continuous
 62
     7
370
    25
100
AcDbLine
 10
2486.1382659232
 20
1598.7250323451
 30
0.0
 11
2486.2410664302
 21
1598.7250323451
 31
0.0
  0
LINE
  5
4DD
330
1F
100
AcDbEntity
  8
0
  6
Continuous
 62
     7
370
    25
100
AcDbLine
 10
2498.8349595321
 20
1611.4690163761
 30
0.0
 11
2498.7800848173
 21
1610.5685978801
 31
0.0
  0
LINE
  5
4DE
330
1F
100
AcDbEntity
  8
0
  6
Continuous
 62
     7
370
    25
100
AcDbLine
 10
2498.2424422563
 20
1610.5685978801
 30
0.0
 11
2498.2973169693
 21
1611.4690163761
 31
0.0
  0
LINE
  5
4DF
330
1F
100
AcDbEntity
  8
0
  6
Continuous
 62
     7
370
    25
100
AcDbLine
 10
2496.6024751088
 20
1611.4690163761
 30
0.0
 11
2496.5068294351
 21
1610.5685978801
 31
0.0
  0
LINE
  5
4E0
330
1F
100
AcDbEntity
  8
0
  6
Continuous
 62
     7
370
    25
100
AcDbLine
 10
2501.8840990176
 20
1610.5685978801
 30
0.0
 11
2501.8660579099
 21
1611.4690163761
 31
0.0
  0
LINE
  5
4E1
330
1F
100
AcDbEntity
  8
0
  6
Continuous
 62
     7
370
    25
100
AcDbLine
 10
2505.6065373927
 20
1610.5685978801
 30
0.0
 11
2505.5081075872
 21
1611.4690163761
 31
0.0
  0
LINE
  5
4E2
330
1F
100
AcDbEntity
  8
0
  6
Continuous
 62
     7
370
    25
100
AcDbLine
 10
2502.1663631767
 20
1611.4690163761
 30
0.0
 11
2502.1844042844
 21
1610.5685978801
 31
0.0
  0
LINE
  5
4E3
330
1F
100
AcDbEntity
  8
0
  6
Continuous
 62
     7
370
    25
100
AcDbLine
 10
2505.9957712915
 20
1611.4690163761
 30
0.0
 11
2506.0942010934
 21
1610.5685978801
 31
0.0
  0
LINE
  5
4E4
330
1F
100
AcDbEntity
  8
0
  6
Continuous
 62
     7
370
    25
100
AcDbLine
 10
2507.0618070007
 20
1610.5685978801
 30
0.0
 11
2506.9406473478
 21
1611.4690163761
 31
0.0
  0
LINE
  5
4E5
330
1F
100
AcDbEntity
  8
0
  6
Continuous
 62
     7
370
    25
100
AcDbLine
 10
2496.2694921231
 20
1610.5685978801
 30
0.0
 11
2496.3651377968
 21
1611.4690163761
 31
0.0
  0
LINE
  5
4E6
330
1F
100
AcDbEntity
  8
0
  6
Continuous
 62
     7
370
    25
100
AcDbLine
 10
2493.0233934183
 20
1611.4690163761
 30
0.0
 11
2492.8473590504
 21
1610.5685978801
 31
0.0
  0
LINE
  5
4E7
330
1F
100
AcDbEntity
  8
0
  6
Continuous
 62
     7
370
    25
100
AcDbLine
 10
2507.1280058169
 20
1611.4690163761
 30
0.0
 11
2507.2491654699
 21
1610.5685978801
 31
0.0
  0
LINE
  5
4E8
330
1F
100
AcDbEntity
  8
0
  6
Continuous
 62
     7
370
    25
100
AcDbLine
 10
2510.3531797026
 20
1610.5685978801
 30
0.0
 11
2510.1591042237
 21
1611.4690163761
 31
0.0
  0
LINE
  5
4E9
330
1F
100
AcDbEntity
  8
0
  6
Continuous
 62
     7
370
    25
100
AcDbLine
 10
2491.7713340853
 20
1610.5685978801
 30
0.0
 11
2492.5595128342
 21
1610.5685978801
 31
0.0
  0
LINE
  5
4EA
330
1F
100
AcDbEntity
  8
0
  6
Continuous
 62
     7
370
    25
100
AcDbLine
 10
2491.9654095609
 20
1611.4690163761
 30
0.0
 11
2491.7713340853
 21
1610.5685978801
 31
0.0
  0
LWPOLYLINE
  5
4EB
330
1F
100
AcDbEntity
  8
0
  6
Continuous
 62
     7
370
    25
100
AcDbPolyline
 90
        3
 70
   128
 43
0.0
 10
2491.7108313571
 20
1610.5152906761
 10
2491.7142855852
 20
1610.5237132243
 10
2491.7713340853
 20
1610.5685978801
  0
LINE
  5
4EC
330
1F
100
AcDbEntity
  8
FORMAT
370
    25
100
AcDbLine
 10
2491.1382659234
 20
1804.4304100476
 30
0.0
 11
2491.1382659234
 21
1914.0472153772
 31
0.0
  0
LINE
  5
4ED
330
1F
100
AcDbEntity
  8
FORMAT
370
    25
100
AcDbLine
 10
2411.1382659234
 20
1804.4304100476
 30
0.0
 11
2411.1382659234
 21
1914.0472153772
 31
0.0
  0
DIMENSION
  5
4EE
330
1F
100
AcDbEntity
  8
FORMAT
100
AcDbDimension
  2
_D_20
 10
2491.1382659233
 20
1883.5981027856
 30
0.0
 11
2555.3304905456
 21
1883.5981027856
 31
0.0
 70
   160
  1
max. +<>
 71
     2
 42
-1.0
  3
SLDDIMSTYLE4
100
AcDbAlignedDimension
 13
2441.1382659233
 23
1799.725032345
 33
0.0
 14
2491.1382659233
 24
1914.0472153772
 34
0.0
 50
0.0
100
AcDbRotatedDimension
  0
DIMENSION
  5
4FF
330
1F
100
AcDbEntity
  8
FORMAT
100
AcDbDimension
  2
_D_21
 10
2411.1382659233
 20
1883.5981027856
 30
0.0
 11
2349.0685704687
 21
1883.5981027856
 31
0.0
 70
   160
  1
max. -<>
 71
     2
 42
-1.0
  3
SLDDIMSTYLE4
100
AcDbAlignedDimension
 13
2441.1382659233
 23
1799.725032345
 33
0.0
 14
2411.1382659233
 24
1914.0472153772
 34
0.0
100
AcDbRotatedDimension
  0
DIMENSION
  5
50A
330
1F
100
AcDbEntity
  8
FORMAT
100
AcDbDimension
  2
_D_22
 10
2469.138265921
 20
1482.2471268994
 30
0.0
 11
2513.9462310668
 21
1482.2471268994
 31
0.0
 70
   160
  1
<>
 71
     2
 42
-1.0
  3
SLDDIMSTYLE1
100
AcDbAlignedDimension
 13
2441.1382659234
 23
1594.725032345
 33
0.0
 14
2469.138265921
 24
1569.7250323512
 34
0.0
100
AcDbRotatedDimension
  0
DIMENSION
  5
515
330
1F
100
AcDbEntity
  8
FORMAT
100
AcDbDimension
  2
_D_23
 10
2561.138265923
 20
1413.5574716482
 30
0.0
 11
2501.1382659232
 21
1413.5574716482
 31
0.0
 70
   160
  1
<>
 71
     2
 42
-1.0
  3
SLDDIMSTYLE0
100
AcDbAlignedDimension
 13
2441.1382659234
 23
1299.725032345
 33
0.0
 14
2561.138265923
 24
1618.225032345
 34
0.0
 50
0.0
100
AcDbRotatedDimension
  0
DIMENSION
  5
51E
330
1F
100
AcDbEntity
  8
FORMAT
100
AcDbDimension
  2
_D_24
 10
2636.1109349066
 20
1708.225032345
 30
0.0
 11
2636.1109349066
 21
1638.7250323481
 31
0.0
 70
   160
  1
<>
 71
     2
 42
-1.0
  3
SLDDIMSTYLE0
100
AcDbAlignedDimension
 13
2468.638265921
 23
1569.2250323512
 33
0.0
 14
2556.138265923
 24
1708.225032345
 34
0.0
 50
90.0
100
AcDbRotatedDimension
  0
DIMENSION
  5
528
330
1F
100
AcDbEntity
  8
FORMAT
100
AcDbDimension
  2
_D_25
 10
2323.9672542394
 20
1709.225032345
 30
0.0
 11
2323.9672542394
 21
1654.475032345
 31
0.0
 70
   160
  1
<>
 71
     2
 42
-1.0
  3
SLDDIMSTYLE0
100
AcDbAlignedDimension
 13
2411.1382659234
 23
1599.725032345
 33
0.0
 14
2442.138265923
 24
1709.225032345
 34
0.0
 50
90.0
100
AcDbRotatedDimension
  0
MTEXT
  5
532
330
1F
100
AcDbEntity
  8
FORMAT
100
AcDbMText
 10
2444.2074922335
 20
1980.364803816
 30
0.0
 40
35.0
 41
0.0
 71
     2
 72
     1
  1
A-A
  7
SLDTEXTSTYLE0
 73
     1
 44
1.0
  0
MTEXT
  5
533
330
1F
100
AcDbEntity
  8
FORMAT
100
AcDbMText
 10
2432.4424691893
 20
1918.2433008948
 30
0.0
 40
18.5208333333
 41
0.0
 71
     1
 72
     1
  1
**
  7
SLDTEXTSTYLE0
 73
     1
 44
1.0
  0
MTEXT
  5
534
330
1F
100
AcDbEntity
  8
FORMAT
100
AcDbMText
 10
2390.1498602386
 20
1268.7061200156
 30
0.0
 40
18.5208333333
 41
0.0
 71
     1
 72
     1
  1
** Sturztiefe
  7
SLDTEXTSTYLE0
 73
     1
 44
1.0
  0
CIRCLE
  5
535
330
1F
100
AcDbEntity
  8
0
  6
Continuous
 62
     7
370
    18
100
AcDbCircle
 10
2427.2440765248
 20
1681.4619244771
 30
0.0
 40
154.7220534805851
  0
MTEXT
  5
536
330
1F
100
AcDbEntity
  8
0
  6
Continuous
 62
     7
370
    18
100
AcDbMText
 10
2574.7029476552
 20
1813.1968094234
 30
0.0
 40
35.0
 41
0.0
 71
     1
 72
     1
  1
B
  7
SLDTEXTSTYLE0
 73
     1
 44
1.0
  0
LINE
  5
537
330
1F
100
AcDbEntity
  8
0
  6
Continuous
 62
     7
370
    25
100
AcDbLine
 10
2384.3461011066
 20
728.4324509789
 30
0.0
 11
2384.3461011066
 21
730.8908736099
 31
0.0
  0
LINE
  5
538
330
1F
100
AcDbEntity
  8
0
  6
Continuous
 62
     7
370
    25
100
AcDbLine
 10
2342.3460994377
 20
729.4908707727
 30
0.0
 11
2342.3460994377
 21
728.4324509789
 31
0.0
  0
LINE
  5
539
330
1F
100
AcDbEntity
  8
0
  6
Continuous
 62
     7
370
    25
100
AcDbLine
 10
2395.546097727
 20
863.890871941
 30
0.0
 11
2395.546097727
 21
865.2908747782
 31
0.0
  0
LINE
  5
53A
330
1F
100
AcDbEntity
  8
0
  6
Continuous
 62
     7
370
    25
100
AcDbLine
 10
2288.0960990205
 20
695.8908704807
 30
0.0
 11
2288.0960990205
 21
693.0908700217
 31
0.0
  0
LINE
  5
53B
330
1F
100
AcDbEntity
  8
0
  6
Continuous
 62
     7
370
    25
100
AcDbLine
 10
2307.6961002774
 20
693.0908700217
 30
0.0
 11
2307.6961002774
 21
695.8908704807
 31
0.0
  0
LINE
  5
53C
330
1F
100
AcDbEntity
  8
0
  6
Continuous
 62
     7
370
    25
100
AcDbLine
 10
2304.8960998184
 20
695.8908704807
 30
0.0
 11
2304.8960998184
 21
696.5908718993
 31
0.0
  0
LINE
  5
53D
330
1F
100
AcDbEntity
  8
0
  6
Continuous
 62
     7
370
    25
100
AcDbLine
 10
2290.8960994794
 20
696.5908718993
 30
0.0
 11
2290.8960994794
 21
695.8908704807
 31
0.0
  0
LINE
  5
53E
330
1F
100
AcDbEntity
  8
0
  6
Continuous
 62
     7
370
    25
100
AcDbLine
 10
2342.3460994377
 20
725.7108693708
 30
0.0
 11
2342.3460994377
 21
710.5908689786
 31
0.0
  0
LINE
  5
53F
330
1F
100
AcDbEntity
  8
0
  6
Continuous
 62
     7
370
    25
100
AcDbLine
 10
2384.3461011066
 20
697.990869521
 30
0.0
 11
2384.3461011066
 21
725.7108693708
 31
0.0
  0
LINE
  5
540
330
1F
100
AcDbEntity
  8
0
  6
Continuous
 62
     7
370
    25
100
AcDbLine
 10
2382.9460982694
 20
696.5908718993
 30
0.0
 11
2384.3461011066
 21
697.990869521
 31
0.0
  0
LINE
  5
541
330
1F
100
AcDbEntity
  8
0
  6
Continuous
 62
     7
370
    25
100
AcDbLine
 10
2384.3461011066
 20
725.7108693708
 30
0.0
 11
2384.0661015823
 21
725.9908688952
 31
0.0
  0
LINE
  5
542
330
1F
100
AcDbEntity
  8
0
  6
Continuous
 62
     7
370
    25
100
AcDbLine
 10
2342.6260989621
 20
725.9908688952
 30
0.0
 11
2342.3460994377
 21
725.7108693708
 31
0.0
  0
LWPOLYLINE
  5
543
330
1F
100
AcDbEntity
  8
0
  6
Continuous
 62
     7
370
    25
100
AcDbPolyline
 90
       12
 70
   128
 43
0.0
 10
2351.3261061623
 20
727.1220436086
 10
2351.1721395417
 20
726.7033768584
 10
2350.9136692151
 20
726.3726835836
 10
2350.7583205118
 20
726.2461891164
 10
2350.5989376917
 20
726.1490365256
 10
2350.4500899925
 20
726.0806469013
 10
2350.3260624125
 20
726.0366340865
 10
2350.2404645546
 20
726.0110316564
 10
2350.2062723502
 20
725.9979618479
 10
2350.2354342952
 20
725.9925013174
 10
2350.337471114
 20
725.9909732033
 10
2350.4572794303
 20
725.990905403
  0
LINE
  5
544
330
1F
100
AcDbEntity
  8
0
  6
Continuous
 62
     7
370
    25
100
AcDbLine
 10
2351.5822947486
 20
728.4324509789
 30
0.0
 11
2351.3077218547
 21
727.0279994
 31
0.0
  0
LWPOLYLINE
  5
545
330
1F
100
AcDbEntity
  8
0
  6
Continuous
 62
     7
370
    25
100
AcDbPolyline
 90
        4
 70
   128
 43
0.0
 10
2377.6685137763
 20
725.9909001876
 10
2377.7239639773
 20
725.9909366955
 10
2377.7598459735
 20
725.9924074401
 10
2377.7588237538
 20
725.9926264872
  0
ARC
  5
546
330
1F
100
AcDbEntity
  8
0
  6
Continuous
 62
     7
370
    25
100
AcDbCircle
 10
2377.935938713
 20
727.4065234777
 30
0.0
 40
1.422867958275151
100
AcDbArc
 50
192.614243731
 51
261.832694584
  0
LWPOLYLINE
  5
547
330
1F
100
AcDbEntity
  8
0
  6
Continuous
 62
     7
370
    25
100
AcDbPolyline
 90
        3
 70
   128
 43
0.0
 10
2342.1330422624
 20
709.1103402664
 10
2342.0431808098
 20
708.6292868246
 10
2341.9229370072
 20
708.0856067826
  0
LINE
  5
548
330
1F
100
AcDbEntity
  8
0
  6
Continuous
 62
     7
370
    25
100
AcDbLine
 10
2376.5474204435
 20
727.0957840373
 30
0.0
 11
2376.2593161776
 21
728.4324509789
 31
0.0
  0
ARC
  5
549
330
1F
100
AcDbEntity
  8
0
  6
Continuous
 62
     7
370
    25
100
AcDbCircle
 10
2338.1461136173
 20
710.590872634
 30
0.0
 40
4.199985820377381
100
AcDbArc
 50
347.4491213423
 51
359.9999501334
  0
LINE
  5
54A
330
1F
100
AcDbEntity
  8
0
  6
Continuous
 62
     7
370
    25
100
AcDbLine
 10
2350.4328843667
 20
728.4324509789
 30
0.0
 11
2350.1447827085
 21
727.0957840373
 31
0.0
  0
ARC
  5
54B
330
1F
100
AcDbEntity
  8
0
  6
Continuous
 62
     7
370
    25
100
AcDbCircle
 10
2348.7029485703
 20
727.436992377
 30
0.0
 40
1.481656253689068
100
AcDbArc
 50
282.5733271632
 51
346.686151955
  0
LINE
  5
54C
330
1F
100
AcDbEntity
  8
0
  6
Continuous
 62
     7
370
    25
100
AcDbLine
 10
2282.4961007103
 20
697.990869521
 30
0.0
 11
2283.8961009397
 21
696.5908718993
 31
0.0
  0
LINE
  5
54D
330
1F
100
AcDbEntity
  8
0
  6
Continuous
 62
     7
370
    25
100
AcDbLine
 10
2283.8961009397
 20
706.3908708979
 30
0.0
 11
2282.4961007103
 21
704.9908732761
 31
0.0
  0
LINE
  5
54E
330
1F
100
AcDbEntity
  8
0
  6
Continuous
 62
     7
370
    25
100
AcDbLine
 10
2282.4961007103
 20
704.9908732761
 30
0.0
 11
2282.4961007103
 21
697.990869521
 31
0.0
  0
ARC
  5
54F
330
1F
100
AcDbEntity
  8
0
  6
Continuous
 62
     7
370
    18
100
AcDbCircle
 10
2259.8942408437
 20
826.422535291
 30
0.0
 40
216.6108909752221
100
AcDbArc
 50
248.7386152996
 51
275.1521546454
  0
LINE
  5
550
330
1F
100
AcDbEntity
  8
0
  6
Continuous
 62
     7
370
    25
100
AcDbLine
 10
2181.3461017325
 20
739.99087119
 30
0.0
 11
2237.3461004808
 21
739.99087119
 31
0.0
  0
LINE
  5
551
330
1F
100
AcDbEntity
  8
0
  6
Continuous
 62
     7
370
    25
100
AcDbLine
 10
2237.3461004808
 20
704.9908732761
 30
0.0
 11
2237.3461004808
 21
739.99087119
 31
0.0
  0
LINE
  5
552
330
1F
100
AcDbEntity
  8
0
  6
Continuous
 62
     7
370
    25
100
AcDbLine
 10
2237.3461004808
 20
704.9908732761
 30
0.0
 11
2279.346099542
 21
704.9908732761
 31
0.0
  0
LINE
  5
553
330
1F
100
AcDbEntity
  8
0
  6
Continuous
 62
     7
370
    25
100
AcDbLine
 10
2279.346099542
 20
704.9908732761
 30
0.0
 11
2279.346099542
 21
692.3908686031
 31
0.0
  0
LINE
  5
554
330
1F
100
AcDbEntity
  8
0
  6
Continuous
 62
     7
370
    25
100
AcDbLine
 10
2279.346099542
 20
669.9908701469
 30
0.0
 11
2279.346099542
 21
610.6868097325
 31
0.0
  0
LINE
  5
555
330
1F
100
AcDbEntity
  8
0
  6
Continuous
 62
     7
370
    25
100
AcDbLine
 10
2181.3461017325
 20
624.5550838996
 30
0.0
 11
2181.3461017325
 21
739.99087119
 31
0.0
  0
LINE
  5
556
330
1F
100
AcDbEntity
  8
0
  6
Continuous
 62
     7
370
    25
100
AcDbLine
 10
2279.346099542
 20
991.9908707727
 30
0.0
 11
2279.346099542
 21
863.890871941
 31
0.0
  0
LINE
  5
557
330
1F
100
AcDbEntity
  8
0
  6
Continuous
 62
     7
370
    25
100
AcDbLine
 10
2279.346099542
 20
730.8908736099
 30
0.0
 11
2279.346099542
 21
711.9908718158
 31
0.0
  0
LINE
  5
558
330
1F
100
AcDbEntity
  8
0
  6
Continuous
 62
     7
370
    25
100
AcDbLine
 10
2279.346099542
 20
711.9908718158
 30
0.0
 11
2237.3461004808
 21
711.9908718158
 31
0.0
  0
LINE
  5
559
330
1F
100
AcDbEntity
  8
0
  6
Continuous
 62
     7
370
    25
100
AcDbLine
 10
2237.3461004808
 20
711.9908718158
 30
0.0
 11
2237.3461004808
 21
746.9908749451
 31
0.0
  0
LINE
  5
55A
330
1F
100
AcDbEntity
  8
0
  6
Continuous
 62
     7
370
    25
100
AcDbLine
 10
2237.3461004808
 20
746.9908749451
 30
0.0
 11
2181.3461017325
 21
746.9908749451
 31
0.0
  0
LINE
  5
55B
330
1F
100
AcDbEntity
  8
0
  6
Continuous
 62
     7
370
    25
100
AcDbLine
 10
2181.3461017325
 20
991.9908707727
 30
0.0
 11
2181.3461017325
 21
746.9908749451
 31
0.0
  0
LINE
  5
55C
330
1F
100
AcDbEntity
  8
0
  6
Continuous
 62
     7
370
    25
100
AcDbLine
 10
2181.3461017325
 20
991.9908707727
 30
0.0
 11
2279.346099542
 21
991.9908707727
 31
0.0
  0
LINE
  5
55D
330
1F
100
AcDbEntity
  8
0
  6
Continuous
 62
     7
370
    25
100
AcDbLine
 10
2279.346099542
 20
704.9908732761
 30
0.0
 11
2279.346099542
 21
711.9908718158
 31
0.0
  0
LINE
  5
55E
330
1F
100
AcDbEntity
  8
0
  6
Continuous
 62
     7
370
    25
100
AcDbLine
 10
2181.3461017325
 20
746.9908749451
 30
0.0
 11
2181.3461017325
 21
739.99087119
 31
0.0
  0
LINE
  5
55F
330
1F
100
AcDbEntity
  8
0
  6
Continuous
 62
     7
370
    25
100
AcDbLine
 10
2344.847809942
 20
728.4324509789
 30
0.0
 11
2384.3461011066
 21
728.4324509789
 31
0.0
  0
LINE
  5
560
330
1F
100
AcDbEntity
  8
0
  6
Continuous
 62
     7
370
    25
100
AcDbLine
 10
2342.3460994377
 20
728.4324509789
 30
0.0
 11
2344.847809942
 21
728.4324509789
 31
0.0
  0
LINE
  5
561
330
1F
100
AcDbEntity
  8
0
  6
Continuous
 62
     7
370
    25
100
AcDbLine
 10
2280.7460997715
 20
865.2908747782
 30
0.0
 11
2363.3461002722
 21
865.2908747782
 31
0.0
  0
LINE
  5
562
330
1F
100
AcDbEntity
  8
0
  6
Continuous
 62
     7
370
    25
100
AcDbLine
 10
2363.3461002722
 20
865.2908747782
 30
0.0
 11
2363.3461002722
 21
863.890871941
 31
0.0
  0
LINE
  5
563
330
1F
100
AcDbEntity
  8
0
  6
Continuous
 62
     7
370
    25
100
AcDbLine
 10
2280.7460997715
 20
863.890871941
 30
0.0
 11
2280.7460997715
 21
865.2908747782
 31
0.0
  0
LINE
  5
564
330
1F
100
AcDbEntity
  8
0
  6
Continuous
 62
     7
370
    25
100
AcDbLine
 10
2363.3461002722
 20
865.2908747782
 30
0.0
 11
2395.546097727
 21
865.2908747782
 31
0.0
  0
LINE
  5
565
330
1F
100
AcDbEntity
  8
0
  6
Continuous
 62
     7
370
    25
100
AcDbLine
 10
2359.1461021914
 20
730.8908736099
 30
0.0
 11
2359.1461021914
 21
729.4908707727
 31
0.0
  0
LINE
  5
566
330
1F
100
AcDbEntity
  8
0
  6
Continuous
 62
     7
370
    25
100
AcDbLine
 10
2359.1461021914
 20
729.4908707727
 30
0.0
 11
2280.7460997715
 21
729.4908707727
 31
0.0
  0
LINE
  5
567
330
1F
100
AcDbEntity
  8
0
  6
Continuous
 62
     7
370
    25
100
AcDbLine
 10
2280.7460997715
 20
729.4908707727
 30
0.0
 11
2280.7460997715
 21
730.8908736099
 31
0.0
  0
LINE
  5
568
330
1F
100
AcDbEntity
  8
0
  6
Continuous
 62
     7
370
    25
100
AcDbLine
 10
2440.3461050703
 20
737.8908669342
 30
0.0
 11
2440.3461050703
 21
856.8908786167
 31
0.0
  0
LINE
  5
569
330
1F
100
AcDbEntity
  8
0
  6
Continuous
 62
     7
370
    25
100
AcDbLine
 10
2279.346099542
 20
737.8908669342
 30
0.0
 11
2440.3461050703
 21
737.8908669342
 31
0.0
  0
LINE
  5
56A
330
1F
100
AcDbEntity
  8
0
  6
Continuous
 62
     7
370
    25
100
AcDbLine
 10
2279.346099542
 20
856.8908786167
 30
0.0
 11
2279.346099542
 21
737.8908669342
 31
0.0
  0
LINE
  5
56B
330
1F
100
AcDbEntity
  8
0
  6
Continuous
 62
     7
370
    25
100
AcDbLine
 10
2440.3461050703
 20
856.8908786167
 30
0.0
 11
2279.346099542
 21
856.8908786167
 31
0.0
  0
LINE
  5
56C
330
1F
100
AcDbEntity
  8
0
  6
Continuous
 62
     7
370
    25
100
AcDbLine
 10
2296.146099688
 20
838.690862595
 30
0.0
 11
2296.146099688
 21
756.0908725251
 31
0.0
  0
ARC
  5
56D
330
1F
100
AcDbEntity
  8
0
  6
Continuous
 62
     7
370
    25
100
AcDbCircle
 10
2300.3460925787
 20
756.0908673351
 30
0.0
 40
4.199992890686214
100
AcDbArc
 50
179.999929198
 51
270.0001063759
  0
LINE
  5
56E
330
1F
100
AcDbEntity
  8
0
  6
Continuous
 62
     7
370
    25
100
AcDbLine
 10
2300.3461003765
 20
751.8908744444
 30
0.0
 11
2420.7460966422
 21
751.8908744444
 31
0.0
  0
ARC
  5
56F
330
1F
100
AcDbEntity
  8
0
  6
Continuous
 62
     7
370
    25
100
AcDbCircle
 10
2420.7461011341
 20
756.0908784641
 30
0.0
 40
4.20000401973595
100
AcDbArc
 50
269.9999387234
 51
359.9999189811
  0
LINE
  5
570
330
1F
100
AcDbEntity
  8
0
  6
Continuous
 62
     7
370
    25
100
AcDbLine
 10
2424.9461051538
 20
756.0908725251
 30
0.0
 11
2424.9461051538
 21
838.690862595
 31
0.0
  0
ARC
  5
571
330
1F
100
AcDbEntity
  8
0
  6
Continuous
 62
     7
370
    25
100
AcDbCircle
 10
2420.7461011341
 20
838.6908670868
 30
0.0
 40
4.200004019732788
100
AcDbArc
 50
359.9999387234
 51
90.0000612766
  0
LINE
  5
572
330
1F
100
AcDbEntity
  8
0
  6
Continuous
 62
     7
370
    25
100
AcDbLine
 10
2420.7460966422
 20
842.8908711065
 30
0.0
 11
2300.3461003765
 21
842.8908711065
 31
0.0
  0
ARC
  5
573
330
1F
100
AcDbEntity
  8
0
  6
Continuous
 62
     7
370
    25
100
AcDbCircle
 10
2300.3460925787
 20
838.6908782158
 30
0.0
 40
4.1999928907307
100
AcDbArc
 50
89.9998936243
 51
180.0002130973
  0
LINE
  5
574
330
1F
100
AcDbEntity
  8
0
  6
Continuous
 62
     7
370
    25
100
AcDbLine
 10
2440.3461050703
 20
861.0908662666
 30
0.0
 11
2291.2461001887
 21
861.0908662666
 31
0.0
  0
LINE
  5
575
330
1F
100
AcDbEntity
  8
0
  6
Continuous
 62
     7
370
    25
100
AcDbLine
 10
2440.3461050703
 20
856.8908786167
 30
0.0
 11
2440.3461050703
 21
861.0908662666
 31
0.0
  0
LINE
  5
576
330
1F
100
AcDbEntity
  8
0
  6
Continuous
 62
     7
370
    25
100
AcDbLine
 10
2279.346099542
 20
856.8908786167
 30
0.0
 11
2279.346099542
 21
861.0908662666
 31
0.0
  0
LINE
  5
577
330
1F
100
AcDbEntity
  8
0
  6
Continuous
 62
     7
370
    25
100
AcDbLine
 10
2284.2460990413
 20
861.0908662666
 30
0.0
 11
2279.346099542
 21
861.0908662666
 31
0.0
  0
ARC
  5
578
330
1F
100
AcDbEntity
  8
0
  6
Continuous
 62
     7
370
    25
100
AcDbCircle
 10
2287.746099615
 20
862.9575323077
 30
0.0
 40
3.966666878480635
100
AcDbArc
 50
208.0724750633
 51
331.9275249367
  0
LINE
  5
579
330
1F
100
AcDbEntity
  8
0
  6
Continuous
 62
     7
370
    25
100
AcDbLine
 10
2279.346099542
 20
733.6908688535
 30
0.0
 11
2284.2460990413
 21
733.6908688535
 31
0.0
  0
LINE
  5
57A
330
1F
100
AcDbEntity
  8
0
  6
Continuous
 62
     7
370
    25
100
AcDbLine
 10
2279.346099542
 20
733.6908688535
 30
0.0
 11
2279.346099542
 21
737.8908669342
 31
0.0
  0
LINE
  5
57B
330
1F
100
AcDbEntity
  8
0
  6
Continuous
 62
     7
370
    25
100
AcDbLine
 10
2440.3461050703
 20
733.6908688535
 30
0.0
 11
2440.3461050703
 21
737.8908669342
 31
0.0
  0
LINE
  5
57C
330
1F
100
AcDbEntity
  8
0
  6
Continuous
 62
     7
370
    25
100
AcDbLine
 10
2291.2461001887
 20
733.6908688535
 30
0.0
 11
2440.3461050703
 21
733.6908688535
 31
0.0
  0
ARC
  5
57D
330
1F
100
AcDbEntity
  8
0
  6
Continuous
 62
     7
370
    25
100
AcDbCircle
 10
2287.746099615
 20
731.8242094094
 30
0.0
 40
3.9666637739879
100
AcDbArc
 50
28.0723909839
 51
151.9276090161
  0
LINE
  5
57E
330
1F
100
AcDbEntity
  8
0
  6
Continuous
 62
     7
370
    25
100
AcDbLine
 10
2444.5461031511
 20
737.8908669342
 30
0.0
 11
2444.5461031511
 21
856.8908786167
 31
0.0
  0
LINE
  5
57F
330
1F
100
AcDbEntity
  8
0
  6
Continuous
 62
     7
370
    25
100
AcDbLine
 10
2440.3461050703
 20
737.8908669342
 30
0.0
 11
2444.5461031511
 21
737.8908669342
 31
0.0
  0
LINE
  5
580
330
1F
100
AcDbEntity
  8
0
  6
Continuous
 62
     7
370
    25
100
AcDbLine
 10
2444.5461031511
 20
856.8908786167
 30
0.0
 11
2440.3461050703
 21
856.8908786167
 31
0.0
  0
ARC
  5
581
330
1F
100
AcDbEntity
  8
0
  6
Continuous
 62
     7
370
    25
100
AcDbCircle
 10
2440.3460813247
 20
737.8908906799
 30
0.0
 40
4.200021826480389
100
AcDbArc
 50
270.0003239334
 51
359.9996760666
  0
ARC
  5
582
330
1F
100
AcDbEntity
  8
0
  6
Continuous
 62
     7
370
    25
100
AcDbCircle
 10
2440.3460991313
 20
856.8908622468
 30
0.0
 40
4.200004019785935
100
AcDbArc
 50
0.0002233151
 51
89.9999189808
  0
ARC
  5
583
330
1F
100
AcDbEntity
  8
0
  6
Continuous
 62
     7
370
    25
100
AcDbCircle
 10
2440.346091695
 20
856.8908652414
 30
0.0
 40
7.000006699600749
100
AcDbArc
 50
0.0001094783
 51
89.9998905217
  0
LINE
  5
584
330
1F
100
AcDbEntity
  8
0
  6
Continuous
 62
     7
370
    25
100
AcDbLine
 10
2447.3460983946
 20
856.8908786167
 30
0.0
 11
2447.3460983946
 21
737.8908669342
 31
0.0
  0
ARC
  5
585
330
1F
100
AcDbEntity
  8
0
  6
Continuous
 62
     7
370
    25
100
AcDbCircle
 10
2440.3461095016
 20
737.890862503
 30
0.0
 40
6.999988893060087
100
AcDbArc
 50
269.9999637299
 51
0.0000362701
  0
LINE
  5
586
330
1F
100
AcDbEntity
  8
0
  6
Continuous
 62
     7
370
    25
100
AcDbLine
 10
2440.3461050703
 20
730.8908736099
 30
0.0
 11
2279.346099542
 21
730.8908736099
 31
0.0
  0
LINE
  5
587
330
1F
100
AcDbEntity
  8
0
  6
Continuous
 62
     7
370
    25
100
AcDbLine
 10
2279.346099542
 20
863.890871941
 30
0.0
 11
2440.3461050703
 21
863.890871941
 31
0.0
  0
LINE
  5
588
330
1F
100
AcDbEntity
  8
0
  6
Continuous
 62
     7
370
    25
100
AcDbLine
 10
2279.346099542
 20
861.0908662666
 30
0.0
 11
2279.346099542
 21
863.890871941
 31
0.0
  0
LINE
  5
589
330
1F
100
AcDbEntity
  8
0
  6
Continuous
 62
     7
370
    25
100
AcDbLine
 10
2279.346099542
 20
730.8908736099
 30
0.0
 11
2279.346099542
 21
733.6908688535
 31
0.0
  0
LINE
  5
58A
330
1F
100
AcDbEntity
  8
0
  6
Continuous
 62
     7
370
    25
100
AcDbLine
 10
2288.1015934511
 20
695.8908704807
 30
0.0
 11
2288.0960990205
 21
695.8908704807
 31
0.0
  0
LINE
  5
58B
330
1F
100
AcDbEntity
  8
0
  6
Continuous
 62
     7
370
    25
100
AcDbLine
 10
2307.6961002774
 20
695.8908704807
 30
0.0
 11
2288.1015934511
 21
695.8908704807
 31
0.0
  0
LINE
  5
58C
330
1F
100
AcDbEntity
  8
0
  6
Continuous
 62
     7
370
    25
100
AcDbLine
 10
2384.3461011066
 20
697.990869521
 30
0.0
 11
2342.4900211855
 21
697.990869521
 31
0.0
  0
LINE
  5
58D
330
1F
100
AcDbEntity
  8
0
  6
Continuous
 62
     7
370
    25
100
AcDbLine
 10
2342.4900211855
 20
697.990869521
 30
0.0
 11
2342.4900211855
 21
710.5908689786
 31
0.0
  0
LINE
  5
58E
330
1F
100
AcDbEntity
  8
0
  6
Continuous
 62
     7
370
    25
100
AcDbLine
 10
2384.3461011066
 20
725.7108693708
 30
0.0
 11
2342.3460994377
 21
725.7108693708
 31
0.0
  0
LINE
  5
58F
330
1F
100
AcDbEntity
  8
0
  6
Continuous
 62
     7
370
    25
100
AcDbLine
 10
2382.9460982694
 20
696.5908718993
 30
0.0
 11
2343.8804250672
 21
696.5908718993
 31
0.0
  0
LINE
  5
590
330
1F
100
AcDbEntity
  8
0
  6
Continuous
 62
     7
370
    25
100
AcDbLine
 10
2343.8804250672
 20
696.5908718993
 30
0.0
 11
2342.4900211855
 21
697.990869521
 31
0.0
  0
LINE
  5
591
330
1F
100
AcDbEntity
  8
0
  6
Continuous
 62
     7
370
    25
100
AcDbLine
 10
2384.0661015823
 20
725.9908688952
 30
0.0
 11
2342.6260989621
 21
725.9908688952
 31
0.0
  0
LWPOLYLINE
  5
592
330
1F
100
AcDbEntity
  8
0
  6
Continuous
 62
     7
370
    25
100
AcDbPolyline
 90
        9
 70
   128
 43
0.0
 10
2360.719491215
 20
725.9908688952
 10
2360.5993751898
 20
726.0126745094
 10
2360.4830038264
 20
726.0774029185
 10
2360.3739966168
 20
726.1830409755
 10
2360.2757487907
 20
726.3263029744
 10
2360.191327007
 20
726.5027193119
 10
2360.1233546152
 20
726.7068033804
 10
2360.0739438548
 20
726.9321871687
 10
2360.0446489169
 20
727.1718611707
  0
ARC
  5
593
330
1F
100
AcDbEntity
  8
0
  6
Continuous
 62
     7
370
    25
100
AcDbCircle
 10
2358.0093074816
 20
727.2754532152
 30
0.0
 40
1.286814831185593
100
AcDbArc
 50
273.3739959661
 51
355.3825395405
  0
ARC
  5
594
330
1F
100
AcDbEntity
  8
0
  6
Continuous
 62
     7
370
    25
100
AcDbCircle
 10
2359.6682973667
 20
727.9187394523
 30
0.0
 40
0.8363418301906506
100
AcDbArc
 50
243.2564904478
 51
296.7435095522
  0
LWPOLYLINE
  5
595
330
1F
100
AcDbEntity
  8
0
  6
Continuous
 62
     7
370
    25
100
AcDbPolyline
 90
        3
 70
   128
 43
0.0
 10
2364.4713972225
 20
726.3263029744
 10
2364.6036599293
 20
726.0774029185
 10
2364.7651602044
 20
725.9908688952
  0
LINE
  5
596
330
1F
100
AcDbEntity
  8
0
  6
Continuous
 62
     7
370
    25
100
AcDbLine
 10
2360.0446489169
 20
727.1718611707
 30
0.0
 11
2364.3902663603
 21
727.1718611707
 31
0.0
  0
LWPOLYLINE
  5
597
330
1F
100
AcDbEntity
  8
0
  6
Continuous
 62
     7
370
    25
100
AcDbPolyline
 90
        3
 70
   128
 43
0.0
 10
2364.3902663603
 20
727.1718611707
 10
2364.393984945
 20
726.7068033804
 10
2364.4713972225
 20
726.3263029744
  0
LWPOLYLINE
  5
598
330
1F
100
AcDbEntity
  8
0
  6
Continuous
 62
     7
370
    25
100
AcDbPolyline
 90
        3
 70
   128
 43
0.0
 10
2364.8471985473
 20
726.3263029744
 10
2364.8494881108
 20
726.7068033804
 10
2364.8106959178
 20
727.1718611707
  0
LINE
  5
599
330
1F
100
AcDbEntity
  8
0
  6
Continuous
 62
     7
370
    25
100
AcDbLine
 10
2364.8106959178
 20
727.1718611707
 30
0.0
 11
2369.6016777768
 21
727.1718611707
 31
0.0
  0
LWPOLYLINE
  5
59A
330
1F
100
AcDbEntity
  8
0
  6
Continuous
 62
     7
370
    25
100
AcDbPolyline
 90
        9
 70
   128
 43
0.0
 10
2369.6016777768
 20
727.1718611707
 10
2369.5853431239
 20
726.9321871687
 10
2369.5578005626
 20
726.7068033804
 10
2369.5199054196
 20
726.5027193119
 10
2369.4728415921
 20
726.3263029744
 10
2369.4180693939
 20
726.1830409755
 10
2369.3572942629
 20
726.0774029185
 10
2369.2924198224
 20
726.0126745094
 10
2369.225454004
 20
725.9908688952
  0
LWPOLYLINE
  5
59B
330
1F
100
AcDbEntity
  8
0
  6
Continuous
 62
     7
370
    25
100
AcDbPolyline
 90
        3
 70
   128
 43
0.0
 10
2364.7651602044
 20
725.9908688952
 10
2364.8143258407
 20
726.0774029185
 10
2364.8471985473
 20
726.3263029744
  0
LWPOLYLINE
  5
59C
330
1F
100
AcDbEntity
  8
0
  6
Continuous
 62
     7
370
    25
100
AcDbPolyline
 90
        3
 70
   128
 43
0.0
 10
2356.5326359584
 20
726.3263029744
 10
2356.7632586225
 20
726.7068033804
 10
2356.8620879664
 20
727.1718611707
  0
LINE
  5
59D
330
1F
100
AcDbEntity
  8
0
  6
Continuous
 62
     7
370
    25
100
AcDbLine
 10
2356.8620879664
 20
727.1718611707
 30
0.0
 11
2359.2919458165
 21
727.1718611707
 31
0.0
  0
LWPOLYLINE
  5
59E
330
1F
100
AcDbEntity
  8
0
  6
Continuous
 62
     7
370
    25
100
AcDbPolyline
 90
        3
 70
   128
 43
0.0
 10
2355.8228999837
 20
725.9908688952
 10
2356.2039088919
 20
726.0774029185
 10
2356.5326359584
 20
726.3263029744
  0
ARC
  5
59F
330
1F
100
AcDbEntity
  8
0
  6
Continuous
 62
     7
370
    25
100
AcDbCircle
 10
2371.6363609667
 20
727.3549995469
 30
0.0
 40
1.364297774919378
100
AcDbArc
 50
187.7144649985
 51
269.1031788836
  0
LWPOLYLINE
  5
5A0
330
1F
100
AcDbEntity
  8
0
  6
Continuous
 62
     7
370
    25
100
AcDbPolyline
 90
        8
 70
   128
 43
0.0
 10
2369.6016777768
 20
727.1718611707
 10
2369.8169958308
 20
727.1090416004
 10
2369.9291009917
 20
727.0910432328
 10
2370.0332891657
 20
727.084988146
 10
2370.1242406382
 20
727.0911475409
 10
2370.1934751584
 20
727.107612579
 10
2370.2480074479
 20
727.1345032145
 10
2370.2844109847
 20
727.1718611707
  0
LWPOLYLINE
  5
5A1
330
1F
100
AcDbEntity
  8
0
  6
Continuous
 62
     7
370
    25
100
AcDbPolyline
 90
        3
 70
   128
 43
0.0
 10
2372.0479798033
 20
726.3263029744
 10
2372.4332470908
 20
726.0774029185
 10
2372.8761498346
 20
725.9908688952
  0
LINE
  5
5A2
330
1F
100
AcDbEntity
  8
0
  6
Continuous
 62
     7
370
    25
100
AcDbLine
 10
2370.2844109847
 20
727.1718611707
 30
0.0
 11
2371.6390554323
 21
727.1718611707
 31
0.0
  0
LWPOLYLINE
  5
5A3
330
1F
100
AcDbEntity
  8
0
  6
Continuous
 62
     7
370
    25
100
AcDbPolyline
 90
        3
 70
   128
 43
0.0
 10
2371.6390554323
 20
727.1718611707
 10
2371.7708696141
 20
726.7068033804
 10
2372.0479798033
 20
726.3263029744
  0
ARC
  5
5A4
330
1F
100
AcDbEntity
  8
0
  6
Continuous
 62
     7
370
    25
100
AcDbCircle
 10
2362.6528083423
 20
727.799479436
 30
0.0
 40
2.340409024556759
100
AcDbArc
 50
320.9902547498
 51
327.6229096898
  0
ARC
  5
5A5
330
1F
100
AcDbEntity
  8
0
  6
Continuous
 62
     7
370
    25
100
AcDbCircle
 10
2365.8306067167
 20
727.5181618063
 30
0.0
 40
1.545192254335113
100
AcDbArc
 50
218.9773404453
 51
230.4738039075
  0
LINE
  5
5A6
330
1F
100
AcDbEntity
  8
0
  6
Continuous
 62
     7
370
    25
100
AcDbLine
 10
2364.5959515586
 20
727.1543165435
 30
0.0
 11
2364.3902663603
 21
727.1718611707
 31
0.0
  0
ARC
  5
5A7
330
1F
100
AcDbEntity
  8
0
  6
Continuous
 62
     7
370
    25
100
AcDbCircle
 10
2373.4932231249
 20
727.3384808364
 30
0.0
 40
8.899177367130491
100
AcDbArc
 50
181.1857938762
 51
185.1076204835
  0
LINE
  5
5A8
330
1F
100
AcDbEntity
  8
0
  6
Continuous
 62
     7
370
    25
100
AcDbLine
 10
2364.8106959178
 20
727.1718611707
 30
0.0
 11
2364.5959515586
 21
727.1543165435
 31
0.0
  0
LWPOLYLINE
  5
5A9
330
1F
100
AcDbEntity
  8
0
  6
Continuous
 62
     7
370
    25
100
AcDbPolyline
 90
        3
 70
   128
 43
0.0
 10
2356.2356316014
 20
726.3263029744
 10
2356.0374148651
 20
726.0774029185
 10
2355.8228999837
 20
725.9908688952
  0
LWPOLYLINE
  5
5AA
330
1F
100
AcDbEntity
  8
0
  6
Continuous
 62
     7
370
    25
100
AcDbPolyline
 90
        9
 70
   128
 43
0.0
 10
2351.3626035764
 20
725.9908688952
 10
2351.4295693948
 20
726.0126745094
 10
2351.4944464429
 20
726.0774029185
 10
2351.5552163585
 20
726.1830409755
 10
2351.6099885567
 20
726.3263029744
 10
2351.6570575996
 20
726.5027193119
 10
2351.6949527427
 20
726.7068033804
 10
2351.722495304
 20
726.9321871687
 10
2351.7388299569
 20
727.1718611707
  0
LINE
  5
5AB
330
1F
100
AcDbEntity
  8
0
  6
Continuous
 62
     7
370
    25
100
AcDbLine
 10
2351.7388299569
 20
727.1718611707
 30
0.0
 11
2356.5298170312
 21
727.1718611707
 31
0.0
  0
LWPOLYLINE
  5
5AC
330
1F
100
AcDbEntity
  8
0
  6
Continuous
 62
     7
370
    25
100
AcDbPolyline
 90
        3
 70
   128
 43
0.0
 10
2356.5298170312
 20
727.1718611707
 10
2356.4032651945
 20
726.7068033804
 10
2356.2356316014
 20
726.3263029744
  0
ARC
  5
5AD
330
1F
100
AcDbEntity
  8
0
  6
Continuous
 62
     7
370
    25
100
AcDbCircle
 10
2355.5663720928
 20
727.5853112497
 30
0.0
 40
1.425836641148479
100
AcDbArc
 50
297.9940724442
 51
313.2172983786
  0
ARC
  5
5AE
330
1F
100
AcDbEntity
  8
0
  6
Continuous
 62
     7
370
    25
100
AcDbCircle
 10
2355.890536472
 20
726.4659878593
 30
0.0
 40
0.6571176588159064
100
AcDbArc
 50
347.7268730103
 51
7.0127770878
  0
ARC
  5
5AF
330
1F
100
AcDbEntity
  8
0
  6
Continuous
 62
     7
370
    25
100
AcDbCircle
 10
2354.8383605339
 20
727.3736700889
 30
0.0
 40
1.894619705567713
100
AcDbArc
 50
334.104000074
 51
353.3515519006
  0
LINE
  5
5B0
330
1F
100
AcDbEntity
  8
0
  6
Continuous
 62
     7
370
    25
100
AcDbLine
 10
2356.8620879664
 20
727.1718611707
 30
0.0
 11
2356.7202419504
 21
727.1543165435
 31
0.0
  0
LINE
  5
5B1
330
1F
100
AcDbEntity
  8
0
  6
Continuous
 62
     7
370
    25
100
AcDbLine
 10
2356.7202419504
 20
727.1543165435
 30
0.0
 11
2356.5298170312
 21
727.1718611707
 31
0.0
  0
LINE
  5
5B2
330
1F
100
AcDbEntity
  8
0
  6
Continuous
 62
     7
370
    25
100
AcDbLine
 10
2350.2234362527
 20
726.0059153427
 30
0.0
 11
2350.0264842524
 21
725.9908688952
 31
0.0
  0
LWPOLYLINE
  5
5B3
330
1F
100
AcDbEntity
  8
0
  6
Continuous
 62
     7
370
    25
100
AcDbPolyline
 90
        8
 70
   128
 43
0.0
 10
2351.357080461
 20
727.1718611707
 10
2351.3263773634
 20
727.1090416004
 10
2351.3455335512
 20
727.0910432328
 10
2351.3892021491
 20
727.084988146
 10
2351.4551222786
 20
727.0911475409
 10
2351.5332151666
 20
727.107612579
 10
2351.6283650412
 20
727.1345032145
 10
2351.7388299569
 20
727.1718611707
  0
LWPOLYLINE
  5
5B4
330
1F
100
AcDbEntity
  8
0
  6
Continuous
 62
     7
370
    25
100
AcDbPolyline
 90
        3
 70
   128
 43
0.0
 10
2372.2824383988
 20
726.3263029744
 10
2372.0550518944
 20
726.7068033804
 10
2371.9013590827
 20
727.1718611707
  0
LINE
  5
5B5
330
1F
100
AcDbEntity
  8
0
  6
Continuous
 62
     7
370
    25
100
AcDbLine
 10
2371.9013590827
 20
727.1718611707
 30
0.0
 11
2376.2469817414
 21
727.1718611707
 31
0.0
  0
LWPOLYLINE
  5
5B6
330
1F
100
AcDbEntity
  8
0
  6
Continuous
 62
     7
370
    25
100
AcDbPolyline
 90
        9
 70
   128
 43
0.0
 10
2376.2469817414
 20
727.1718611707
 10
2376.2762766793
 20
726.9321871687
 10
2376.3256874397
 20
726.7068033804
 10
2376.3936598315
 20
726.5027193119
 10
2376.4780816152
 20
726.3263029744
 10
2376.5763294413
 20
726.1830409755
 10
2376.6853366508
 20
726.0774029185
 10
2376.8017080142
 20
726.0126745094
 10
2376.9218240394
 20
725.9908688952
  0
LWPOLYLINE
  5
5B7
330
1F
100
AcDbEntity
  8
0
  6
Continuous
 62
     7
370
    25
100
AcDbPolyline
 90
        3
 70
   128
 43
0.0
 10
2372.8761498346
 20
725.9908688952
 10
2372.5646805479
 20
726.0774029185
 10
2372.2824383988
 20
726.3263029744
  0
ARC
  5
5B8
330
1F
100
AcDbEntity
  8
0
  6
Continuous
 62
     7
370
    25
100
AcDbCircle
 10
2372.4579548505
 20
726.608195917
 30
0.0
 40
0.4975371045201091
100
AcDbArc
 50
187.1561471724
 51
214.5118536048
  0
ARC
  5
5B9
330
1F
100
AcDbEntity
  8
0
  6
Continuous
 62
     7
370
    25
100
AcDbCircle
 10
2372.8625898214
 20
727.5056849608
 30
0.0
 40
1.314350616491951
100
AcDbArc
 50
226.8859609301
 51
243.806902001
  0
LINE
  5
5BA
330
1F
100
AcDbEntity
  8
0
  6
Continuous
 62
     7
370
    25
100
AcDbLine
 10
2371.7395145907
 20
727.1543165435
 30
0.0
 11
2371.6390554323
 21
727.1718611707
 31
0.0
  0
ARC
  5
5BB
330
1F
100
AcDbEntity
  8
0
  6
Continuous
 62
     7
370
    25
100
AcDbCircle
 10
2373.3261914638
 20
727.3952228675
 30
0.0
 40
1.604861164292748
100
AcDbArc
 50
188.6333234673
 51
211.9394076497
  0
LINE
  5
5BC
330
1F
100
AcDbEntity
  8
0
  6
Continuous
 62
     7
370
    25
100
AcDbLine
 10
2371.9013590827
 20
727.1718611707
 30
0.0
 11
2371.7395145907
 21
727.1543165435
 31
0.0
  0
LWPOLYLINE
  5
5BD
330
1F
100
AcDbEntity
  8
0
  6
Continuous
 62
     7
370
    25
100
AcDbPolyline
 90
        9
 70
   128
 43
0.0
 10
2376.2469817414
 20
727.1718611707
 10
2376.3481032564
 20
727.1338825811
 10
2376.4297660901
 20
727.1067572524
 10
2376.4903430357
 20
727.0903808762
 10
2376.5291352286
 20
727.0848681916
 10
2376.5465807631
 20
727.0903756608
 10
2376.5417721584
 20
727.1067468215
 10
2376.5131187155
 20
727.1338773657
 10
2376.4598068311
 20
727.1718611707
  0
ARC
  5
5BE
330
1F
100
AcDbEntity
  8
0
  6
Continuous
 62
     7
370
    25
100
AcDbCircle
 10
2351.4657996415
 20
707.6886617191
 30
0.0
 40
9.433313620861085
100
AcDbArc
 50
162.0820260205
 51
171.7523922003
  0
LWPOLYLINE
  5
5BF
330
1F
100
AcDbEntity
  8
0
  6
Continuous
 62
     7
370
    25
100
AcDbPolyline
 90
       11
 70
   128
 43
0.0
 10
2342.4900211855
 20
710.5908689786
 10
2342.4899872854
 20
710.5907385935
 10
2342.4897369459
 20
710.5896277119
 10
2342.4890432968
 20
710.5864984681
 10
2342.4864251628
 20
710.5745969106
 10
2342.4762733742
 20
710.5282058705
 10
2342.1791803553
 20
709.1839296509
 10
2341.8894019439
 20
707.9492760588
 10
2341.6118875607
 20
706.8973285843
 10
2341.1402635737
 20
705.5555609752
 10
2340.6388152852
 20
704.9908732761
  0
LINE
  5
5C0
330
1F
100
AcDbEntity
  8
0
  6
Continuous
 62
     7
370
    25
100
AcDbLine
 10
2342.4900211855
 20
697.990869521
 30
0.0
 11
2308.0516566984
 21
697.990869521
 31
0.0
  0
LINE
  5
5C1
330
1F
100
AcDbEntity
  8
0
  6
Continuous
 62
     7
370
    25
100
AcDbLine
 10
2308.0516566984
 20
704.9908732761
 30
0.0
 11
2308.0516566984
 21
697.990869521
 31
0.0
  0
LINE
  5
5C2
330
1F
100
AcDbEntity
  8
0
  6
Continuous
 62
     7
370
    25
100
AcDbLine
 10
2340.6388152852
 20
704.9908732761
 30
0.0
 11
2308.0516566984
 21
704.9908732761
 31
0.0
  0
LINE
  5
5C3
330
1F
100
AcDbEntity
  8
0
  6
Continuous
 62
     7
370
    25
100
AcDbLine
 10
2309.4420622098
 20
696.5908718993
 30
0.0
 11
2308.0516566984
 21
697.990869521
 31
0.0
  0
LINE
  5
5C4
330
1F
100
AcDbEntity
  8
0
  6
Continuous
 62
     7
370
    25
100
AcDbLine
 10
2343.8804250672
 20
696.5908718993
 30
0.0
 11
2309.4420622098
 21
696.5908718993
 31
0.0
  0
ARC
  5
5C5
330
1F
100
AcDbEntity
  8
0
  6
Continuous
 62
     7
370
    25
100
AcDbCircle
 10
2348.9497535388
 20
727.2754579272
 30
0.0
 40
1.286819643350093
100
AcDbArc
 50
273.3740653827
 51
355.3823463569
  0
LINE
  5
5C6
330
1F
100
AcDbEntity
  8
0
  6
Continuous
 62
     7
370
    25
100
AcDbLine
 10
2309.4420622098
 20
706.3908708979
 30
0.0
 11
2308.0516566984
 21
704.9908732761
 31
0.0
  0
LINE
  5
5C7
330
1F
100
AcDbEntity
  8
0
  6
Continuous
 62
     7
370
    25
100
AcDbLine
 10
2309.4420622098
 20
706.3908708979
 30
0.0
 11
2341.4338700934
 21
706.3908708979
 31
0.0
  0
LINE
  5
5C8
330
1F
100
AcDbEntity
  8
0
  6
Continuous
 62
     7
370
    25
100
AcDbLine
 10
2307.8941990151
 20
697.990869521
 30
0.0
 11
2308.0516566984
 21
697.990869521
 31
0.0
  0
LINE
  5
5C9
330
1F
100
AcDbEntity
  8
0
  6
Continuous
 62
     7
370
    25
100
AcDbLine
 10
2307.8941990151
 20
697.990869521
 30
0.0
 11
2307.8941990151
 21
704.9908732761
 31
0.0
  0
LINE
  5
5CA
330
1F
100
AcDbEntity
  8
0
  6
Continuous
 62
     7
370
    25
100
AcDbLine
 10
2308.0516566984
 20
704.9908732761
 30
0.0
 11
2307.8941990151
 21
704.9908732761
 31
0.0
  0
LINE
  5
5CB
330
1F
100
AcDbEntity
  8
0
  6
Continuous
 62
     7
370
    25
100
AcDbLine
 10
2309.2877536542
 20
696.5908718993
 30
0.0
 11
2307.8941990151
 21
697.990869521
 31
0.0
  0
LINE
  5
5CC
330
1F
100
AcDbEntity
  8
0
  6
Continuous
 62
     7
370
    25
100
AcDbLine
 10
2309.4420622098
 20
696.5908718993
 30
0.0
 11
2309.2877536542
 21
696.5908718993
 31
0.0
  0
LINE
  5
5CD
330
1F
100
AcDbEntity
  8
0
  6
Continuous
 62
     7
370
    25
100
AcDbLine
 10
2307.8941990151
 20
704.9908732761
 30
0.0
 11
2309.2877536542
 21
706.3908708979
 31
0.0
  0
LINE
  5
5CE
330
1F
100
AcDbEntity
  8
0
  6
Continuous
 62
     7
370
    25
100
AcDbLine
 10
2309.2877536542
 20
706.3908708979
 30
0.0
 11
2309.4420622098
 21
706.3908708979
 31
0.0
  0
LINE
  5
5CF
330
1F
100
AcDbEntity
  8
0
  6
Continuous
 62
     7
370
    25
100
AcDbLine
 10
2283.9605555399
 20
696.5908718993
 30
0.0
 11
2282.5670015528
 21
697.990869521
 31
0.0
  0
LINE
  5
5D0
330
1F
100
AcDbEntity
  8
0
  6
Continuous
 62
     7
370
    25
100
AcDbLine
 10
2307.8941990151
 20
697.990869521
 30
0.0
 11
2282.5670015528
 21
697.990869521
 31
0.0
  0
LINE
  5
5D1
330
1F
100
AcDbEntity
  8
0
  6
Continuous
 62
     7
370
    25
100
AcDbLine
 10
2309.2877536542
 20
696.5908718993
 30
0.0
 11
2283.9605555399
 21
696.5908718993
 31
0.0
  0
LINE
  5
5D2
330
1F
100
AcDbEntity
  8
0
  6
Continuous
 62
     7
370
    25
100
AcDbLine
 10
2282.5670015528
 20
704.9908732761
 30
0.0
 11
2283.9605555399
 21
706.3908708979
 31
0.0
  0
LINE
  5
5D3
330
1F
100
AcDbEntity
  8
0
  6
Continuous
 62
     7
370
    25
100
AcDbLine
 10
2307.8941990151
 20
704.9908732761
 30
0.0
 11
2282.5670015528
 21
704.9908732761
 31
0.0
  0
LINE
  5
5D4
330
1F
100
AcDbEntity
  8
0
  6
Continuous
 62
     7
370
    25
100
AcDbLine
 10
2283.9605555399
 20
706.3908708979
 30
0.0
 11
2309.2877536542
 21
706.3908708979
 31
0.0
  0
LINE
  5
5D5
330
1F
100
AcDbEntity
  8
0
  6
Continuous
 62
     7
370
    25
100
AcDbLine
 10
2282.5670015528
 20
697.990869521
 30
0.0
 11
2282.5670015528
 21
704.9908732761
 31
0.0
  0
LINE
  5
5D6
330
1F
100
AcDbEntity
  8
0
  6
Continuous
 62
     7
370
    25
100
AcDbLine
 10
2282.5670015528
 20
697.990869521
 30
0.0
 11
2282.4961007103
 21
697.990869521
 31
0.0
  0
LINE
  5
5D7
330
1F
100
AcDbEntity
  8
0
  6
Continuous
 62
     7
370
    25
100
AcDbLine
 10
2283.9605555399
 20
696.5908718993
 30
0.0
 11
2283.8961009397
 21
696.5908718993
 31
0.0
  0
LINE
  5
5D8
330
1F
100
AcDbEntity
  8
0
  6
Continuous
 62
     7
370
    25
100
AcDbLine
 10
2282.5670015528
 20
704.9908732761
 30
0.0
 11
2282.4961007103
 21
704.9908732761
 31
0.0
  0
LINE
  5
5D9
330
1F
100
AcDbEntity
  8
0
  6
Continuous
 62
     7
370
    25
100
AcDbLine
 10
2283.8961009397
 20
706.3908708979
 30
0.0
 11
2283.9605555399
 21
706.3908708979
 31
0.0
  0
LINE
  5
5DA
330
1F
100
AcDbEntity
  8
0
  6
Continuous
 62
     7
370
    25
100
AcDbLine
 10
2279.346099542
 20
669.9908701469
 30
0.0
 11
2280.0461009606
 21
669.9908701469
 31
0.0
  0
LINE
  5
5DB
330
1F
100
AcDbEntity
  8
0
  6
Continuous
 62
     7
370
    25
100
AcDbLine
 10
2280.0461009606
 20
669.9908701469
 30
0.0
 11
2280.0461009606
 21
669.290871336
 31
0.0
  0
ARC
  5
5DC
330
1F
100
AcDbEntity
  8
0
  6
Continuous
 62
     7
370
    25
100
AcDbCircle
 10
2280.046100212
 20
669.990872006
 30
0.0
 40
0.70000066996155
100
AcDbArc
 50
180.0001521671
 51
270.0000612762
  0
LINE
  5
5DD
330
1F
100
AcDbEntity
  8
0
  6
Continuous
 62
     7
370
    25
100
AcDbLine
 10
2317.8460999853
 20
692.3908686031
 30
0.0
 11
2317.8460999853
 21
693.0908700217
 31
0.0
  0
LINE
  5
5DE
330
1F
100
AcDbEntity
  8
0
  6
Continuous
 62
     7
370
    25
100
AcDbLine
 10
2317.8460999853
 20
692.3908686031
 30
0.0
 11
2280.0461009606
 21
692.3908686031
 31
0.0
  0
LINE
  5
5DF
330
1F
100
AcDbEntity
  8
0
  6
Continuous
 62
     7
370
    25
100
AcDbLine
 10
2280.0461009606
 20
693.0908700217
 30
0.0
 11
2280.0461009606
 21
692.3908686031
 31
0.0
  0
LINE
  5
5E0
330
1F
100
AcDbEntity
  8
0
  6
Continuous
 62
     7
370
    25
100
AcDbLine
 10
2317.8460999853
 20
693.0908700217
 30
0.0
 11
2280.0461009606
 21
693.0908700217
 31
0.0
  0
LINE
  5
5E1
330
1F
100
AcDbEntity
  8
0
  6
Continuous
 62
     7
370
    25
100
AcDbLine
 10
2280.0461009606
 20
692.3908686031
 30
0.0
 11
2279.346099542
 21
692.3908686031
 31
0.0
  0
LINE
  5
5E2
330
1F
100
AcDbEntity
  8
0
  6
Continuous
 62
     7
370
    25
100
AcDbLine
 10
2280.0461009606
 20
692.3908686031
 30
0.0
 11
2280.0461009606
 21
669.9908701469
 31
0.0
  0
LINE
  5
5E3
330
1F
100
AcDbEntity
  8
0
  6
Continuous
 62
     7
370
    25
100
AcDbLine
 10
2279.346099542
 20
692.3908686031
 30
0.0
 11
2279.346099542
 21
669.9908701469
 31
0.0
  0
ARC
  5
5E4
330
1F
100
AcDbEntity
  8
0
  6
Continuous
 62
     7
370
    25
100
AcDbCircle
 10
2280.0460957604
 20
692.3908738034
 30
0.0
 40
0.6999962183889358
100
AcDbArc
 50
89.9995743539
 51
180.0004256462
  0
LINE
  5
5E5
330
1F
100
AcDbEntity
  8
0
  6
Continuous
 62
     7
370
    25
100
AcDbLine
 10
2280.0461009606
 20
669.9908701469
 30
0.0
 11
2317.8460999853
 21
669.9908701469
 31
0.0
  0
LINE
  5
5E6
330
1F
100
AcDbEntity
  8
0
  6
Continuous
 62
     7
370
    25
100
AcDbLine
 10
2317.8460999853
 20
669.9908701469
 30
0.0
 11
2317.8460999853
 21
692.3908686031
 31
0.0
  0
LINE
  5
5E7
330
1F
100
AcDbEntity
  8
0
  6
Continuous
 62
     7
370
    25
100
AcDbLine
 10
2317.8460999853
 20
669.290871336
 30
0.0
 11
2317.8460999853
 21
669.9908701469
 31
0.0
  0
LINE
  5
5E8
330
1F
100
AcDbEntity
  8
0
  6
Continuous
 62
     7
370
    25
100
AcDbLine
 10
2280.0461009606
 20
669.290871336
 30
0.0
 11
2317.8460999853
 21
669.290871336
 31
0.0
  0
LINE
  5
5E9
330
1F
100
AcDbEntity
  8
0
  6
Continuous
 62
     7
370
    25
100
AcDbLine
 10
2317.8460999853
 20
669.9908701469
 30
0.0
 11
2318.5461001001
 21
669.9908701469
 31
0.0
  0
ARC
  5
5EA
330
1F
100
AcDbEntity
  8
0
  6
Continuous
 62
     7
370
    25
100
AcDbCircle
 10
2317.8460994301
 20
669.990872006
 30
0.0
 40
0.70000066996155
100
AcDbArc
 50
270.0000454453
 51
359.9998478329
  0
LINE
  5
5EB
330
1F
100
AcDbEntity
  8
0
  6
Continuous
 62
     7
370
    25
100
AcDbLine
 10
2318.5461001001
 20
692.3908686031
 30
0.0
 11
2317.8460999853
 21
692.3908686031
 31
0.0
  0
ARC
  5
5EC
330
1F
100
AcDbEntity
  8
0
  6
Continuous
 62
     7
370
    25
100
AcDbCircle
 10
2317.8461038817
 20
692.3908738034
 30
0.0
 40
0.699996218374725
100
AcDbArc
 50
359.9995743533
 51
90.0003189251
  0
LINE
  5
5ED
330
1F
100
AcDbEntity
  8
0
  6
Continuous
 62
     7
370
    25
100
AcDbLine
 10
2318.5461001001
 20
669.9908701469
 30
0.0
 11
2318.5461001001
 21
692.3908686031
 31
0.0
  0
LINE
  5
5EE
330
1F
100
AcDbEntity
  8
0
  6
Continuous
 62
     7
370
    25
100
AcDbLine
 10
2342.3460994377
 20
710.5908689786
 30
0.0
 11
2342.4900211855
 21
710.5908689786
 31
0.0
  0
LINE
  5
5EF
330
1F
100
AcDbEntity
  8
0
  6
Continuous
 62
     7
370
    25
100
AcDbLine
 10
2360.1214718535
 20
728.4324509789
 30
0.0
 11
2360.0446489169
 21
727.1718611707
 31
0.0
  0
LINE
  5
5F0
330
1F
100
AcDbEntity
  8
0
  6
Continuous
 62
     7
370
    25
100
AcDbLine
 10
2359.2919458165
 20
727.1718611707
 30
0.0
 11
2359.3687739684
 21
728.4324509789
 31
0.0
  0
LINE
  5
5F1
330
1F
100
AcDbEntity
  8
0
  6
Continuous
 62
     7
370
    25
100
AcDbLine
 10
2356.9959935262
 20
728.4324509789
 30
0.0
 11
2356.8620879664
 21
727.1718611707
 31
0.0
  0
LINE
  5
5F2
330
1F
100
AcDbEntity
  8
0
  6
Continuous
 62
     7
370
    25
100
AcDbLine
 10
2364.3902663603
 20
727.1718611707
 30
0.0
 11
2364.365008147
 21
728.4324509789
 31
0.0
  0
LINE
  5
5F3
330
1F
100
AcDbEntity
  8
0
  6
Continuous
 62
     7
370
    25
100
AcDbLine
 10
2369.6016777768
 20
727.1718611707
 30
0.0
 11
2369.4638763084
 21
728.4324509789
 31
0.0
  0
LINE
  5
5F4
330
1F
100
AcDbEntity
  8
0
  6
Continuous
 62
     7
370
    25
100
AcDbLine
 10
2364.7854377045
 20
728.4324509789
 30
0.0
 11
2364.8106959178
 21
727.1718611707
 31
0.0
  0
LINE
  5
5F5
330
1F
100
AcDbEntity
  8
0
  6
Continuous
 62
     7
370
    25
100
AcDbLine
 10
2370.1466095164
 20
728.4324509789
 30
0.0
 11
2370.2844109847
 21
727.1718611707
 31
0.0
  0
LINE
  5
5F6
330
1F
100
AcDbEntity
  8
0
  6
Continuous
 62
     7
370
    25
100
AcDbLine
 10
2371.6390554323
 20
727.1718611707
 30
0.0
 11
2371.4694347694
 21
728.4324509789
 31
0.0
  0
LINE
  5
5F7
330
1F
100
AcDbEntity
  8
0
  6
Continuous
 62
     7
370
    25
100
AcDbLine
 10
2356.5298170312
 20
727.1718611707
 30
0.0
 11
2356.6637199833
 21
728.4324509789
 31
0.0
  0
LINE
  5
5F8
330
1F
100
AcDbEntity
  8
0
  6
Continuous
 62
     7
370
    25
100
AcDbLine
 10
2351.9852787717
 20
728.4324509789
 30
0.0
 11
2351.7388299569
 21
727.1718611707
 31
0.0
  0
LINE
  5
5F9
330
1F
100
AcDbEntity
  8
0
  6
Continuous
 62
     7
370
    25
100
AcDbLine
 10
2371.7317384198
 20
728.4324509789
 30
0.0
 11
2371.9013590827
 21
727.1718611707
 31
0.0
  0
LINE
  5
5FA
330
1F
100
AcDbEntity
  8
0
  6
Continuous
 62
     7
370
    25
100
AcDbLine
 10
2376.2469817414
 20
727.1718611707
 30
0.0
 11
2375.9752747133
 21
728.4324509789
 31
0.0
  0
LINE
  5
5FB
330
1F
100
AcDbEntity
  8
0
  6
Continuous
 62
     7
370
    25
100
AcDbLine
 10
2350.2323963209
 20
727.1718611707
 30
0.0
 11
2351.3358459338
 21
727.1718611707
 31
0.0
  0
LINE
  5
5FC
330
1F
100
AcDbEntity
  8
0
  6
Continuous
 62
     7
370
    25
100
AcDbLine
 10
2350.5041007414
 20
728.4324509789
 30
0.0
 11
2350.2323963209
 21
727.1718611707
 31
0.0
  0
LWPOLYLINE
  5
5FD
330
1F
100
AcDbEntity
  8
0
  6
Continuous
 62
     7
370
    25
100
AcDbPolyline
 90
        3
 70
   128
 43
0.0
 10
2350.1476929053
 20
727.0972339202
 10
2350.152527587
 20
727.1090259541
 10
2350.2323963209
 20
727.1718611707
  0
LINE
  5
5FE
330
1F
100
AcDbEntity
  8
FORMAT
370
    25
100
AcDbLine
 10
2279.3461000633
 20
757.4908707728
 30
0.0
 11
2283.5461000633
 21
757.4908707728
 31
0.0
  0
LINE
  5
5FF
330
1F
100
AcDbEntity
  8
FORMAT
370
    25
100
AcDbLine
 10
2283.5461000633
 20
767.2908707728
 30
0.0
 11
2279.3461000633
 21
767.2908707728
 31
0.0
  0
LINE
  5
600
330
1F
100
AcDbEntity
  8
FORMAT
370
    25
100
AcDbLine
 10
2279.3461000633
 20
769.3908707728
 30
0.0
 11
2283.5461000633
 21
769.3908707728
 31
0.0
  0
LINE
  5
601
330
1F
100
AcDbEntity
  8
FORMAT
370
    25
100
AcDbLine
 10
2283.5461000633
 20
783.3908707728
 30
0.0
 11
2279.3461000633
 21
783.3908707728
 31
0.0
  0
LINE
  5
602
330
1F
100
AcDbEntity
  8
FORMAT
370
    25
100
AcDbLine
 10
2279.3461000633
 20
785.4908707728
 30
0.0
 11
2283.5461000633
 21
785.4908707728
 31
0.0
  0
LINE
  5
603
330
1F
100
AcDbEntity
  8
FORMAT
370
    25
100
AcDbLine
 10
2283.5461000633
 20
795.2908707728
 30
0.0
 11
2279.3461000633
 21
795.2908707728
 31
0.0
  0
LINE
  5
604
330
1F
100
AcDbEntity
  8
FORMAT
370
    25
100
AcDbLine
 10
2279.3461000633
 20
799.4908707728
 30
0.0
 11
2283.5461000633
 21
799.4908707728
 31
0.0
  0
LINE
  5
605
330
1F
100
AcDbEntity
  8
FORMAT
370
    25
100
AcDbLine
 10
2283.5461000633
 20
809.2908707728
 30
0.0
 11
2279.3461000633
 21
809.2908707728
 31
0.0
  0
LINE
  5
606
330
1F
100
AcDbEntity
  8
FORMAT
370
    25
100
AcDbLine
 10
2279.3461000633
 20
811.3908707728
 30
0.0
 11
2283.5461000633
 21
811.3908707728
 31
0.0
  0
LINE
  5
607
330
1F
100
AcDbEntity
  8
FORMAT
370
    25
100
AcDbLine
 10
2283.5461000633
 20
825.3908707728
 30
0.0
 11
2279.3461000633
 21
825.3908707728
 31
0.0
  0
LINE
  5
608
330
1F
100
AcDbEntity
  8
FORMAT
370
    25
100
AcDbLine
 10
2279.3461000633
 20
827.4908707728
 30
0.0
 11
2283.5461000633
 21
827.4908707728
 31
0.0
  0
LINE
  5
609
330
1F
100
AcDbEntity
  8
FORMAT
370
    25
100
AcDbLine
 10
2283.5461000633
 20
837.2908707728
 30
0.0
 11
2279.3461000633
 21
837.2908707728
 31
0.0
  0
LINE
  5
60A
330
1F
100
AcDbEntity
  8
FORMAT
  6
CENTERX2
370
    25
100
AcDbLine
 10
2267.4440843234
 20
840.8994735411
 30
0.0
 11
2292.7566904526
 21
840.8994735411
 31
0.0
  0
LINE
  5
60B
330
1F
100
AcDbEntity
  8
FORMAT
  6
CENTERX2
370
    25
100
AcDbLine
 10
2267.4440843234
 20
840.8994735411
 30
0.0
 11
2267.4440843234
 21
752.647414334
 31
0.0
  0
LINE
  5
60C
330
1F
100
AcDbEntity
  8
FORMAT
  6
CENTERX2
370
    25
100
AcDbLine
 10
2267.4440843234
 20
752.647414334
 30
0.0
 11
2292.7566904526
 21
752.647414334
 31
0.0
  0
LINE
  5
60D
330
1F
100
AcDbEntity
  8
FORMAT
  6
CENTERX2
370
    25
100
AcDbLine
 10
2292.7566904526
 20
840.8994735411
 30
0.0
 11
2292.7566904526
 21
752.647414334
 31
0.0
  0
ARC
  5
60E
330
1F
100
AcDbEntity
  8
FORMAT
370
    25
100
AcDbCircle
 10
2283.5461000633
 20
762.3908707728
 30
0.0
 40
4.899999999999977
100
AcDbArc
 50
270.0
 51
90.0
  0
ARC
  5
60F
330
1F
100
AcDbEntity
  8
FORMAT
370
    25
100
AcDbCircle
 10
2283.5461000633
 20
776.3908707728
 30
0.0
 40
7.0
100
AcDbArc
 50
270.0
 51
90.0
  0
ARC
  5
610
330
1F
100
AcDbEntity
  8
FORMAT
370
    25
100
AcDbCircle
 10
2283.5461000633
 20
790.3908707728
 30
0.0
 40
4.900000000000205
100
AcDbArc
 50
270.0
 51
90.0
  0
ARC
  5
611
330
1F
100
AcDbEntity
  8
FORMAT
370
    25
100
AcDbCircle
 10
2283.5461000633
 20
804.3908707728
 30
0.0
 40
4.899999999999977
100
AcDbArc
 50
270.0
 51
90.0
  0
ARC
  5
612
330
1F
100
AcDbEntity
  8
FORMAT
370
    25
100
AcDbCircle
 10
2283.5461000633
 20
818.3908707728
 30
0.0
 40
7.0
100
AcDbArc
 50
270.0
 51
90.0
  0
ARC
  5
613
330
1F
100
AcDbEntity
  8
FORMAT
370
    25
100
AcDbCircle
 10
2283.5461000633
 20
832.3908707728
 30
0.0
 40
4.899999999999977
100
AcDbArc
 50
270.0
 51
90.0
  0
DIMENSION
  5
614
330
1F
100
AcDbEntity
  8
FORMAT
100
AcDbDimension
  2
_D_26
 10
2318.5461000605
 20
530.4752738437
 30
0.0
 11
2368.6465712407
 21
530.4752738437
 31
0.0
 70
   160
  1
(<>)
 71
     2
 42
-1.0
  3
SLDDIMSTYLE5
100
AcDbAlignedDimension
 13
2279.3461000638
 23
610.6868097325
 33
0.0
 14
2318.5461000605
 24
669.9908707875
 34
0.0
100
AcDbRotatedDimension
  0
DIMENSION
  5
623
330
1F
100
AcDbEntity
  8
FORMAT
100
AcDbDimension
  2
_D_27
 10
2446.3722264233
 20
693.0908707875
 30
0.0
 11
2446.3722264233
 21
604.5947473129
 31
0.0
 70
   160
  1
(<>)
 71
     2
 42
-1.0
  3
SLDDIMSTYLE5
100
AcDbAlignedDimension
 13
2317.8461000605
 23
669.2908707875
 33
0.0
 14
2317.8461000605
 24
693.0908707875
 34
0.0
 50
90.0
100
AcDbRotatedDimension
  0
DIMENSION
  5
631
330
1F
100
AcDbEntity
  8
FORMAT
100
AcDbDimension
  2
_D_28
 10
2489.2929792597
 20
696.590870773
 30
0.0
 11
2489.2929792597
 21
604.5947469979
 31
0.0
 70
   160
  1
<>
 71
     2
 42
-1.0
  3
SLDDIMSTYLE5
100
AcDbAlignedDimension
 13
2317.8461000605
 23
693.0908707875
 33
0.0
 14
2343.8804260594
 24
696.590870773
 34
0.0
 50
90.0
100
AcDbRotatedDimension
  0
DIMENSION
  5
63D
330
1F
100
AcDbEntity
  8
FORMAT
100
AcDbDimension
  2
_D_29
 10
2552.4666082367
 20
730.8908707728
 30
0.0
 11
2552.4666082367
 21
795.8516315233
 31
0.0
 70
   160
  1
<>
 71
     2
 42
-1.0
  3
SLDDIMSTYLE5
100
AcDbAlignedDimension
 13
2382.9461000634
 23
696.590870773
 33
0.0
 14
2440.3461000633
 24
730.8908707728
 34
0.0
 50
90.0
100
AcDbRotatedDimension
  0
DIMENSION
  5
649
330
1F
100
AcDbEntity
  8
FORMAT
100
AcDbDimension
  2
_D_30
 10
2155.7991095296
 20
711.9908707727
 30
0.0
 11
2155.7991095296
 21
661.8917418921
 31
0.0
 70
   160
  1
<>*
 71
     2
 42
-1.0
  3
SLDDIMSTYLE6
100
AcDbAlignedDimension
 13
2283.9605556606
 23
706.3908707728
 33
0.0
 14
2237.3461000638
 24
711.9908707727
 34
0.0
 50
90.0
100
AcDbRotatedDimension
  0
DIMENSION
  5
657
330
1F
100
AcDbEntity
  8
FORMAT
100
AcDbDimension
  2
_D_31
 10
2083.0992170866
 20
730.8908707728
 30
0.0
 11
2083.0992170866
 21
789.0835998582
 31
0.0
 70
   160
  1
<>
 71
     2
 42
-1.0
  3
SLDDIMSTYLE7
100
AcDbAlignedDimension
 13
2237.3461000638
 23
711.9908707727
 33
0.0
 14
2279.3461000633
 24
730.8908707728
 34
0.0
 50
90.0
100
AcDbRotatedDimension
  0
DIMENSION
  5
664
330
1F
100
AcDbEntity
  8
FORMAT
100
AcDbDimension
  2
_D_32
 10
2083.0992170866
 20
693.0908707875
 30
0.0
 11
2083.0992170866
 21
630.7234719791
 31
0.0
 70
   160
  1
<>
 71
     2
 42
-1.0
  3
SLDDIMSTYLE7
100
AcDbAlignedDimension
 13
2237.3461000638
 23
711.9908707727
 33
0.0
 14
2280.0461000605
 24
693.0908707875
 34
0.0
 50
90.0
100
AcDbRotatedDimension
  0
MTEXT
  5
670
330
1F
100
AcDbEntity
  8
FORMAT
100
AcDbMText
 10
2293.0406256951
 20
1097.5441683772
 30
0.0
 40
35.0
 41
0.0
 71
     2
 72
     1
  1
B (1 : 5)
  7
SLDTEXTSTYLE0
 73
     1
 44
1.0
  0
MTEXT
  5
671
330
1F
100
AcDbEntity
  8
FORMAT
100
AcDbMText
 10
2489.29297926
 20
946.6950376207
 30
0.0
 40
18.5208333333
 41
0.0
 71
     1
 72
     1
  1
AV 12
  7
SLDTEXTSTYLE0
 73
     1
 44
1.0
  0
LEADER
  5
672
330
1F
100
AcDbEntity
  8
FORMAT
100
AcDbLeader
  3
SLDDIMSTYLE3
 76
     3
 10
2377.6676397001
 20
728.4324484163
 30
0.0
 10
2440.7759010897
 20
937.3008709817
 30
0.0
 10
2485.2259010897
 20
937.3008709817
 30
0.0
  0
MTEXT
  5
673
330
1F
100
AcDbEntity
  8
FORMAT
100
AcDbMText
 10
2045.9441790665
 20
549.1023130228
 30
0.0
 40
18.5208333333
 41
0.0
 71
     1
 72
     1
  1
GB 18
  7
SLDTEXTSTYLE0
 73
     1
 44
1.0
  0
LEADER
  5
674
330
1F
100
AcDbEntity
  8
FORMAT
100
AcDbLeader
  3
SLDDIMSTYLE3
 76
     3
 10
2288.0961000619
 20
694.2432022755
 30
0.0
 10
2163.6426605897
 20
540.6537628509
 30
0.0
 10
2119.1926605897
 20
540.6537628509
 30
0.0
  0
MTEXT
  5
675
330
1F
100
AcDbEntity
  8
FORMAT
100
AcDbMText
 10
1731.2571675553
 20
916.6476398757
 30
0.0
 40
18.5208333333
 41
0.0
 71
     1
 72
     1
  1
aufliegende Kabelzuführung (optional)
  7
SLDTEXTSTYLE0
 73
     1
 44
1.0
  0
LEADER
  5
676
330
1F
100
AcDbEntity
  8
FORMAT
100
AcDbLeader
  3
SLDDIMSTYLE3
 76
     3
 10
2267.4440843234
 20
820.3757387441
 30
0.0
 10
2196.2354361687
 20
907.3763110488
 30
0.0
 10
2151.7854361687
 20
907.3763110488
 30
0.0
  0
CIRCLE
  5
677
330
1F
100
AcDbEntity
  8
0
  6
Continuous
 62
     7
370
    18
100
AcDbCircle
 10
1839.8629941818
 20
312.9038715819
 30
0.0
 40
78.5927191186351
  0
ARC
  5
678
330
1F
100
AcDbEntity
  8
0
  6
Continuous
 62
     7
370
    25
100
AcDbCircle
 10
1864.8008002175
 20
368.6397203496
 30
0.0
 40
4.200008151989268
100
AcDbArc
 50
9.5942083945
 51
170.4057916055
  0
ARC
  5
679
330
1F
100
AcDbEntity
  8
0
  6
Continuous
 62
     7
370
    25
100
AcDbCircle
 10
1842.4007965459
 20
368.6397531082
 30
0.0
 40
4.549991748950099
100
AcDbArc
 50
8.8496282222
 51
171.1503717778
  0
ARC
  5
67A
330
1F
100
AcDbEntity
  8
0
  6
Continuous
 62
     7
370
    25
100
AcDbCircle
 10
1842.4007965459
 20
368.6397323881
 30
0.0
 40
4.549995541921963
100
AcDbArc
 50
188.8499349891
 51
351.1500650109
  0
ARC
  5
67B
330
1F
100
AcDbEntity
  8
0
  6
Continuous
 62
     7
370
    25
100
AcDbCircle
 10
1864.8008002175
 20
368.6397404921
 30
0.0
 40
4.200008151989297
100
AcDbArc
 50
189.5942083945
 51
350.4057916055
  0
ARC
  5
67C
330
1F
100
AcDbEntity
  8
0
  6
Continuous
 62
     7
370
    25
100
AcDbCircle
 10
1842.4007965459
 20
262.2397442022
 30
0.0
 40
4.549993645416754
100
AcDbArc
 50
8.8497816055
 51
171.1502183945
  0
ARC
  5
67D
330
1F
100
AcDbEntity
  8
0
  6
Continuous
 62
     7
370
    25
100
AcDbCircle
 10
1864.8008002175
 20
262.2397237709
 30
0.0
 40
4.200008151989511
100
AcDbArc
 50
9.5942083945
 51
170.4057916055
  0
ARC
  5
67E
330
1F
100
AcDbEntity
  8
0
  6
Continuous
 62
     7
370
    25
100
AcDbCircle
 10
1842.4007965459
 20
262.2397358094
 30
0.0
 40
4.549995541921954
100
AcDbArc
 50
188.8499349891
 51
351.1500650109
  0
ARC
  5
67F
330
1F
100
AcDbEntity
  8
0
  6
Continuous
 62
     7
370
    25
100
AcDbCircle
 10
1864.8008002175
 20
262.2397439134
 30
0.0
 40
4.200008151989521
100
AcDbArc
 50
189.5942083945
 51
350.4057916055
  0
LINE
  5
680
330
1F
100
AcDbEntity
  8
0
  6
Continuous
 62
     7
370
    25
100
AcDbLine
 10
1882.1695847644
 20
379.1397308381
 30
0.0
 11
1797.5564165248
 21
379.1397308381
 31
0.0
  0
LINE
  5
681
330
1F
100
AcDbEntity
  8
0
  6
Continuous
 62
     7
370
    25
100
AcDbLine
 10
1790.5116124286
 20
251.7397334249
 30
0.0
 11
1889.2143888606
 21
251.7397334249
 31
0.0
  0
ARC
  5
682
330
1F
100
AcDbEntity
  8
0
  6
Continuous
 62
     7
370
    25
100
AcDbCircle
 10
1864.7969266899
 20
368.6393931084
 30
0.0
 40
4.203882053586153
100
AcDbArc
 50
0.0047394812
 51
9.5898070553
  0
ARC
  5
683
330
1F
100
AcDbEntity
  8
0
  6
Continuous
 62
     7
370
    25
100
AcDbCircle
 10
1842.3999420796
 20
368.6394716781
 30
0.0
 40
4.550879341323157
100
AcDbArc
 50
0.0033889076
 51
8.8514742656
  0
ARC
  5
684
330
1F
100
AcDbEntity
  8
0
  6
Continuous
 62
     7
370
    25
100
AcDbCircle
 10
1864.8046737452
 20
368.6393931084
 30
0.0
 40
4.203882053622747
100
AcDbArc
 50
170.4101929447
 51
179.9952605188
  0
ARC
  5
685
330
1F
100
AcDbEntity
  8
0
  6
Continuous
 62
     7
370
    25
100
AcDbCircle
 10
1842.3938293984
 20
368.6403480751
 30
0.0
 40
4.54301603688672
100
AcDbArc
 50
171.1442682278
 51
180.0076582037
  0
ARC
  5
686
330
1F
100
AcDbEntity
  8
0
  6
Continuous
 62
     7
370
    25
100
AcDbCircle
 10
1842.3940308015
 20
262.2403359054
 30
0.0
 40
4.5432174393231
100
AcDbArc
 50
171.1444649669
 51
180.0075927875
  0
ARC
  5
687
330
1F
100
AcDbEntity
  8
0
  6
Continuous
 62
     7
370
    25
100
AcDbCircle
 10
1864.7967404543
 20
262.2393809053
 30
0.0
 40
4.204068289581058
100
AcDbArc
 50
0.0048100525
 51
9.5895941817
  0
ARC
  5
688
330
1F
100
AcDbEntity
  8
0
  6
Continuous
 62
     7
370
    25
100
AcDbCircle
 10
1864.8048599808
 20
262.2393809053
 30
0.0
 40
4.204068289617879
100
AcDbArc
 50
170.4104058184
 51
179.9951899475
  0
ARC
  5
689
330
1F
100
AcDbEntity
  8
0
  6
Continuous
 62
     7
370
    25
100
AcDbCircle
 10
1842.3997405619
 20
262.2394595006
 30
0.0
 40
4.551080859339039
100
AcDbArc
 50
0.0034538203
 51
8.8512779301
  0
ARC
  5
68A
330
1F
100
AcDbEntity
  8
0
  6
Continuous
 62
     7
370
    25
100
AcDbCircle
 10
1842.3995390262
 20
368.6400203624
 30
0.0
 40
4.551282395363605
100
AcDbArc
 50
351.1489184095
 51
359.9964812592
  0
ARC
  5
68B
330
1F
100
AcDbEntity
  8
0
  6
Continuous
 62
     7
370
    25
100
AcDbCircle
 10
1864.805046233
 20
368.6400989831
 30
0.0
 40
4.204254542244387
100
AcDbArc
 50
180.0048806323
 51
189.5893813037
  0
ARC
  5
68C
330
1F
100
AcDbEntity
  8
0
  6
Continuous
 62
     7
370
    25
100
AcDbCircle
 10
1842.3942322225
 20
368.6391439497
 30
0.0
 40
4.543418859661426
100
AcDbArc
 50
179.9924726366
 51
188.85533829
  0
ARC
  5
68D
330
1F
100
AcDbEntity
  8
0
  6
Continuous
 62
     7
370
    25
100
AcDbCircle
 10
1864.7965542021
 20
368.6400989831
 30
0.0
 40
4.204254542208007
100
AcDbArc
 50
350.4106186963
 51
359.9951193677
  0
ARC
  5
68E
330
1F
100
AcDbEntity
  8
0
  6
Continuous
 62
     7
370
    25
100
AcDbCircle
 10
1864.7967404543
 20
262.240086779
 30
0.0
 40
4.20406828958107
100
AcDbArc
 50
350.4104058183
 51
359.9951899475
  0
ARC
  5
68F
330
1F
100
AcDbEntity
  8
0
  6
Continuous
 62
     7
370
    25
100
AcDbCircle
 10
1842.3940308015
 20
262.2391317789
 30
0.0
 40
4.543217439323117
100
AcDbArc
 50
179.9924072125
 51
188.8555350331
  0
ARC
  5
690
330
1F
100
AcDbEntity
  8
0
  6
Continuous
 62
     7
370
    25
100
AcDbCircle
 10
1864.8048599808
 20
262.240086779
 30
0.0
 40
4.204068289617898
100
AcDbArc
 50
180.0048100525
 51
189.5895941816
  0
ARC
  5
691
330
1F
100
AcDbEntity
  8
0
  6
Continuous
 62
     7
370
    25
100
AcDbCircle
 10
1842.3997405619
 20
262.2400081837
 30
0.0
 40
4.551080859339039
100
AcDbArc
 50
351.1487220699
 51
359.9965461797
  0
DIMENSION
  5
692
330
1F
100
AcDbEntity
  8
FORMAT
100
AcDbDimension
  2
_D_33
 10
1742.9238947362
 20
262.2397353436
 30
0.0
 11
1742.9238947362
 21
200.7143000727
 31
0.0
 70
   160
  1
<>
 71
     2
 42
-1.0
  3
SLDDIMSTYLE5
100
AcDbAlignedDimension
 13
1790.5116124286
 23
251.7397353436
 33
0.0
 14
1842.4008067264
 24
262.2397353436
 34
0.0
 50
90.0
100
AcDbRotatedDimension
  0
DIMENSION
  5
69E
330
1F
100
AcDbEntity
  8
FORMAT
100
AcDbDimension
  2
_D_34
 10
1695.8996349458
 20
368.6397353436
 30
0.0
 11
1695.8996349458
 21
315.4397353436
 31
0.0
 70
   160
  1
<>
 71
     2
 42
-1.0
  3
SLDDIMSTYLE8
100
AcDbAlignedDimension
 13
1842.4008067264
 23
262.2397353436
 33
0.0
 14
1834.3508067264
 24
368.6397353436
 34
0.0
 50
90.0
100
AcDbRotatedDimension
  0
MTEXT
  5
6A9
330
1F
100
AcDbEntity
  8
FORMAT
100
AcDbMText
 10
1840.0291787808
 20
486.7491497755
 30
0.0
 40
35.0
 41
0.0
 71
     2
 72
     1
  1
C (1 : 5)
  7
SLDTEXTSTYLE0
 73
     1
 44
1.0
  0
INSERT
  5
6B5
330
1F
100
AcDbEntity
  8
FORMAT
100
AcDbBlockReference
  2
SW_CENTERMARKSYMBOL_12
 10
1842.4008174075
 20
262.2397338422
 30
0.0
  0
INSERT
  5
6C1
330
1F
100
AcDbEntity
  8
FORMAT
100
AcDbBlockReference
  2
SW_CENTERMARKSYMBOL_13
 10
1842.4008174075
 20
368.6397408517
 30
0.0
  0
ENDSEC
  0
SECTION
  2
OBJECTS
  0
DICTIONARY
  5
C
330
0
100
AcDbDictionary
281
     1
  3
ACAD_GROUP
350
D
  3
ACAD_LAYOUT
350
1A
  3
ACAD_MLINESTYLE
350
17
  3
ACAD_PLOTSETTINGS
350
19
  3
ACAD_PLOTSTYLENAME
350
E
  3
ACAD_SCALELIST
350
47
  3
DWGPROPS
350
6C2
  0
DICTIONARY
  5
D
102
{ACAD_REACTORS
330
C
102
}
330
C
100
AcDbDictionary
281
     1
  0
DICTIONARY
  5
1A
102
{ACAD_REACTORS
330
C
102
}
330
C
100
AcDbDictionary
281
     1
  3
Layout1
350
1E
  3
Layout2
350
26
  3
Model
350
22
  0
DICTIONARY
  5
17
102
{ACAD_REACTORS
330
C
102
}
330
C
100
AcDbDictionary
281
     1
  3
Standard
350
18
  0
DICTIONARY
  5
19
102
{ACAD_REACTORS
330
C
102
}
330
C
100
AcDbDictionary
281
     1
  0
ACDBDICTIONARYWDFLT
  5
E
102
{ACAD_REACTORS
330
C
102
}
330
C
100
AcDbDictionary
281
     1
  3
Normal
350
F
100
AcDbDictionaryWithDefault
340
F
  0
DICTIONARY
  5
47
102
{ACAD_REACTORS
330
C
102
}
330
C
100
AcDbDictionary
281
     1
  3
A0
350
48
  3
A1
350
49
  3
A2
350
4A
  3
A3
350
4B
  3
A4
350
4C
  3
A5
350
4D
  3
A6
350
4E
  3
A7
350
4F
  3
A8
350
50
  3
A9
350
51
  3
B0
350
52
  3
B1
350
53
  3
B2
350
54
  3
B3
350
55
  3
B4
350
56
  3
B5
350
57
  3
B6
350
58
  3
B7
350
59
  3
B8
350
5A
  3
B9
350
5B
  3
C0
350
5C
  3
C1
350
5D
  3
C2
350
5E
  3
C3
350
5F
  3
C4
350
60
  3
C5
350
61
  3
C6
350
62
  3
C7
350
63
  3
C8
350
64
  3
C9
350
65
  3
D0
350
66
  3
D1
350
67
  3
D2
350
68
  0
XRECORD
  5
6C2
102
{ACAD_REACTORS
330
C
102
}
330
C
100
AcDbXrecord
280
     1
  1
DWGPROPS COOKIE
  2

  3

  4

  6

  7

  8
l.eckardt
  9

300
=
301
=
302
=
303
=
304
=
305
=
306
=
307
=
308
=
309
=
 40
0.0
 41
2460077.380166424
 42
2460077.380170741
  1

 90
        0
  0
LAYOUT
  5
1E
102
{ACAD_REACTORS
330
1A
102
}
330
1A
100
AcDbPlotSettings
  1

  2
none_device
  4

  6

 40
0.0
 41
0.0
 42
0.0
 43
0.0
 44
0.0
 45
0.0
 46
0.0
 47
0.0
 48
0.0
 49
0.0
140
0.0
141
0.0
142
1.0
143
1.0
 70
   688
 72
     1
 73
     0
 74
     5
  7

 75
    16
147
1.0
148
0.0
149
0.0
100
AcDbLayout
  1
Layout1
 70
     1
 71
     1
 10
0.0
 20
0.0
 11
420.0
 21
297.0
 12
0.0
 22
0.0
 32
0.0
 14
1.0000000000E+20
 24
1.0000000000E+20
 34
1.0000000000E+20
 15
-1.0000000000E+20
 25
-1.0000000000E+20
 35
-1.0000000000E+20
146
0.0
 13
0.0
 23
0.0
 33
0.0
 16
1.0
 26
0.0
 36
0.0
 17
0.0
 27
1.0
 37
0.0
 76
     0
330
1B
  0
LAYOUT
  5
26
102
{ACAD_REACTORS
330
1A
102
}
330
1A
100
AcDbPlotSettings
  1

  2
none_device
  4

  6

 40
0.0
 41
0.0
 42
0.0
 43
0.0
 44
0.0
 45
0.0
 46
0.0
 47
0.0
 48
0.0
 49
0.0
140
0.0
141
0.0
142
1.0
143
1.0
 70
   688
 72
     1
 73
     0
 74
     5
  7

 75
    16
147
1.0
148
0.0
149
0.0
100
AcDbLayout
  1
Layout2
 70
     1
 71
     2
 10
0.0
 20
0.0
 11
0.0
 21
0.0
 12
0.0
 22
0.0
 32
0.0
 14
0.0
 24
0.0
 34
0.0
 15
0.0
 25
0.0
 35
0.0
146
0.0
 13
0.0
 23
0.0
 33
0.0
 16
1.0
 26
0.0
 36
0.0
 17
0.0
 27
1.0
 37
0.0
 76
     0
330
23
  0
LAYOUT
  5
22
102
{ACAD_REACTORS
330
1A
102
}
330
1A
100
AcDbPlotSettings
  1

  2
none_device
  4
Letter_(8.50_x_11.00_Inches)
  6

 40
6.35
 41
6.35
 42
6.35000508
 43
6.35000508
 44
215.9
 45
279.4
 46
0.0
 47
0.0
 48
0.0
 49
0.0
140
0.0
141
0.0
142
1.0
143
1.0
 70
  1712
 72
     1
 73
     0
 74
     0
  7

 75
     0
147
1.0
148
0.0
149
0.0
100
AcDbLayout
  1
Model
 70
     1
 71
     0
 10
0.0
 20
0.0
 11
2940.0
 21
2079.0
 12
0.0
 22
0.0
 32
0.0
 14
0.0
 24
0.0
 34
0.0
 15
2940.0
 25
2079.0
 35
0.0
146
0.0
 13
0.0
 23
0.0
 33
0.0
 16
1.0
 26
0.0
 36
0.0
 17
0.0
 27
1.0
 37
0.0
 76
     0
330
1F
331
29
  0
MLINESTYLE
  5
18
102
{ACAD_REACTORS
330
17
102
}
330
17
100
AcDbMlineStyle
  2
Standard
 70
     0
  3

 62
   256
 51
90.0
 52
90.0
 71
     2
 49
0.5
 62
   256
  6
BYLAYER
 49
-0.5
 62
   256
  6
BYLAYER
  0
ACDBPLACEHOLDER
  5
F
102
{ACAD_REACTORS
330
E
102
}
330
E
  0
SCALE
  5
48
102
{ACAD_REACTORS
330
47
102
}
330
47
100
AcDbScale
 70
     0
300
1:1
140
1.0
141
1.0
290
     1
  0
SCALE
  5
49
102
{ACAD_REACTORS
330
47
102
}
330
47
100
AcDbScale
 70
     0
300
1:2
140
1.0
141
2.0
290
     0
  0
SCALE
  5
4A
102
{ACAD_REACTORS
330
47
102
}
330
47
100
AcDbScale
 70
     0
300
1:4
140
1.0
141
4.0
290
     0
  0
SCALE
  5
4B
102
{ACAD_REACTORS
330
47
102
}
330
47
100
AcDbScale
 70
     0
300
1:5
140
1.0
141
5.0
290
     0
  0
SCALE
  5
4C
102
{ACAD_REACTORS
330
47
102
}
330
47
100
AcDbScale
 70
     0
300
1:8
140
1.0
141
8.0
290
     0
  0
SCALE
  5
4D
102
{ACAD_REACTORS
330
47
102
}
330
47
100
AcDbScale
 70
     0
300
1:10
140
1.0
141
10.0
290
     0
  0
SCALE
  5
4E
102
{ACAD_REACTORS
330
47
102
}
330
47
100
AcDbScale
 70
     0
300
1:16
140
1.0
141
16.0
290
     0
  0
SCALE
  5
4F
102
{ACAD_REACTORS
330
47
102
}
330
47
100
AcDbScale
 70
     0
300
1:20
140
1.0
141
20.0
290
     0
  0
SCALE
  5
50
102
{ACAD_REACTORS
330
47
102
}
330
47
100
AcDbScale
 70
     0
300
1:30
140
1.0
141
30.0
290
     0
  0
SCALE
  5
51
102
{ACAD_REACTORS
330
47
102
}
330
47
100
AcDbScale
 70
     0
300
1:40
140
1.0
141
40.0
290
     0
  0
SCALE
  5
52
102
{ACAD_REACTORS
330
47
102
}
330
47
100
AcDbScale
 70
     0
300
1:50
140
1.0
141
50.0
290
     0
  0
SCALE
  5
53
102
{ACAD_REACTORS
330
47
102
}
330
47
100
AcDbScale
 70
     0
300
1:100
140
1.0
141
100.0
290
     0
  0
SCALE
  5
54
102
{ACAD_REACTORS
330
47
102
}
330
47
100
AcDbScale
 70
     0
300
2:1
140
2.0
141
1.0
290
     0
  0
SCALE
  5
55
102
{ACAD_REACTORS
330
47
102
}
330
47
100
AcDbScale
 70
     0
300
4:1
140
4.0
141
1.0
290
     0
  0
SCALE
  5
56
102
{ACAD_REACTORS
330
47
102
}
330
47
100
AcDbScale
 70
     0
300
8:1
140
8.0
141
1.0
290
     0
  0
SCALE
  5
57
102
{ACAD_REACTORS
330
47
102
}
330
47
100
AcDbScale
 70
     0
300
10:1
140
10.0
141
1.0
290
     0
  0
SCALE
  5
58
102
{ACAD_REACTORS
330
47
102
}
330
47
100
AcDbScale
 70
     0
300
100:1
140
100.0
141
1.0
290
     0
  0
SCALE
  5
59
102
{ACAD_REACTORS
330
47
102
}
330
47
100
AcDbScale
 70
     0
300
1/128" = 1'-0"
140
0.0078125
141
12.0
290
     0
  0
SCALE
  5
5A
102
{ACAD_REACTORS
330
47
102
}
330
47
100
AcDbScale
 70
     0
300
1/64" = 1'-0"
140
0.015625
141
12.0
290
     0
  0
SCALE
  5
5B
102
{ACAD_REACTORS
330
47
102
}
330
47
100
AcDbScale
 70
     0
300
1/32" = 1'-0"
140
0.03125
141
12.0
290
     0
  0
SCALE
  5
5C
102
{ACAD_REACTORS
330
47
102
}
330
47
100
AcDbScale
 70
     0
300
1/16" = 1'-0"
140
0.0625
141
12.0
290
     0
  0
SCALE
  5
5D
102
{ACAD_REACTORS
330
47
102
}
330
47
100
AcDbScale
 70
     0
300
3/32" = 1'-0"
140
0.09375
141
12.0
290
     0
  0
SCALE
  5
5E
102
{ACAD_REACTORS
330
47
102
}
330
47
100
AcDbScale
 70
     0
300
1/8" = 1'-0"
140
0.125
141
12.0
290
     0
  0
SCALE
  5
5F
102
{ACAD_REACTORS
330
47
102
}
330
47
100
AcDbScale
 70
     0
300
3/16" = 1'-0"
140
0.1875
141
12.0
290
     0
  0
SCALE
  5
60
102
{ACAD_REACTORS
330
47
102
}
330
47
100
AcDbScale
 70
     0
300
1/4" = 1'-0"
140
0.25
141
12.0
290
     0
  0
SCALE
  5
61
102
{ACAD_REACTORS
330
47
102
}
330
47
100
AcDbScale
 70
     0
300
3/8" = 1'-0"
140
0.375
141
12.0
290
     0
  0
SCALE
  5
62
102
{ACAD_REACTORS
330
47
102
}
330
47
100
AcDbScale
 70
     0
300
1/2" = 1'-0"
140
0.5
141
12.0
290
     0
  0
SCALE
  5
63
102
{ACAD_REACTORS
330
47
102
}
330
47
100
AcDbScale
 70
     0
300
3/4" = 1'-0"
140
0.75
141
12.0
290
     0
  0
SCALE
  5
64
102
{ACAD_REACTORS
330
47
102
}
330
47
100
AcDbScale
 70
     0
300
1" = 1'-0"
140
1.0
141
12.0
290
     0
  0
SCALE
  5
65
102
{ACAD_REACTORS
330
47
102
}
330
47
100
AcDbScale
 70
     0
300
1-1/2" = 1'-0"
140
1.5
141
12.0
290
     0
  0
SCALE
  5
66
102
{ACAD_REACTORS
330
47
102
}
330
47
100
AcDbScale
 70
     0
300
3" = 1'-0"
140
3.0
141
12.0
290
     0
  0
SCALE
  5
67
102
{ACAD_REACTORS
330
47
102
}
330
47
100
AcDbScale
 70
     0
300
6" = 1'-0"
140
6.0
141
12.0
290
     0
  0
SCALE
  5
68
102
{ACAD_REACTORS
330
47
102
}
330
47
100
AcDbScale
 70
     0
300
1'-0" = 1'-0"
140
12.0
141
12.0
290
     0
  0
ENDSEC
  0
EOF
