  0
SECTION
  2
HEADER
  9
$ACADVER
  1
AC1015
  9
$ACADMAINTVER
 70
     6
  9
$DWGCODEPAGE
  3
ANSI_1252
  9
$INSBASE
 10
0.0
 20
0.0
 30
0.0
  9
$EXTMIN
 10
0.0
 20
0.0
 30
0.0
  9
$EXTMAX
 10
2940.0
 20
2079.0
 30
0.0
  9
$LIMMIN
 10
0.0
 20
0.0
  9
$LIMMAX
 10
2940.0
 20
2079.0
  9
$ORTHOMODE
 70
     0
  9
$REGENMODE
 70
     1
  9
$FILLMODE
 70
     1
  9
$QTEXTMODE
 70
     0
  9
$MIRRTEXT
 70
     1
  9
$LTSCALE
 40
7.0
  9
$ATTMODE
 70
     1
  9
$TEXTSIZE
 40
24.5
  9
$TRACEWID
 40
1.0
  9
$TEXTSTYLE
  7
STANDARD
  9
$CLAYER
  8
0
  9
$CELTYPE
  6
ByLayer
  9
$CECOLOR
 62
   256
  9
$CELTSCALE
 40
1.0
  9
$DISPSILH
 70
     0
  9
$DIMSCALE
 40
1.0
  9
$DIMASZ
 40
23.114
  9
$DIMEXO
 40
7.0
  9
$DIMDLI
 40
3.75
  9
$DIMRND
 40
0.0
  9
$DIMDLE
 40
0.0
  9
$DIMEXE
 40
7.0
  9
$DIMTP
 40
0.0
  9
$DIMTM
 40
0.0
  9
$DIMTXT
 40
24.5
  9
$DIMCEN
 40
2.5
  9
$DIMTSZ
 40
0.0
  9
$DIMTOL
 70
     0
  9
$DIMLIM
 70
     0
  9
$DIMTIH
 70
     1
  9
$DIMTOH
 70
     1
  9
$DIMSE1
 70
     0
  9
$DIMSE2
 70
     0
  9
$DIMTAD
 70
     1
  9
$DIMZIN
 70
     0
  9
$DIMBLK
  1

  9
$DIMASO
 70
     1
  9
$DIMSHO
 70
     1
  9
$DIMPOST
  1

  9
$DIMAPOST
  1

  9
$DIMALT
 70
     0
  9
$DIMALTD
 70
     3
  9
$DIMALTF
 40
0.0393700787
  9
$DIMLFAC
 40
1.0
  9
$DIMTOFL
 70
     1
  9
$DIMTVP
 40
0.0
  9
$DIMTIX
 70
     0
  9
$DIMSOXD
 70
     0
  9
$DIMSAH
 70
     0
  9
$DIMBLK1
  1

  9
$DIMBLK2
  1

  9
$DIMSTYLE
  2
ISO-25
  9
$DIMCLRD
 70
     0
  9
$DIMCLRE
 70
     0
  9
$DIMCLRT
 70
     0
  9
$DIMTFAC
 40
1.0
  9
$DIMGAP
 40
21.0
  9
$DIMJUST
 70
     0
  9
$DIMSD1
 70
     0
  9
$DIMSD2
 70
     0
  9
$DIMTOLJ
 70
     0
  9
$DIMTZIN
 70
     0
  9
$DIMALTZ
 70
     0
  9
$DIMALTTZ
 70
     0
  9
$DIMUPT
 70
     0
  9
$DIMDEC
 70
     2
  9
$DIMTDEC
 70
     2
  9
$DIMALTU
 70
     2
  9
$DIMALTTD
 70
     3
  9
$DIMTXSTY
  7
STANDARD
  9
$DIMAUNIT
 70
     0
  9
$DIMADEC
 70
     2
  9
$DIMALTRND
 40
0.0
  9
$DIMAZIN
 70
     0
  9
$DIMDSEP
 70
    44
  9
$DIMATFIT
 70
     3
  9
$DIMFRAC
 70
     0
  9
$DIMLDRBLK
  1

  9
$DIMLUNIT
 70
     2
  9
$DIMLWD
 70
    -2
  9
$DIMLWE
 70
    -2
  9
$DIMTMOVE
 70
     0
  9
$LUNITS
 70
     2
  9
$LUPREC
 70
     2
  9
$SKETCHINC
 40
1.0
  9
$FILLETRAD
 40
10.0
  9
$AUNITS
 70
     0
  9
$AUPREC
 70
     2
  9
$MENU
  1
.
  9
$ELEVATION
 40
0.0
  9
$PELEVATION
 40
0.0
  9
$THICKNESS
 40
0.0
  9
$LIMCHECK
 70
     0
  9
$CHAMFERA
 40
0.0
  9
$CHAMFERB
 40
0.0
  9
$CHAMFERC
 40
0.0
  9
$CHAMFERD
 40
0.0
  9
$SKPOLY
 70
     0
  9
$TDCREATE
 40
2460077.46181463
  9
$TDUCREATE
 40
2460077.378481296
  9
$TDUPDATE
 40
2460077.461820428
  9
$TDUUPDATE
 40
2460077.378487095
  9
$TDINDWG
 40
0.0000000116
  9
$TDUSRTIMER
 40
0.0000000116
  9
$USRTIMER
 70
     1
  9
$ANGBASE
 50
0.0
  9
$ANGDIR
 70
     0
  9
$PDMODE
 70
     0
  9
$PDSIZE
 40
-1.0
  9
$PLINEWID
 40
0.0
  9
$SPLFRAME
 70
     0
  9
$SPLINETYPE
 70
     6
  9
$SPLINESEGS
 70
     8
  9
$HANDSEED
  5
5D4
  9
$SURFTAB1
 70
     6
  9
$SURFTAB2
 70
     6
  9
$SURFTYPE
 70
     6
  9
$SURFU
 70
     6
  9
$SURFV
 70
     6
  9
$UCSBASE
  2

  9
$UCSNAME
  2

  9
$UCSORG
 10
0.0
 20
0.0
 30
0.0
  9
$UCSXDIR
 10
1.0
 20
0.0
 30
0.0
  9
$UCSYDIR
 10
0.0
 20
1.0
 30
0.0
  9
$UCSORTHOREF
  2

  9
$UCSORTHOVIEW
 70
     0
  9
$UCSORGTOP
 10
0.0
 20
0.0
 30
0.0
  9
$UCSORGBOTTOM
 10
0.0
 20
0.0
 30
0.0
  9
$UCSORGLEFT
 10
0.0
 20
0.0
 30
0.0
  9
$UCSORGRIGHT
 10
0.0
 20
0.0
 30
0.0
  9
$UCSORGFRONT
 10
0.0
 20
0.0
 30
0.0
  9
$UCSORGBACK
 10
0.0
 20
0.0
 30
0.0
  9
$PUCSBASE
  2

  9
$PUCSNAME
  2

  9
$PUCSORG
 10
0.0
 20
0.0
 30
0.0
  9
$PUCSXDIR
 10
1.0
 20
0.0
 30
0.0
  9
$PUCSYDIR
 10
0.0
 20
1.0
 30
0.0
  9
$PUCSORTHOREF
  2

  9
$PUCSORTHOVIEW
 70
     0
  9
$PUCSORGTOP
 10
0.0
 20
0.0
 30
0.0
  9
$PUCSORGBOTTOM
 10
0.0
 20
0.0
 30
0.0
  9
$PUCSORGLEFT
 10
0.0
 20
0.0
 30
0.0
  9
$PUCSORGRIGHT
 10
0.0
 20
0.0
 30
0.0
  9
$PUCSORGFRONT
 10
0.0
 20
0.0
 30
0.0
  9
$PUCSORGBACK
 10
0.0
 20
0.0
 30
0.0
  9
$USERI1
 70
     0
  9
$USERI2
 70
     0
  9
$USERI3
 70
     0
  9
$USERI4
 70
     0
  9
$USERI5
 70
     0
  9
$USERR1
 40
0.0
  9
$USERR2
 40
0.0
  9
$USERR3
 40
0.0
  9
$USERR4
 40
0.0
  9
$USERR5
 40
0.0
  9
$WORLDVIEW
 70
     1
  9
$SHADEDGE
 70
     3
  9
$SHADEDIF
 70
    70
  9
$TILEMODE
 70
     1
  9
$MAXACTVP
 70
    64
  9
$PINSBASE
 10
0.0
 20
0.0
 30
0.0
  9
$PLIMCHECK
 70
     0
  9
$PEXTMIN
 10
1.0000000000E+20
 20
1.0000000000E+20
 30
1.0000000000E+20
  9
$PEXTMAX
 10
-1.0000000000E+20
 20
-1.0000000000E+20
 30
-1.0000000000E+20
  9
$PLIMMIN
 10
0.0
 20
0.0
  9
$PLIMMAX
 10
420.0
 20
297.0
  9
$UNITMODE
 70
     0
  9
$VISRETAIN
 70
     1
  9
$PLINEGEN
 70
     0
  9
$PSLTSCALE
 70
     1
  9
$TREEDEPTH
 70
  3020
  9
$CMLSTYLE
  2
Standard
  9
$CMLJUST
 70
     0
  9
$CMLSCALE
 40
20.0
  9
$PROXYGRAPHICS
 70
     1
  9
$MEASUREMENT
 70
     1
  9
$CELWEIGHT
370
    -1
  9
$ENDCAPS
280
     0
  9
$JOINSTYLE
280
     0
  9
$LWDISPLAY
290
     1
  9
$INSUNITS
 70
     4
  9
$HYPERLINKBASE
  1

  9
$STYLESHEET
  1

  9
$XEDIT
290
     1
  9
$CEPSNTYPE
380
     0
  9
$PSTYLEMODE
290
     1
  9
$FINGERPRINTGUID
  2
{2f1894a5-b0c3-4983-8bef-6fcce9468797}
  9
$VERSIONGUID
  2
{FAEB1C32-E019-11D5-929B-00C0DF256EC4}
  9
$EXTNAMES
290
     1
  9
$PSVPSCALE
 40
0.0
  9
$OLESTARTUP
290
     0
  0
ENDSEC
  0
SECTION
  2
CLASSES
  0
CLASS
  1
ACDBDICTIONARYWDFLT
  2
AcDbDictionaryWithDefault
  3
ObjectDBX Classes
 90
        0
280
     0
281
     0
  0
CLASS
  1
VISUALSTYLE
  2
AcDbVisualStyle
  3
ObjectDBX Classes
 90
     4095
280
     0
281
     0
  0
CLASS
  1
MATERIAL
  2
AcDbMaterial
  3
ObjectDBX Classes
 90
     1153
280
     0
281
     0
  0
CLASS
  1
SCALE
  2
AcDbScale
  3
ObjectDBX Classes
 90
     1153
280
     0
281
     0
  0
CLASS
  1
TABLESTYLE
  2
AcDbTableStyle
  3
ObjectDBX Classes
 90
     4095
280
     0
281
     0
  0
CLASS
  1
MLEADERSTYLE
  2
AcDbMLeaderStyle
  3
ACDB_MLEADERSTYLE_CLASS
 90
     4095
280
     0
281
     0
  0
CLASS
  1
SUN
  2
AcDbSun
  3
SCENEOE
 90
     1153
280
     0
281
     0
  0
CLASS
  1
ACDBPLACEHOLDER
  2
AcDbPlaceHolder
  3
ObjectDBX Classes
 90
        0
280
     0
281
     0
  0
CLASS
  1
LAYOUT
  2
AcDbLayout
  3
ObjectDBX Classes
 90
        0
280
     0
281
     0
  0
ENDSEC
  0
SECTION
  2
TABLES
  0
TABLE
  2
VPORT
  5
8
330
0
100
AcDbSymbolTable
 70
     1
  0
VPORT
  5
29
330
8
100
AcDbSymbolTableRecord
100
AcDbViewportTableRecord
  2
*Active
 70
     0
 10
0.0
 20
0.0
 11
1.0
 21
1.0
 12
1470.0
 22
1039.5
 13
0.0
 23
0.0
 14
10.0
 24
10.0
 15
10.0
 25
10.0
 16
0.0
 26
0.0
 36
1.0
 17
0.0
 27
0.0
 37
0.0
 40
2079.0
 41
1.4141414141
 42
50.0
 43
0.0
 44
0.0
 50
0.0
 51
0.0
 71
     0
 72
  2000
 73
     1
 74
     3
 75
     0
 76
     0
 77
     0
 78
     0
281
     0
 65
     1
110
0.0
120
0.0
130
0.0
111
1.0
121
0.0
131
0.0
112
0.0
122
1.0
132
0.0
 79
     0
146
0.0
  0
ENDTAB
  0
TABLE
  2
LTYPE
  5
5
330
0
100
AcDbSymbolTable
 70
     6
  0
LTYPE
  5
14
330
5
100
AcDbSymbolTableRecord
100
AcDbLinetypeTableRecord
  2
ByBlock
 70
     0
  3

 72
    65
 73
     0
 40
0.0
  0
LTYPE
  5
15
330
5
100
AcDbSymbolTableRecord
100
AcDbLinetypeTableRecord
  2
ByLayer
 70
     0
  3

 72
    65
 73
     0
 40
0.0
  0
LTYPE
  5
16
330
5
100
AcDbSymbolTableRecord
100
AcDbLinetypeTableRecord
  2
Continuous
 70
     0
  3
Solid line
 72
    65
 73
     0
 40
0.0
  0
LTYPE
  5
6E
330
5
100
AcDbSymbolTableRecord
100
AcDbLinetypeTableRecord
  2
HIDDEN
 70
     0
  3
Hidden __ __ __ __ __ __ __ __ __ __ __ __ __ __
 72
    65
 73
     2
 40
1.905
 49
1.27
 74
     0
 49
-0.635
 74
     0
  0
LTYPE
  5
6F
330
5
100
AcDbSymbolTableRecord
100
AcDbLinetypeTableRecord
  2
PHANTOM
 70
     0
  3
Phantom ______  __  __  ______  __  __  ______
 72
    65
 73
     6
 40
12.7
 49
6.35
 74
     0
 49
-1.27
 74
     0
 49
1.27
 74
     0
 49
-1.27
 74
     0
 49
1.27
 74
     0
 49
-1.27
 74
     0
  0
LTYPE
  5
70
330
5
100
AcDbSymbolTableRecord
100
AcDbLinetypeTableRecord
  2
CENTER
 70
     0
  3
Center ____ _ ____ _ ____ _ ____ _ ____ _ ____
 72
    65
 73
     4
 40
10.16
 49
6.35
 74
     0
 49
-1.27
 74
     0
 49
1.27
 74
     0
 49
-1.27
 74
     0
  0
LTYPE
  5
71
330
5
100
AcDbSymbolTableRecord
100
AcDbLinetypeTableRecord
  2
CENTERX2
 70
     0
  3
Center (2x) ________  __  ________  __  _____
 72
    65
 73
     4
 40
20.32
 49
12.7
 74
     0
 49
-2.54
 74
     0
 49
2.54
 74
     0
 49
-2.54
 74
     0
  0
LTYPE
  5
72
330
5
100
AcDbSymbolTableRecord
100
AcDbLinetypeTableRecord
  2
DOT2
 70
     0
  3
Dot (.5x) ........................................
 72
    65
 73
     2
 40
0.635
 49
0.0
 74
     0
 49
-0.635
 74
     0
  0
ENDTAB
  0
TABLE
  2
LAYER
  5
2
330
0
100
AcDbSymbolTable
 70
     8
  0
LAYER
  5
10
330
2
100
AcDbSymbolTableRecord
100
AcDbLayerTableRecord
  2
0
 70
     0
 62
     7
  6
Continuous
370
    -3
390
F
  0
LAYER
  5
73
330
2
100
AcDbSymbolTableRecord
100
AcDbLayerTableRecord
  2
FORMAT
 70
     0
 62
     7
  6
Continuous
370
    -3
390
F
  0
LAYER
  5
74
330
2
100
AcDbSymbolTableRecord
100
AcDbLayerTableRecord
  2
VORLAGE
 70
     0
 62
     7
  6
Continuous
370
    -3
390
F
  0
LAYER
  5
75
330
2
100
AcDbSymbolTableRecord
100
AcDbLayerTableRecord
  2
1
 70
     0
 62
   179
  6
Continuous
370
    -3
390
F
  0
LAYER
  5
76
330
2
100
AcDbSymbolTableRecord
100
AcDbLayerTableRecord
  2
LAYER0
 70
     0
 62
     7
  6
Continuous
370
    -3
390
F
  0
LAYER
  5
77
330
2
100
AcDbSymbolTableRecord
100
AcDbLayerTableRecord
  2
BEMASSUNG
 70
     0
 62
     1
  6
Continuous
370
    -3
390
F
  0
LAYER
  5
78
330
2
100
AcDbSymbolTableRecord
100
AcDbLayerTableRecord
  2
ÄNDERUNG
 70
     0
 62
     1
  6
Continuous
370
    -3
390
F
  0
LAYER
  5
79
330
2
100
AcDbSymbolTableRecord
100
AcDbLayerTableRecord
  2
KENNZEICHNUNG
 70
     0
 62
     7
  6
Continuous
370
    -3
390
F
  0
ENDTAB
  0
TABLE
  2
STYLE
  5
3
330
0
100
AcDbSymbolTable
 70
     5
  0
STYLE
  5
11
330
3
100
AcDbSymbolTableRecord
100
AcDbTextStyleTableRecord
  2
STANDARD
 70
     0
 40
0.0
 41
1.0
 50
0.0
 71
     0
 42
24.5
  3
ARIAL.TTF
  4

1001
ACAD
1000
ARIAL
1071
       34
  0
STYLE
  5
8B
330
3
100
AcDbSymbolTableRecord
100
AcDbTextStyleTableRecord
  2
SLDTEXTSTYLE0
 70
     0
 40
0.0
 41
0.948
 50
0.0
 71
     0
 42
24.5
  3
ARIAL.TTF
  4

1001
ACAD
1000
Arial
1071
      290
  0
STYLE
  5
B2
330
3
100
AcDbSymbolTableRecord
100
AcDbTextStyleTableRecord
  2
SLDTEXTSTYLE1
 70
     0
 40
0.0
 41
1.0
 50
0.0
 71
     0
 42
24.5
  3
ARIALUNI.TTF
  4

1001
ACAD
1000
Arial Unicode MS
1071
 33554722
  0
STYLE
  5
B8
330
3
100
AcDbSymbolTableRecord
100
AcDbTextStyleTableRecord
  2
SLDTEXTSTYLE2
 70
     0
 40
0.0
 41
0.87
 50
0.0
 71
     0
 42
24.5
  3
ARIALN.TTF
  4

1001
ACAD
1000
Arial Narrow
1071
      290
  0
STYLE
  5
E9
330
3
100
AcDbSymbolTableRecord
100
AcDbTextStyleTableRecord
  2
SLDTEXTSTYLE3
 70
     0
 40
0.0
 41
0.948
 50
0.0
 71
     0
 42
24.5
  3
ARIALBD.TTF
  4

1001
ACAD
1000
Arial
1071
 33554722
  0
ENDTAB
  0
TABLE
  2
VIEW
  5
6
330
0
100
AcDbSymbolTable
 70
     0
  0
ENDTAB
  0
TABLE
  2
UCS
  5
7
330
0
100
AcDbSymbolTable
 70
     0
  0
ENDTAB
  0
TABLE
  2
APPID
  5
9
330
0
100
AcDbSymbolTable
 70
     1
  0
APPID
  5
12
330
9
100
AcDbSymbolTableRecord
100
AcDbRegAppTableRecord
  2
ACAD
 70
     0
  0
ENDTAB
  0
TABLE
  2
DIMSTYLE
  5
A
330
0
100
AcDbSymbolTable
 70
    11
100
AcDbDimStyleTable
  0
DIMSTYLE
105
27
330
A
100
AcDbSymbolTableRecord
100
AcDbDimStyleTableRecord
  2
ISO-25
 70
     0
 41
2.5
 42
0.625
 43
3.75
 44
1.25
 73
     0
 74
     0
 77
     1
 78
     8
140
2.5
141
2.5
143
0.0393700787
147
0.625
171
     3
172
     1
178
     0
271
     2
272
     2
274
     3
278
    44
283
     0
284
     8
340
11
  0
DIMSTYLE
105
1B5
102
{ACAD_REACTORS
330
1B4
330
1CC
330
1D6
330
28D
330
297
330
2F4
330
2FE
330
308
330
312
330
31C
330
326
330
473
330
47C
330
486
102
}
330
A
100
AcDbSymbolTableRecord
100
AcDbDimStyleTableRecord
  2
SLDDIMSTYLE0
 70
     0
 41
23.114
 44
0.0
 45
0.000000001
 73
     0
 74
     0
 77
     1
 78
    12
 79
     3
140
24.5
147
6.125
173
     1
178
     0
271
     2
272
     2
276
     2
284
    12
340
8B
  0
DIMSTYLE
105
1C0
102
{ACAD_REACTORS
330
1BF
330
2A1
330
2D0
330
2DC
330
2E8
330
468
102
}
330
A
100
AcDbSymbolTableRecord
100
AcDbDimStyleTableRecord
  2
SLDDIMSTYLE1
 70
     0
 41
23.114
 44
0.0
 45
0.000000001
 73
     0
 74
     0
 77
     1
 78
    12
 79
     3
140
24.5
147
6.125
172
     1
173
     1
178
     0
271
     2
272
     2
276
     2
284
    12
289
     0
340
8B
  0
DIMSTYLE
105
2AD
102
{ACAD_REACTORS
330
2AC
330
2B8
330
2C4
102
}
330
A
100
AcDbSymbolTableRecord
100
AcDbDimStyleTableRecord
  2
SLDDIMSTYLE2
 70
     0
 41
23.114
 44
0.0
 45
0.000000001
 73
     0
 74
     0
 77
     1
 78
    12
 79
     3
140
24.5
147
6.125
172
     1
173
     1
178
     0
271
     0
272
     2
276
     2
284
    12
289
     0
340
8B
  0
DIMSTYLE
105
330
330
A
100
AcDbSymbolTableRecord
100
AcDbDimStyleTableRecord
  2
SLDDIMSTYLE3
 70
     0
 41
23.114
 44
0.0
 45
0.000000001
146
23.114
147
0.0
173
     1
178
     0
271
     0
272
     0
276
     2
340
11
  0
DIMSTYLE
105
44D
102
{ACAD_REACTORS
330
44C
330
45D
102
}
330
A
100
AcDbSymbolTableRecord
100
AcDbDimStyleTableRecord
  2
SLDDIMSTYLE4
 70
     0
 41
7.112
 44
0.0
 45
0.000000001
 73
     0
 74
     0
 77
     1
 78
    12
 79
     3
140
17.9782307943
147
4.4945576986
173
     1
178
     0
271
     2
272
     2
276
     2
284
    12
340
8B
341
44E
343
44E
  0
DIMSTYLE
105
527
102
{ACAD_REACTORS
330
526
330
535
330
56B
330
577
330
5A3
102
}
330
A
100
AcDbSymbolTableRecord
100
AcDbDimStyleTableRecord
  2
SLDDIMSTYLE5
 70
     0
 41
23.114
 44
0.0
 45
0.000000001
 73
     0
 74
     0
 77
     1
 78
    12
 79
     3
140
24.5
144
0.7142857143
147
6.125
172
     1
173
     1
178
     0
271
     2
272
     2
276
     2
284
    12
289
     0
340
8B
  0
DIMSTYLE
105
544
102
{ACAD_REACTORS
330
543
102
}
330
A
100
AcDbSymbolTableRecord
100
AcDbDimStyleTableRecord
  2
SLDDIMSTYLE6
 70
     0
 41
23.114
 44
0.0
 45
0.000000001
 73
     0
 74
     0
 77
     1
 78
    12
 79
     3
140
24.5
144
0.7142857143
147
6.125
172
     1
173
     1
178
     0
271
     2
272
     2
276
     2
284
    12
289
     0
340
8B
344
44E
  0
DIMSTYLE
105
551
102
{ACAD_REACTORS
330
550
102
}
330
A
100
AcDbSymbolTableRecord
100
AcDbDimStyleTableRecord
  2
SLDDIMSTYLE7
 70
     0
 41
7.112
 44
0.0
 45
0.000000001
 73
     0
 74
     0
 77
     1
 78
    12
 79
     3
140
24.5
144
0.7142857143
147
6.125
172
     1
173
     1
178
     0
271
     2
272
     2
276
     2
284
    12
289
     0
340
8B
341
44E
343
44E
  0
DIMSTYLE
105
55E
102
{ACAD_REACTORS
330
55D
102
}
330
A
100
AcDbSymbolTableRecord
100
AcDbDimStyleTableRecord
  2
SLDDIMSTYLE8
 70
     0
 41
23.114
 44
0.0
 45
0.000000001
 73
     0
 74
     0
 77
     1
 78
    12
 79
     3
140
24.5
144
0.7142857143
147
6.125
172
     1
173
     1
178
     0
271
     2
272
     2
276
     2
284
    12
289
     0
340
E9
  0
DIMSTYLE
105
5B0
102
{ACAD_REACTORS
330
5AF
102
}
330
A
100
AcDbSymbolTableRecord
100
AcDbDimStyleTableRecord
  2
SLDDIMSTYLE9
 70
     0
 41
23.114
 44
0.0
 45
0.000000001
 73
     0
 74
     0
 77
     1
 78
    12
 79
     3
140
24.5
144
0.7142857143
147
6.125
173
     1
178
     0
271
     2
272
     2
276
     2
284
    12
340
8B
  0
ENDTAB
  0
TABLE
  2
BLOCK_RECORD
  5
1
330
0
100
AcDbSymbolTable
 70
    60
  0
BLOCK_RECORD
  5
1F
330
1
100
AcDbSymbolTableRecord
100
AcDbBlockTableRecord
  2
*Model_Space
340
22
  0
BLOCK_RECORD
  5
1B
330
1
100
AcDbSymbolTableRecord
100
AcDbBlockTableRecord
  2
*Paper_Space
340
1E
  0
BLOCK_RECORD
  5
23
330
1
100
AcDbSymbolTableRecord
100
AcDbBlockTableRecord
  2
*Paper_Space0
340
26
  0
BLOCK_RECORD
  5
7A
330
1
100
AcDbSymbolTableRecord
100
AcDbBlockTableRecord
  2
Block1_3_1
340
0
102
{BLKREFS
331
D8
102
}
  0
BLOCK_RECORD
  5
88
330
1
100
AcDbSymbolTableRecord
100
AcDbBlockTableRecord
  2
SW_NOTE_0
340
0
102
{BLKREFS
331
8E
102
}
  0
BLOCK_RECORD
  5
8F
330
1
100
AcDbSymbolTableRecord
100
AcDbBlockTableRecord
  2
Block2_3_1
340
0
102
{BLKREFS
331
D9
102
}
  0
BLOCK_RECORD
  5
AF
330
1
100
AcDbSymbolTableRecord
100
AcDbBlockTableRecord
  2
SW_NOTE_0_1
340
0
102
{BLKREFS
331
B4
102
}
  0
BLOCK_RECORD
  5
B5
330
1
100
AcDbSymbolTableRecord
100
AcDbBlockTableRecord
  2
SW_NOTE_0_2
340
0
102
{BLKREFS
331
BC
102
}
  0
BLOCK_RECORD
  5
BD
330
1
100
AcDbSymbolTableRecord
100
AcDbBlockTableRecord
  2
rechtlicher_Hinweis_Katalogzeichnungen_1
340
0
102
{BLKREFS
331
DA
102
}
  0
BLOCK_RECORD
  5
C0
330
1
100
AcDbSymbolTableRecord
100
AcDbBlockTableRecord
  2
SW_NOTE_0_3
340
0
102
{BLKREFS
331
C9
102
}
  0
BLOCK_RECORD
  5
DD
330
1
100
AcDbSymbolTableRecord
100
AcDbBlockTableRecord
  2
SW_NOTE_0_4
340
0
102
{BLKREFS
331
E3
102
}
  0
BLOCK_RECORD
  5
F5
330
1
100
AcDbSymbolTableRecord
100
AcDbBlockTableRecord
  2
SW_TABLEANNOTATION_0
340
0
102
{BLKREFS
331
10F
102
}
  0
BLOCK_RECORD
  5
1B6
330
1
100
AcDbSymbolTableRecord
100
AcDbBlockTableRecord
  2
_D
340
0
  0
BLOCK_RECORD
  5
1C1
330
1
100
AcDbSymbolTableRecord
100
AcDbBlockTableRecord
  2
_D_1
340
0
  0
BLOCK_RECORD
  5
1CD
330
1
100
AcDbSymbolTableRecord
100
AcDbBlockTableRecord
  2
_D_2
340
0
  0
BLOCK_RECORD
  5
1D7
330
1
100
AcDbSymbolTableRecord
100
AcDbBlockTableRecord
  2
_D_3
340
0
  0
BLOCK_RECORD
  5
28E
330
1
100
AcDbSymbolTableRecord
100
AcDbBlockTableRecord
  2
_D_4
340
0
  0
BLOCK_RECORD
  5
298
330
1
100
AcDbSymbolTableRecord
100
AcDbBlockTableRecord
  2
_D_5
340
0
  0
BLOCK_RECORD
  5
2A2
330
1
100
AcDbSymbolTableRecord
100
AcDbBlockTableRecord
  2
_D_6
340
0
  0
BLOCK_RECORD
  5
2AE
330
1
100
AcDbSymbolTableRecord
100
AcDbBlockTableRecord
  2
_D_7
340
0
  0
BLOCK_RECORD
  5
2B9
330
1
100
AcDbSymbolTableRecord
100
AcDbBlockTableRecord
  2
_D_8
340
0
  0
BLOCK_RECORD
  5
2C5
330
1
100
AcDbSymbolTableRecord
100
AcDbBlockTableRecord
  2
_D_9
340
0
  0
BLOCK_RECORD
  5
2D1
330
1
100
AcDbSymbolTableRecord
100
AcDbBlockTableRecord
  2
_D_10
340
0
  0
BLOCK_RECORD
  5
2DD
330
1
100
AcDbSymbolTableRecord
100
AcDbBlockTableRecord
  2
_D_11
340
0
  0
BLOCK_RECORD
  5
2E9
330
1
100
AcDbSymbolTableRecord
100
AcDbBlockTableRecord
  2
_D_12
340
0
  0
BLOCK_RECORD
  5
2F5
330
1
100
AcDbSymbolTableRecord
100
AcDbBlockTableRecord
  2
_D_13
340
0
  0
BLOCK_RECORD
  5
2FF
330
1
100
AcDbSymbolTableRecord
100
AcDbBlockTableRecord
  2
_D_14
340
0
  0
BLOCK_RECORD
  5
309
330
1
100
AcDbSymbolTableRecord
100
AcDbBlockTableRecord
  2
_D_15
340
0
  0
BLOCK_RECORD
  5
313
330
1
100
AcDbSymbolTableRecord
100
AcDbBlockTableRecord
  2
_D_16
340
0
  0
BLOCK_RECORD
  5
31D
330
1
100
AcDbSymbolTableRecord
100
AcDbBlockTableRecord
  2
_D_17
340
0
  0
BLOCK_RECORD
  5
327
330
1
100
AcDbSymbolTableRecord
100
AcDbBlockTableRecord
  2
_D_18
340
0
  0
BLOCK_RECORD
  5
332
330
1
100
AcDbSymbolTableRecord
100
AcDbBlockTableRecord
  2
SW_NOTE_0_5
340
0
102
{BLKREFS
331
337
102
}
  0
BLOCK_RECORD
  5
33B
330
1
100
AcDbSymbolTableRecord
100
AcDbBlockTableRecord
  2
SW_CENTERMARKSYMBOL_0
340
0
102
{BLKREFS
331
346
102
}
  0
BLOCK_RECORD
  5
347
330
1
100
AcDbSymbolTableRecord
100
AcDbBlockTableRecord
  2
SW_CENTERMARKSYMBOL_1
340
0
102
{BLKREFS
331
352
102
}
  0
BLOCK_RECORD
  5
353
330
1
100
AcDbSymbolTableRecord
100
AcDbBlockTableRecord
  2
SW_CENTERMARKSYMBOL_2
340
0
102
{BLKREFS
331
35E
102
}
  0
BLOCK_RECORD
  5
35F
330
1
100
AcDbSymbolTableRecord
100
AcDbBlockTableRecord
  2
SW_CENTERMARKSYMBOL_3
340
0
102
{BLKREFS
331
36A
102
}
  0
BLOCK_RECORD
  5
36B
330
1
100
AcDbSymbolTableRecord
100
AcDbBlockTableRecord
  2
SW_CENTERMARKSYMBOL_4
340
0
102
{BLKREFS
331
376
102
}
  0
BLOCK_RECORD
  5
377
330
1
100
AcDbSymbolTableRecord
100
AcDbBlockTableRecord
  2
SW_CENTERMARKSYMBOL_5
340
0
102
{BLKREFS
331
382
102
}
  0
BLOCK_RECORD
  5
383
330
1
100
AcDbSymbolTableRecord
100
AcDbBlockTableRecord
  2
SW_CENTERMARKSYMBOL_6
340
0
102
{BLKREFS
331
38E
102
}
  0
BLOCK_RECORD
  5
38F
330
1
100
AcDbSymbolTableRecord
100
AcDbBlockTableRecord
  2
SW_CENTERMARKSYMBOL_7
340
0
102
{BLKREFS
331
39A
102
}
  0
BLOCK_RECORD
  5
39B
330
1
100
AcDbSymbolTableRecord
100
AcDbBlockTableRecord
  2
SW_CENTERMARKSYMBOL_8
340
0
102
{BLKREFS
331
3A6
102
}
  0
BLOCK_RECORD
  5
3A7
330
1
100
AcDbSymbolTableRecord
100
AcDbBlockTableRecord
  2
SW_CENTERMARKSYMBOL_9
340
0
102
{BLKREFS
331
3B2
102
}
  0
BLOCK_RECORD
  5
3B3
330
1
100
AcDbSymbolTableRecord
100
AcDbBlockTableRecord
  2
SW_CENTERMARKSYMBOL_10
340
0
102
{BLKREFS
331
3BE
102
}
  0
BLOCK_RECORD
  5
3BF
330
1
100
AcDbSymbolTableRecord
100
AcDbBlockTableRecord
  2
SW_CENTERMARKSYMBOL_11
340
0
102
{BLKREFS
331
3CA
102
}
  0
BLOCK_RECORD
  5
44E
330
1
100
AcDbSymbolTableRecord
100
AcDbBlockTableRecord
  2
_Dot
340
0
102
{BLKREFS
331
456
331
461
331
549
331
555
102
}
  0
BLOCK_RECORD
  5
453
330
1
100
AcDbSymbolTableRecord
100
AcDbBlockTableRecord
  2
_D_19
340
0
  0
BLOCK_RECORD
  5
45E
330
1
100
AcDbSymbolTableRecord
100
AcDbBlockTableRecord
  2
_D_20
340
0
  0
BLOCK_RECORD
  5
469
330
1
100
AcDbSymbolTableRecord
100
AcDbBlockTableRecord
  2
_D_21
340
0
  0
BLOCK_RECORD
  5
474
330
1
100
AcDbSymbolTableRecord
100
AcDbBlockTableRecord
  2
_D_22
340
0
  0
BLOCK_RECORD
  5
47D
330
1
100
AcDbSymbolTableRecord
100
AcDbBlockTableRecord
  2
_D_23
340
0
  0
BLOCK_RECORD
  5
487
330
1
100
AcDbSymbolTableRecord
100
AcDbBlockTableRecord
  2
_D_24
340
0
  0
BLOCK_RECORD
  5
528
330
1
100
AcDbSymbolTableRecord
100
AcDbBlockTableRecord
  2
_D_25
340
0
  0
BLOCK_RECORD
  5
536
330
1
100
AcDbSymbolTableRecord
100
AcDbBlockTableRecord
  2
_D_26
340
0
  0
BLOCK_RECORD
  5
545
330
1
100
AcDbSymbolTableRecord
100
AcDbBlockTableRecord
  2
_D_27
340
0
  0
BLOCK_RECORD
  5
552
330
1
100
AcDbSymbolTableRecord
100
AcDbBlockTableRecord
  2
_D_28
340
0
  0
BLOCK_RECORD
  5
55F
330
1
100
AcDbSymbolTableRecord
100
AcDbBlockTableRecord
  2
_D_29
340
0
  0
BLOCK_RECORD
  5
56C
330
1
100
AcDbSymbolTableRecord
100
AcDbBlockTableRecord
  2
_D_30
340
0
  0
BLOCK_RECORD
  5
578
330
1
100
AcDbSymbolTableRecord
100
AcDbBlockTableRecord
  2
_D_31
340
0
  0
BLOCK_RECORD
  5
5A4
330
1
100
AcDbSymbolTableRecord
100
AcDbBlockTableRecord
  2
_D_32
340
0
  0
BLOCK_RECORD
  5
5B1
330
1
100
AcDbSymbolTableRecord
100
AcDbBlockTableRecord
  2
_D_33
340
0
  0
BLOCK_RECORD
  5
5BB
330
1
100
AcDbSymbolTableRecord
100
AcDbBlockTableRecord
  2
SW_CENTERMARKSYMBOL_12
340
0
102
{BLKREFS
331
5C6
102
}
  0
BLOCK_RECORD
  5
5C7
330
1
100
AcDbSymbolTableRecord
100
AcDbBlockTableRecord
  2
SW_CENTERMARKSYMBOL_13
340
0
102
{BLKREFS
331
5D2
102
}
  0
ENDTAB
  0
ENDSEC
  0
SECTION
  2
BLOCKS
  0
BLOCK
  5
20
330
1F
100
AcDbEntity
  8
0
100
AcDbBlockBegin
  2
*Model_Space
 70
     0
 10
0.0
 20
0.0
 30
0.0
  3
*Model_Space
  1

  0
ENDBLK
  5
21
330
1F
100
AcDbEntity
  8
0
100
AcDbBlockEnd
  0
BLOCK
  5
1C
330
1B
100
AcDbEntity
 67
     1
  8
0
100
AcDbBlockBegin
  2
*Paper_Space
 70
     0
 10
0.0
 20
0.0
 30
0.0
  3
*Paper_Space
  1

  0
ENDBLK
  5
1D
330
1B
100
AcDbEntity
 67
     1
  8
0
100
AcDbBlockEnd
  0
BLOCK
  5
24
330
23
100
AcDbEntity
  8
0
100
AcDbBlockBegin
  2
*Paper_Space0
 70
     0
 10
0.0
 20
0.0
 30
0.0
  3
*Paper_Space0
  1

  0
ENDBLK
  5
25
330
23
100
AcDbEntity
  8
0
100
AcDbBlockEnd
  0
BLOCK
  5
7B
330
7A
100
AcDbEntity
  8
0
100
AcDbBlockBegin
  2
Block1_3_1
 70
     0
 10
0.0
 20
0.0
 30
0.0
  3
Block1_3_1
  1

  0
CIRCLE
  5
7D
330
7A
100
AcDbEntity
  8
0
  6
Continuous
 62
     7
370
    18
100
AcDbCircle
 10
81.2962813747
 20
63.6276108944
 30
0.0
 40
8.79136307741128
  0
CIRCLE
  5
7E
330
7A
100
AcDbEntity
  8
0
  6
Continuous
 62
     7
370
    18
100
AcDbCircle
 10
81.2962813747
 20
63.6276108944
 30
0.0
 40
15.51210404558959
  0
LINE
  5
7F
330
7A
100
AcDbEntity
  8
0
  6
CENTERX2
 62
     7
370
    18
100
AcDbLine
 10
81.2962813747
 20
63.6276108944
 30
0.0
 11
55.2841773291
 21
63.6276108944
 31
0.0
  0
LINE
  5
80
330
7A
100
AcDbEntity
  8
0
  6
Continuous
 62
     7
370
    18
100
AcDbLine
 10
57.1602751158
 20
48.1155068489
 30
0.0
 11
57.1602751158
 21
79.150109214
 31
0.0
  0
LINE
  5
81
330
7A
100
AcDbEntity
  8
0
  6
Continuous
 62
     7
370
    18
100
AcDbLine
 10
18.7580035265
 20
72.4189739719
 30
0.0
 11
18.7580035265
 21
54.836247817
 31
0.0
  0
LINE
  5
82
330
7A
100
AcDbEntity
  8
0
  6
Continuous
 62
     7
370
    18
100
AcDbLine
 10
18.7580035265
 20
54.836247817
 30
0.0
 11
57.1602751158
 21
48.1155068489
 31
0.0
  0
LINE
  5
83
330
7A
100
AcDbEntity
  8
0
  6
CENTERX2
 62
     7
370
    18
100
AcDbLine
 10
67.6602751158
 20
63.6276108944
 30
0.0
 11
8.2580035265
 21
63.6276108944
 31
0.0
  0
LINE
  5
84
330
7A
100
AcDbEntity
  8
0
  6
Continuous
 62
     7
370
    18
100
AcDbLine
 10
57.1602751158
 20
79.150109214
 30
0.0
 11
18.7580035265
 21
72.4189739719
 31
0.0
  0
LINE
  5
85
330
7A
100
AcDbEntity
  8
0
  6
CENTERX2
 62
     7
370
    18
100
AcDbLine
 10
81.2962813747
 20
63.6276108944
 30
0.0
 11
81.2962813747
 21
37.6155068489
 31
0.0
  0
LINE
  5
86
330
7A
100
AcDbEntity
  8
0
  6
CENTERX2
 62
     7
370
    18
100
AcDbLine
 10
81.2962813747
 20
63.6276108944
 30
0.0
 11
81.2962813747
 21
89.63971494
 31
0.0
  0
LINE
  5
87
330
7A
100
AcDbEntity
  8
0
  6
CENTERX2
 62
     7
370
    18
100
AcDbLine
 10
81.2962813747
 20
63.6276108944
 30
0.0
 11
107.3083854203
 21
63.6276108944
 31
0.0
  0
INSERT
  5
8E
330
7A
100
AcDbEntity
  8
0
  6
Continuous
 62
     7
370
     0
100
AcDbBlockReference
  2
SW_NOTE_0
 10
14.7222830224
 20
16.6281309378
 30
0.0
  0
ENDBLK
  5
7C
330
7A
100
AcDbEntity
  8
0
100
AcDbBlockEnd
  0
BLOCK
  5
89
330
88
100
AcDbEntity
  8
0
100
AcDbBlockBegin
  2
SW_NOTE_0
 70
     0
 10
0.0
 20
0.0
 30
0.0
  3
SW_NOTE_0
  1

  0
MTEXT
  5
8C
330
88
100
AcDbEntity
  8
0
  6
Continuous
 62
     0
370
     0
100
AcDbMText
 10
46.134375
 20
17.144600939
 30
0.0
 40
13.3
 41
0.0
 71
     2
 72
     1
  1
DIN 6  T1 - 
  7
SLDTEXTSTYLE0
 73
     1
 44
1.0
  0
MTEXT
  5
8D
330
88
100
AcDbEntity
  8
0
  6
Continuous
 62
     0
370
     0
100
AcDbMText
 10
46.5984838367
 20
0.0023782104
 30
0.0
 40
13.3
 41
0.0
 71
     2
 72
     1
  1
Proj.methode 1
  7
SLDTEXTSTYLE0
 73
     1
 44
1.0
  0
ENDBLK
  5
8A
330
88
100
AcDbEntity
  8
0
100
AcDbBlockEnd
  0
BLOCK
  5
90
330
8F
100
AcDbEntity
  8
0
100
AcDbBlockBegin
  2
Block2_3_1
 70
     0
 10
0.0
 20
0.0
 30
0.0
  3
Block2_3_1
  1

  0
ARC
  5
92
330
8F
100
AcDbEntity
  8
FORMAT
100
AcDbCircle
 10
1657.2474557671
 20
399.6934206979
 30
0.0
 40
26.25000000000006
100
AcDbArc
 50
93.8225537293
 51
266.1774462707
  0
ARC
  5
93
330
8F
100
AcDbEntity
  8
FORMAT
100
AcDbCircle
 10
1657.2474557671
 20
399.6934206979
 30
0.0
 40
21.0000000000001
100
AcDbArc
 50
94.7801918472
 51
265.2198081528
  0
ARC
  5
94
330
8F
100
AcDbEntity
  8
FORMAT
100
AcDbCircle
 10
1657.2474557671
 20
399.6934206979
 30
0.0
 40
26.25000000000006
100
AcDbArc
 50
273.8225537293
 51
86.1774462707
  0
ARC
  5
95
330
8F
100
AcDbEntity
  8
FORMAT
100
AcDbCircle
 10
1657.2474557671
 20
399.6934206979
 30
0.0
 40
21.0000000000001
100
AcDbArc
 50
274.7801918472
 51
85.2198081528
  0
ARC
  5
96
330
8F
100
AcDbEntity
  8
FORMAT
100
AcDbCircle
 10
1657.2474557671
 20
407.6242915053
 30
0.0
 40
6.022819479648172
100
AcDbArc
 50
304.8395134495
 51
73.1084194601
  0
ARC
  5
97
330
8F
100
AcDbEntity
  8
FORMAT
100
AcDbCircle
 10
1657.2474557671
 20
407.6242915053
 30
0.0
 40
9.81620102162464
100
AcDbArc
 50
313.8988153445
 51
79.7306010333
  0
ARC
  5
98
330
8F
100
AcDbEntity
  8
FORMAT
100
AcDbCircle
 10
1657.2474557671
 20
388.4857005791
 30
0.0
 40
3.440714680707612
100
AcDbArc
 50
300.5716370086
 51
0.0
  0
ARC
  5
99
330
8F
100
AcDbEntity
  8
FORMAT
100
AcDbCircle
 10
1657.2474557671
 20
407.6242915053
 30
0.0
 40
9.81620102162464
100
AcDbArc
 50
100.2693989667
 51
226.1011846555
  0
ARC
  5
9A
330
8F
100
AcDbEntity
  8
FORMAT
100
AcDbCircle
 10
1657.2474557671
 20
388.4857005791
 30
0.0
 40
6.806425489791309
100
AcDbArc
 50
180.0
 51
255.1013518888
  0
ARC
  5
9B
330
8F
100
AcDbEntity
  8
FORMAT
100
AcDbCircle
 10
1657.2474557671
 20
388.4857005791
 30
0.0
 40
6.806425489791309
100
AcDbArc
 50
284.8986481112
 51
0.0
  0
ARC
  5
9C
330
8F
100
AcDbEntity
  8
FORMAT
100
AcDbCircle
 10
1657.2474557671
 20
388.4857005791
 30
0.0
 40
3.440714680707612
100
AcDbArc
 50
180.0
 51
239.4283629914
  0
ARC
  5
9D
330
8F
100
AcDbEntity
  8
FORMAT
100
AcDbCircle
 10
1657.2474557671
 20
407.6242915053
 30
0.0
 40
6.022819479648172
100
AcDbArc
 50
106.8915805399
 51
235.1604865505
  0
LINE
  5
9E
330
8F
100
AcDbEntity
  8
FORMAT
100
AcDbLine
 10
1627.7186808898
 20
370.1646458206
 30
0.0
 11
1686.7762306444
 21
370.1646458206
 31
0.0
  0
LINE
  5
9F
330
8F
100
AcDbEntity
  8
FORMAT
100
AcDbLine
 10
1627.7186808898
 20
429.2221955752
 30
0.0
 11
1686.7762306444
 21
429.2221955752
 31
0.0
  0
LINE
  5
A0
330
8F
100
AcDbEntity
  8
FORMAT
100
AcDbLine
 10
1627.7186808898
 20
429.2221955752
 30
0.0
 11
1627.7186808898
 21
370.1646458206
 31
0.0
  0
LINE
  5
A1
330
8F
100
AcDbEntity
  8
FORMAT
100
AcDbLine
 10
1686.7762306444
 20
429.2221955752
 30
0.0
 11
1686.7762306444
 21
370.1646458206
 31
0.0
  0
LINE
  5
A2
330
8F
100
AcDbEntity
  8
FORMAT
100
AcDbLine
 10
1655.4974557671
 20
425.8850224053
 30
0.0
 11
1655.4974557671
 21
420.6203769983
 31
0.0
  0
LINE
  5
A3
330
8F
100
AcDbEntity
  8
FORMAT
100
AcDbLine
 10
1658.9974557671
 20
425.8850224053
 30
0.0
 11
1658.9974557671
 21
420.6203769983
 31
0.0
  0
LINE
  5
A4
330
8F
100
AcDbEntity
  8
FORMAT
100
AcDbLine
 10
1655.4974557671
 20
378.7664643974
 30
0.0
 11
1655.4974557671
 21
373.5018189904
 31
0.0
  0
LINE
  5
A5
330
8F
100
AcDbEntity
  8
FORMAT
100
AcDbLine
 10
1658.9974557671
 20
378.7664643974
 30
0.0
 11
1658.9974557671
 21
373.5018189904
 31
0.0
  0
LINE
  5
A6
330
8F
100
AcDbEntity
  8
FORMAT
100
AcDbLine
 10
1658.9974557671
 20
417.2832408527
 30
0.0
 11
1658.9974557671
 21
413.3872642177
 31
0.0
  0
LINE
  5
A7
330
8F
100
AcDbEntity
  8
FORMAT
100
AcDbLine
 10
1655.4974557671
 20
417.2832408527
 30
0.0
 11
1655.4974557671
 21
413.3872642177
 31
0.0
  0
LINE
  5
A8
330
8F
100
AcDbEntity
  8
FORMAT
100
AcDbLine
 10
1650.4410302773
 20
388.4857005791
 30
0.0
 11
1650.4410302773
 21
400.5510762146
 31
0.0
  0
LINE
  5
A9
330
8F
100
AcDbEntity
  8
FORMAT
100
AcDbLine
 10
1664.0538812569
 20
388.4857005791
 30
0.0
 11
1664.0538812569
 21
400.5510762146
 31
0.0
  0
LINE
  5
AA
330
8F
100
AcDbEntity
  8
FORMAT
100
AcDbLine
 10
1660.6881704478
 20
388.4857005791
 30
0.0
 11
1660.6881704478
 21
402.6810297309
 31
0.0
  0
LINE
  5
AB
330
8F
100
AcDbEntity
  8
FORMAT
100
AcDbLine
 10
1653.8067410864
 20
388.4857005791
 30
0.0
 11
1653.8067410864
 21
402.6810297309
 31
0.0
  0
LINE
  5
AC
330
8F
100
AcDbEntity
  8
FORMAT
100
AcDbLine
 10
1655.4974557671
 20
385.5232661892
 30
0.0
 11
1655.4974557671
 21
381.9080925071
 31
0.0
  0
LINE
  5
AD
330
8F
100
AcDbEntity
  8
FORMAT
100
AcDbLine
 10
1658.9974557671
 20
385.5232661892
 30
0.0
 11
1658.9974557671
 21
381.9080925071
 31
0.0
  0
HATCH
  5
AE
330
8F
100
AcDbEntity
  8
FORMAT
100
AcDbHatch
 10
0.0
 20
0.0
 30
0.0
210
0.0
220
0.0
230
1.0
  2
SOLID
 70
     1
 71
     0
 91
        5
 92
        0
 93
        4
 72
     1
 10
1686.776230644441
 20
429.2221955751519
 11
1686.776230644441
 21
370.1646458205502
 72
     1
 10
1686.776230644441
 20
370.1646458205502
 11
1627.718680889839
 21
370.1646458205502
 72
     1
 10
1627.718680889839
 20
370.1646458205502
 11
1627.718680889839
 21
429.2221955751519
 72
     1
 10
1627.718680889839
 20
429.2221955751519
 11
1686.776230644441
 21
429.2221955751519
 97
        0
 92
        0
 93
        4
 72
     2
 10
1657.24745576714
 20
399.693420697851
 40
21.00000000000007
 50
94.78019184719915
 51
265.2198081528017
 73
     0
 72
     1
 10
1655.49745576714
 20
420.6203769982786
 11
1655.49745576714
 21
425.8850224052687
 72
     2
 10
1657.24745576714
 20
399.693420697851
 40
26.25000000000005
 50
93.82255372927435
 51
266.1774462707265
 73
     1
 72
     1
 10
1655.49745576714
 20
373.5018189904334
 11
1655.49745576714
 21
378.7664643974235
 97
        0
 92
        0
 93
        8
 72
     1
 10
1664.053881256931
 20
388.4857005790521
 11
1664.053881256931
 21
400.5510762145541
 72
     2
 10
1657.24745576714
 20
407.6242915052733
 40
9.816201021624591
 50
313.8988153445118
 51
439.730601033339
 73
     1
 72
     1
 10
1658.99745576714
 20
417.2832408527408
 11
1658.99745576714
 21
413.3872642177221
 72
     2
 10
1657.24745576714
 20
407.6242915052733
 40
6.022819479648148
 50
286.8915805399267
 51
415.1604865505418
 73
     0
 72
     1
 10
1660.688170447847
 20
402.6810297308583
 11
1660.688170447847
 21
388.4857005790521
 72
     2
 10
1657.24745576714
 20
388.4857005790521
 40
3.440714680707529
 50
0.0
 51
59.42836299135161
 73
     0
 72
     1
 10
1658.99745576714
 20
385.523266189224
 11
1658.99745576714
 21
381.9080925071099
 72
     2
 10
1657.24745576714
 20
388.4857005790521
 40
6.806425489791268
 50
284.8986481111874
 51
360.0000000000008
 73
     1
 97
        0
 92
        0
 93
        8
 72
     2
 10
1657.24745576714
 20
388.4857005790521
 40
3.440714680707529
 50
120.5716370086479
 51
180.0
 73
     0
 72
     1
 10
1653.806741086432
 20
388.4857005790521
 11
1653.806741086432
 21
402.6810297308583
 72
     2
 10
1657.24745576714
 20
407.6242915052733
 40
6.022819479648148
 50
124.839513449459
 51
253.1084194600749
 73
     0
 72
     1
 10
1655.49745576714
 20
413.3872642177221
 11
1655.49745576714
 21
417.2832408527408
 72
     2
 10
1657.24745576714
 20
407.6242915052733
 40
9.816201021624591
 50
100.2693989666618
 51
226.1011846554899
 73
     1
 72
     1
 10
1650.441030277349
 20
400.5510762145541
 11
1650.441030277349
 21
388.4857005790521
 72
     2
 10
1657.24745576714
 20
388.4857005790521
 40
6.806425489791268
 50
180.0
 51
255.1013518888142
 73
     1
 72
     1
 10
1655.49745576714
 20
381.9080925071099
 11
1655.49745576714
 21
385.5232661892239
 97
        0
 92
        0
 93
        4
 72
     2
 10
1657.24745576714
 20
399.693420697851
 40
21.00000000000007
 50
274.7801918471999
 51
445.2198081528016
 73
     0
 72
     1
 10
1658.99745576714
 20
378.7664643974235
 11
1658.99745576714
 21
373.5018189904334
 72
     2
 10
1657.24745576714
 20
399.693420697851
 40
26.25000000000005
 50
273.8225537292751
 51
446.1774462707265
 73
     1
 72
     1
 10
1658.99745576714
 20
425.8850224052687
 11
1658.99745576714
 21
420.6203769982786
 97
        0
 75
     0
 76
     1
 98
        1
 10
0.0
 20
0.0
  0
INSERT
  5
B4
330
8F
100
AcDbEntity
  8
FORMAT
 62
     7
100
AcDbBlockReference
  2
SW_NOTE_0_1
 10
1625.7602656139
 20
334.0630571774
 30
0.0
  0
INSERT
  5
BC
330
8F
100
AcDbEntity
  8
0
  6
Continuous
 62
     7
370
     0
100
AcDbBlockReference
  2
SW_NOTE_0_2
 10
1708.506124485
 20
399.8232127904
 30
0.0
  0
ENDBLK
  5
91
330
8F
100
AcDbEntity
  8
0
100
AcDbBlockEnd
  0
BLOCK
  5
B0
330
AF
100
AcDbEntity
  8
0
100
AcDbBlockBegin
  2
SW_NOTE_0_1
 70
     0
 10
0.0
 20
0.0
 30
0.0
  3
SW_NOTE_0_1
  1

  0
MTEXT
  5
B3
330
AF
100
AcDbEntity
  8
FORMAT
 62
     0
100
AcDbMText
 10
0.0
 20
27.0563380282
 30
0.0
 40
21.0
 41
0.0
 71
     1
 72
     1
  1
ECO
  7
SLDTEXTSTYLE1
 73
     1
 44
1.0
  0
ENDBLK
  5
B1
330
AF
100
AcDbEntity
  8
0
100
AcDbBlockEnd
  0
BLOCK
  5
B6
330
B5
100
AcDbEntity
  8
0
100
AcDbBlockBegin
  2
SW_NOTE_0_2
 70
     0
 10
0.0
 20
0.0
 30
0.0
  3
SW_NOTE_0_2
  1

  0
MTEXT
  5
B9
330
B5
100
AcDbEntity
  8
0
  6
Continuous
 62
     0
370
     0
100
AcDbMText
 10
0.0
 20
22.558685446
 30
0.0
 40
17.5
 41
0.0
 71
     1
 72
     1
  1
ECO Schulte GmbH & Co. KG
  7
SLDTEXTSTYLE2
 73
     1
 44
1.0
  0
MTEXT
  5
BA
330
B5
100
AcDbEntity
  8
0
  6
Continuous
 62
     0
370
     0
100
AcDbMText
 10
0.0
 20
-1.9413153102
 30
0.0
 40
17.5
 41
0.0
 71
     1
 72
     1
  1
Postfach 206
  7
SLDTEXTSTYLE2
 73
     1
 44
1.0
  0
MTEXT
  5
BB
330
B5
100
AcDbEntity
  8
0
  6
Continuous
 62
     0
370
     0
100
AcDbMText
 10
0.0
 20
-26.4413160665
 30
0.0
 40
17.5
 41
0.0
 71
     1
 72
     1
  1
58682 Menden
  7
SLDTEXTSTYLE2
 73
     1
 44
1.0
  0
ENDBLK
  5
B7
330
B5
100
AcDbEntity
  8
0
100
AcDbBlockEnd
  0
BLOCK
  5
BE
330
BD
100
AcDbEntity
  8
0
100
AcDbBlockBegin
  2
rechtlicher_Hinweis_Katalogzeichnungen_1
 70
     0
 10
0.0
 20
0.0
 30
0.0
  3
rechtlicher_Hinweis_Katalogzeichnungen_1
  1

  0
INSERT
  5
C9
330
BD
100
AcDbEntity
  8
0
  6
Continuous
 62
     7
370
     0
100
AcDbBlockReference
  2
SW_NOTE_0_3
 10
2.1768074632
 20
401.5030406501
 30
0.0
  0
ENDBLK
  5
BF
330
BD
100
AcDbEntity
  8
0
100
AcDbBlockEnd
  0
BLOCK
  5
C1
330
C0
100
AcDbEntity
  8
0
100
AcDbBlockBegin
  2
SW_NOTE_0_3
 70
     0
 10
0.0
 20
0.0
 30
0.0
  3
SW_NOTE_0_3
  1

  0
MTEXT
  5
C3
330
C0
100
AcDbEntity
  8
0
  6
Continuous
 62
     0
370
     0
100
AcDbMText
 10
0.0
 20
45.117370892
 30
0.0
 40
35.0
 41
0.0
 71
     1
 72
     1
  1
Technische Änderungen und Irrtümer vorbehalten. Aus dem Gebrauch der Zeichnung können keinerlei Ansprüche (inkl. 
  7
SLDTEXTSTYLE0
 73
     1
 44
1.0
  0
MTEXT
  5
C4
330
C0
100
AcDbEntity
  8
0
  6
Continuous
 62
     0
370
     0
100
AcDbMText
 10
0.0
 20
-3.8826306204
 30
0.0
 40
35.0
 41
0.0
 71
     1
 72
     1
  1
Schadenersatzansprüche) erhoben und gegen ECO Schulte geltend gemacht werden. Die Zeichnung bleibt unser 
  7
SLDTEXTSTYLE0
 73
     1
 44
1.0
  0
MTEXT
  5
C5
330
C0
100
AcDbEntity
  8
0
  6
Continuous
 62
     0
370
     0
100
AcDbMText
 10
0.0
 20
-52.8826321329
 30
0.0
 40
35.0
 41
0.0
 71
     1
 72
     1
  1
Eigentum. Sämtliche sich aus der Zeichnung ergebenden Ansprüche stehen ausschließlich ECO Schulte zu.
  7
SLDTEXTSTYLE0
 73
     1
 44
1.0
  0
MTEXT
  5
C6
330
C0
100
AcDbEntity
  8
0
  6
Continuous
 62
     0
370
     0
100
AcDbMText
 10
0.0
 20
-150.8826351579
 30
0.0
 40
35.0
 41
0.0
 71
     1
 72
     1
  1
Technical changes and errors excepted. No claims (including compensation claims) may be raised against ECO Schulte by 
  7
SLDTEXTSTYLE0
 73
     1
 44
1.0
  0
MTEXT
  5
C7
330
C0
100
AcDbEntity
  8
0
  6
Continuous
 62
     0
370
     0
100
AcDbMText
 10
0.0
 20
-199.8826366703
 30
0.0
 40
35.0
 41
0.0
 71
     1
 72
     1
  1
using of this drawing. The drawing remains the property of ECO Schulte. All claims resulting from this drawing are solely 
  7
SLDTEXTSTYLE0
 73
     1
 44
1.0
  0
MTEXT
  5
C8
330
C0
100
AcDbEntity
  8
0
  6
Continuous
 62
     0
370
     0
100
AcDbMText
 10
0.0
 20
-248.8826381828
 30
0.0
 40
35.0
 41
0.0
 71
     1
 72
     1
  1
entitled to ECO Schulte.
  7
SLDTEXTSTYLE0
 73
     1
 44
1.0
  0
ENDBLK
  5
C2
330
C0
100
AcDbEntity
  8
0
100
AcDbBlockEnd
  0
BLOCK
  5
DE
330
DD
100
AcDbEntity
  8
0
100
AcDbBlockBegin
  2
SW_NOTE_0_4
 70
     0
 10
0.0
 20
0.0
 30
0.0
  3
SW_NOTE_0_4
  1

  0
MTEXT
  5
E0
330
DD
100
AcDbEntity
  8
FORMAT
 62
     0
100
AcDbMText
 10
0.0
 20
23.8746087637
 30
0.0
 40
18.5208333333
 41
0.0
 71
     1
 72
     1
  1
\LBefestigungsmittel:
  7
SLDTEXTSTYLE0
 73
     1
 44
1.0
  0
MTEXT
  5
E1
330
DD
100
AcDbEntity
  8
FORMAT
 62
     0
100
AcDbMText
 10
0.0
 20
-9.7180977825
 30
0.0
 40
18.5208333333
 41
0.0
 71
     1
 72
     1
  1
1. Montageplatte: Stahl/Alu-Tür: 6x M6 (Einnietmutter M6) ; Holztür: 6x Senkschraube ø6x60
  7
SLDTEXTSTYLE0
 73
     1
 44
1.0
  0
MTEXT
  5
E2
330
DD
100
AcDbEntity
  8
FORMAT
 62
     0
100
AcDbMText
 10
0.0
 20
-41.4125430759
 30
0.0
 40
18.5208333333
 41
0.0
 71
     1
 72
     1
  1
2. Gleitschiene: Stahl/Alu-Tür: 2x M6 (Einnietmutter M6) ; Holztür: 2x Senkschraube ø4x30
  7
SLDTEXTSTYLE0
 73
     1
 44
1.0
  0
ENDBLK
  5
DF
330
DD
100
AcDbEntity
  8
0
100
AcDbBlockEnd
  0
BLOCK
  5
F6
330
F5
100
AcDbEntity
  8
0
100
AcDbBlockBegin
  2
SW_TABLEANNOTATION_0
 70
     0
 10
0.0
 20
0.0
 30
0.0
  3
SW_TABLEANNOTATION_0
  1

  0
LINE
  5
F8
330
F5
100
AcDbEntity
  8
FORMAT
 62
     0
100
AcDbLine
 10
0.0
 20
0.0
 30
0.0
 11
0.0
 21
-38.645834446
 31
0.0
  0
LINE
  5
F9
330
F5
100
AcDbEntity
  8
FORMAT
 62
     0
100
AcDbLine
 10
259.6658300718
 20
0.0
 30
0.0
 11
259.6658300718
 21
-38.645834446
 31
0.0
  0
LINE
  5
FA
330
F5
100
AcDbEntity
  8
FORMAT
 62
     0
100
AcDbLine
 10
0.0
 20
-38.645834446
 30
0.0
 11
0.0
 21
-77.2916688919
 31
0.0
  0
LINE
  5
FB
330
F5
100
AcDbEntity
  8
FORMAT
 62
     0
100
AcDbLine
 10
259.6658300718
 20
-38.645834446
 30
0.0
 11
259.6658300718
 21
-77.2916688919
 31
0.0
  0
LINE
  5
FC
330
F5
100
AcDbEntity
  8
FORMAT
 62
     0
100
AcDbLine
 10
0.0
 20
-77.2916688919
 30
0.0
 11
0.0
 21
-115.9375033379
 31
0.0
  0
LINE
  5
FD
330
F5
100
AcDbEntity
  8
FORMAT
 62
     0
100
AcDbLine
 10
259.6658300718
 20
-77.2916688919
 30
0.0
 11
259.6658300718
 21
-115.9375033379
 31
0.0
  0
LINE
  5
FE
330
F5
100
AcDbEntity
  8
FORMAT
 62
     0
100
AcDbLine
 10
471.1385412776
 20
0.0
 30
0.0
 11
471.1385412776
 21
-38.645834446
 31
0.0
  0
LINE
  5
FF
330
F5
100
AcDbEntity
  8
FORMAT
 62
     0
100
AcDbLine
 10
471.1385412776
 20
-38.645834446
 30
0.0
 11
471.1385412776
 21
-77.2916688919
 31
0.0
  0
LINE
  5
100
330
F5
100
AcDbEntity
  8
FORMAT
 62
     0
100
AcDbLine
 10
471.1385412776
 20
-77.2916688919
 30
0.0
 11
471.1385412776
 21
-115.9375033379
 31
0.0
  0
LINE
  5
101
330
F5
100
AcDbEntity
  8
FORMAT
 62
     0
100
AcDbLine
 10
0.0
 20
0.0
 30
0.0
 11
259.6658300718
 21
0.0
 31
0.0
  0
LINE
  5
102
330
F5
100
AcDbEntity
  8
FORMAT
 62
     0
100
AcDbLine
 10
0.0
 20
-38.645834446
 30
0.0
 11
259.6658300718
 21
-38.645834446
 31
0.0
  0
LINE
  5
103
330
F5
100
AcDbEntity
  8
FORMAT
 62
     0
100
AcDbLine
 10
259.6658300718
 20
0.0
 30
0.0
 11
471.1385412776
 21
0.0
 31
0.0
  0
LINE
  5
104
330
F5
100
AcDbEntity
  8
FORMAT
 62
     0
100
AcDbLine
 10
259.6658300718
 20
-38.645834446
 30
0.0
 11
471.1385412776
 21
-38.645834446
 31
0.0
  0
LINE
  5
105
330
F5
100
AcDbEntity
  8
FORMAT
 62
     0
100
AcDbLine
 10
0.0
 20
-77.2916688919
 30
0.0
 11
259.6658300718
 21
-77.2916688919
 31
0.0
  0
LINE
  5
106
330
F5
100
AcDbEntity
  8
FORMAT
 62
     0
100
AcDbLine
 10
259.6658300718
 20
-77.2916688919
 30
0.0
 11
471.1385412776
 21
-77.2916688919
 31
0.0
  0
LINE
  5
107
330
F5
100
AcDbEntity
  8
FORMAT
 62
     0
100
AcDbLine
 10
0.0
 20
-115.9375033379
 30
0.0
 11
259.6658300718
 21
-115.9375033379
 31
0.0
  0
LINE
  5
108
330
F5
100
AcDbEntity
  8
FORMAT
 62
     0
100
AcDbLine
 10
259.6658300718
 20
-115.9375033379
 30
0.0
 11
471.1385412776
 21
-115.9375033379
 31
0.0
  0
MTEXT
  5
109
330
F5
100
AcDbEntity
  8
FORMAT
 62
     0
100
AcDbMText
 10
7.3839603047
 20
-6.7004728098
 30
0.0
 40
24.5
 41
0.0
 71
     1
 72
     1
  1
Sturztiefe (mm)
  7
SLDTEXTSTYLE0
 73
     1
 44
1.0
  0
MTEXT
  5
10A
330
F5
100
AcDbEntity
  8
FORMAT
 62
     0
100
AcDbMText
 10
307.4698879755
 20
-6.7004728098
 30
0.0
 40
24.5
 41
0.0
 71
     1
 72
     1
  1
D (mm)
  7
SLDTEXTSTYLE0
 73
     1
 44
1.0
  0
MTEXT
  5
10B
330
F5
100
AcDbEntity
  8
FORMAT
 62
     0
100
AcDbMText
 10
53.5766650046
 20
-45.3463072558
 30
0.0
 40
24.5
 41
0.0
 71
     1
 72
     1
  1
-30 ... +10
  7
SLDTEXTSTYLE0
 73
     1
 44
1.0
  0
MTEXT
  5
10C
330
F5
100
AcDbEntity
  8
FORMAT
 62
     0
100
AcDbMText
 10
346.6869083605
 20
-45.3463072558
 30
0.0
 40
24.5
 41
0.0
 71
     1
 72
     1
  1
89
  7
SLDTEXTSTYLE0
 73
     1
 44
1.0
  0
MTEXT
  5
10D
330
F5
100
AcDbEntity
  8
FORMAT
 62
     0
100
AcDbMText
 10
49.3402099291
 20
-83.9921417017
 30
0.0
 40
24.5
 41
0.0
 71
     1
 72
     1
  1
+11 ... +50
  7
SLDTEXTSTYLE0
 73
     1
 44
1.0
  0
MTEXT
  5
10E
330
F5
100
AcDbEntity
  8
FORMAT
 62
     0
100
AcDbMText
 10
346.6869083605
 20
-83.9921417017
 30
0.0
 40
24.5
 41
0.0
 71
     1
 72
     1
  1
79
  7
SLDTEXTSTYLE0
 73
     1
 44
1.0
  0
ENDBLK
  5
F7
330
F5
100
AcDbEntity
  8
0
100
AcDbBlockEnd
  0
BLOCK
  5
1B7
330
1B6
100
AcDbEntity
  8
0
100
AcDbBlockBegin
  2
_D
 70
     0
 10
0.0
 20
0.0
 30
0.0
  3
_D
  1

  0
SOLID
  5
1B9
330
1B6
100
AcDbEntity
  8
FORMAT
100
AcDbTrace
 10
586.329301326
 20
1465.8527249318
 30
0.0
 11
609.443301326
 21
1462.2967249318
 31
0.0
 12
609.443301326
 22
1469.4087249318
 32
0.0
 13
609.443301326
 23
1469.4087249318
 33
0.0
  0
SOLID
  5
1BA
330
1B6
100
AcDbEntity
  8
FORMAT
100
AcDbTrace
 10
1239.329301326
 20
1465.8527249318
 30
0.0
 11
1216.215301326
 21
1469.4087249318
 31
0.0
 12
1216.215301326
 22
1462.2967249318
 32
0.0
 13
1216.215301326
 23
1462.2967249318
 33
0.0
  0
LINE
  5
1BB
330
1B6
100
AcDbEntity
  8
FORMAT
100
AcDbLine
 10
586.329301326
 20
1586.2489515365
 30
0.0
 11
586.329301326
 21
1458.8527249318
 31
0.0
  0
LINE
  5
1BC
330
1B6
100
AcDbEntity
  8
FORMAT
100
AcDbLine
 10
1239.329301326
 20
1586.2489515365
 30
0.0
 11
1239.329301326
 21
1458.8527249318
 31
0.0
  0
LINE
  5
1BD
330
1B6
100
AcDbEntity
  8
FORMAT
100
AcDbLine
 10
586.329301326
 20
1465.8527249318
 30
0.0
 11
1239.329301326
 21
1465.8527249318
 31
0.0
  0
MTEXT
  5
1BE
330
1B6
100
AcDbEntity
  8
FORMAT
100
AcDbMText
 10
884.7563853547
 20
1497.434886186
 30
0.0
 40
24.5
 41
0.0
 71
     1
 72
     1
  1
653
  7
SLDTEXTSTYLE0
 73
     1
 44
1.0
  0
ENDBLK
  5
1B8
330
1B6
100
AcDbEntity
  8
0
100
AcDbBlockEnd
  0
BLOCK
  5
1C2
330
1C1
100
AcDbEntity
  8
0
100
AcDbBlockBegin
  2
_D_1
 70
     0
 10
0.0
 20
0.0
 30
0.0
  3
_D_1
  1

  0
SOLID
  5
1C4
330
1C1
100
AcDbEntity
  8
FORMAT
100
AcDbTrace
 10
1294.6408050405
 20
1592.7489515365
 30
0.0
 11
1291.0848050405
 21
1569.6349515365
 31
0.0
 12
1298.1968050405
 22
1569.6349515365
 32
0.0
 13
1298.1968050405
 23
1569.6349515365
 33
0.0
  0
SOLID
  5
1C5
330
1C1
100
AcDbEntity
  8
FORMAT
100
AcDbTrace
 10
1294.6408050405
 20
1609.7489515365
 30
0.0
 11
1298.1968050405
 21
1632.8629515365
 31
0.0
 12
1291.0848050405
 22
1632.8629515365
 32
0.0
 13
1291.0848050405
 23
1632.8629515365
 33
0.0
  0
LINE
  5
1C6
330
1C1
100
AcDbEntity
  8
FORMAT
100
AcDbLine
 10
1245.829301326
 20
1592.7489515365
 30
0.0
 11
1301.6408050405
 21
1592.7489515365
 31
0.0
  0
LINE
  5
1C7
330
1C1
100
AcDbEntity
  8
FORMAT
100
AcDbLine
 10
1245.829301326
 20
1609.7489515365
 30
0.0
 11
1301.6408050405
 21
1609.7489515365
 31
0.0
  0
LINE
  5
1C8
330
1C1
100
AcDbEntity
  8
FORMAT
100
AcDbLine
 10
1294.6408050405
 20
1592.7489515365
 30
0.0
 11
1294.6408050405
 21
1512.5685925514
 31
0.0
  0
LINE
  5
1C9
330
1C1
100
AcDbEntity
  8
FORMAT
100
AcDbLine
 10
1294.6408050405
 20
1592.7489515365
 30
0.0
 11
1294.6408050405
 21
1609.7489515365
 31
0.0
  0
LINE
  5
1CA
330
1C1
100
AcDbEntity
  8
FORMAT
100
AcDbLine
 10
1294.6408050405
 20
1609.7489515365
 30
0.0
 11
1294.6408050405
 21
1654.1989515365
 31
0.0
  0
MTEXT
  5
1CB
330
1C1
100
AcDbEntity
  8
FORMAT
100
AcDbMText
 10
1263.0586437863
 20
1512.5685925514
 30
0.0
 40
24.5
 41
0.0
 71
     1
 72
     1
  1
17
  7
SLDTEXTSTYLE0
 11
-3.269436733918102E-15
 21
1.0
 31
0.0
 73
     1
 44
1.0
  0
ENDBLK
  5
1C3
330
1C1
100
AcDbEntity
  8
0
100
AcDbBlockEnd
  0
BLOCK
  5
1CE
330
1CD
100
AcDbEntity
  8
0
100
AcDbBlockBegin
  2
_D_2
 70
     0
 10
0.0
 20
0.0
 30
0.0
  3
_D_2
  1

  0
SOLID
  5
1D0
330
1CD
100
AcDbEntity
  8
FORMAT
100
AcDbTrace
 10
463.5004279447
 20
1624.7489515303
 30
0.0
 11
467.0564279447
 21
1647.8629515303
 31
0.0
 12
459.9444279447
 22
1647.8629515303
 32
0.0
 13
459.9444279447
 23
1647.8629515303
 33
0.0
  0
SOLID
  5
1D1
330
1CD
100
AcDbEntity
  8
FORMAT
100
AcDbTrace
 10
463.5004279447
 20
1719.7489515303
 30
0.0
 11
459.9444279447
 21
1696.6349515303
 31
0.0
 12
467.0564279447
 22
1696.6349515303
 32
0.0
 13
467.0564279447
 23
1696.6349515303
 33
0.0
  0
LINE
  5
1D2
330
1CD
100
AcDbEntity
  8
FORMAT
100
AcDbLine
 10
510.329291739
 20
1624.7489515303
 30
0.0
 11
456.5004279447
 21
1624.7489515303
 31
0.0
  0
LINE
  5
1D3
330
1CD
100
AcDbEntity
  8
FORMAT
100
AcDbLine
 10
510.329291739
 20
1719.7489515303
 30
0.0
 11
456.5004279447
 21
1719.7489515303
 31
0.0
  0
LINE
  5
1D4
330
1CD
100
AcDbEntity
  8
FORMAT
100
AcDbLine
 10
463.5004279447
 20
1624.7489515303
 30
0.0
 11
463.5004279447
 21
1719.7489515303
 31
0.0
  0
MTEXT
  5
1D5
330
1CD
100
AcDbEntity
  8
FORMAT
100
AcDbMText
 10
431.9182666905
 20
1653.5336742161
 30
0.0
 40
24.5
 41
0.0
 71
     1
 72
     1
  1
95
  7
SLDTEXTSTYLE0
 11
6.123233995736766E-17
 21
1.0
 31
0.0
 73
     1
 44
1.0
  0
ENDBLK
  5
1CF
330
1CD
100
AcDbEntity
  8
0
100
AcDbBlockEnd
  0
BLOCK
  5
1D8
330
1D7
100
AcDbEntity
  8
0
100
AcDbBlockBegin
  2
_D_3
 70
     0
 10
0.0
 20
0.0
 30
0.0
  3
_D_3
  1

  0
SOLID
  5
1DA
330
1D7
100
AcDbEntity
  8
FORMAT
100
AcDbTrace
 10
507.829291739
 20
1759.233570481
 30
0.0
 11
530.943291739
 21
1755.677570481
 31
0.0
 12
530.943291739
 22
1762.789570481
 32
0.0
 13
530.943291739
 23
1762.789570481
 33
0.0
  0
SOLID
  5
1DB
330
1D7
100
AcDbEntity
  8
FORMAT
100
AcDbTrace
 10
1196.829291739
 20
1759.233570481
 30
0.0
 11
1173.715291739
 21
1762.789570481
 31
0.0
 12
1173.715291739
 22
1755.677570481
 32
0.0
 13
1173.715291739
 23
1755.677570481
 33
0.0
  0
LINE
  5
1DC
330
1D7
100
AcDbEntity
  8
FORMAT
100
AcDbLine
 10
507.829291739
 20
1721.7489515303
 30
0.0
 11
507.829291739
 21
1766.233570481
 31
0.0
  0
LINE
  5
1DD
330
1D7
100
AcDbEntity
  8
FORMAT
100
AcDbLine
 10
1196.829291739
 20
1721.7489515302
 30
0.0
 11
1196.829291739
 21
1766.233570481
 31
0.0
  0
LINE
  5
1DE
330
1D7
100
AcDbEntity
  8
FORMAT
100
AcDbLine
 10
507.829291739
 20
1759.233570481
 30
0.0
 11
1196.829291739
 21
1759.233570481
 31
0.0
  0
MTEXT
  5
1DF
330
1D7
100
AcDbEntity
  8
FORMAT
100
AcDbMText
 10
824.2563757677
 20
1790.8157317352
 30
0.0
 40
24.5
 41
0.0
 71
     1
 72
     1
  1
689
  7
SLDTEXTSTYLE0
 73
     1
 44
1.0
  0
ENDBLK
  5
1D9
330
1D7
100
AcDbEntity
  8
0
100
AcDbBlockEnd
  0
BLOCK
  5
28F
330
28E
100
AcDbEntity
  8
0
100
AcDbBlockBegin
  2
_D_4
 70
     0
 10
0.0
 20
0.0
 30
0.0
  3
_D_4
  1

  0
SOLID
  5
291
330
28E
100
AcDbEntity
  8
FORMAT
100
AcDbTrace
 10
596.329291739
 20
596.9386013339
 30
0.0
 11
619.443291739
 21
593.3826013339
 31
0.0
 12
619.443291739
 22
600.4946013339
 32
0.0
 13
619.443291739
 23
600.4946013339
 33
0.0
  0
SOLID
  5
292
330
28E
100
AcDbEntity
  8
FORMAT
100
AcDbTrace
 10
1229.329291739
 20
596.9386013339
 30
0.0
 11
1206.215291739
 21
600.4946013339
 31
0.0
 12
1206.215291739
 22
593.3826013339
 32
0.0
 13
1206.215291739
 23
593.3826013339
 33
0.0
  0
LINE
  5
293
330
28E
100
AcDbEntity
  8
FORMAT
100
AcDbLine
 10
596.329291739
 20
721.2324564872
 30
0.0
 11
596.329291739
 21
589.9386013339
 31
0.0
  0
LINE
  5
294
330
28E
100
AcDbEntity
  8
FORMAT
100
AcDbLine
 10
1229.329291739
 20
721.2324564872
 30
0.0
 11
1229.329291739
 21
589.9386013339
 31
0.0
  0
LINE
  5
295
330
28E
100
AcDbEntity
  8
FORMAT
100
AcDbLine
 10
596.329291739
 20
596.9386013339
 30
0.0
 11
1229.329291739
 21
596.9386013339
 31
0.0
  0
MTEXT
  5
296
330
28E
100
AcDbEntity
  8
FORMAT
100
AcDbMText
 10
884.7563757677
 20
628.5207625881
 30
0.0
 40
24.5
 41
0.0
 71
     1
 72
     1
  1
633
  7
SLDTEXTSTYLE0
 73
     1
 44
1.0
  0
ENDBLK
  5
290
330
28E
100
AcDbEntity
  8
0
100
AcDbBlockEnd
  0
BLOCK
  5
299
330
298
100
AcDbEntity
  8
0
100
AcDbBlockBegin
  2
_D_5
 70
     0
 10
0.0
 20
0.0
 30
0.0
  3
_D_5
  1

  0
SOLID
  5
29B
330
298
100
AcDbEntity
  8
FORMAT
100
AcDbTrace
 10
1219.5961055755
 20
758.9824564868
 30
0.0
 11
1223.1521055755
 21
782.0964564868
 31
0.0
 12
1216.0401055755
 22
782.0964564868
 32
0.0
 13
1216.0401055755
 23
782.0964564868
 33
0.0
  0
SOLID
  5
29C
330
298
100
AcDbEntity
  8
FORMAT
100
AcDbTrace
 10
1219.5961055755
 20
849.9824564868
 30
0.0
 11
1216.0401055755
 21
826.8684564868
 31
0.0
 12
1223.1521055755
 22
826.8684564868
 32
0.0
 13
1223.1521055755
 23
826.8684564868
 33
0.0
  0
LINE
  5
29D
330
298
100
AcDbEntity
  8
FORMAT
100
AcDbLine
 10
1194.329291739
 20
758.9824564868
 30
0.0
 11
1226.5961055755
 21
758.9824564868
 31
0.0
  0
LINE
  5
29E
330
298
100
AcDbEntity
  8
FORMAT
100
AcDbLine
 10
1194.329291739
 20
849.9824564868
 30
0.0
 11
1226.5961055755
 21
849.9824564868
 31
0.0
  0
LINE
  5
29F
330
298
100
AcDbEntity
  8
FORMAT
100
AcDbLine
 10
1219.5961055755
 20
758.9824564868
 30
0.0
 11
1219.5961055755
 21
849.9824564868
 31
0.0
  0
MTEXT
  5
2A0
330
298
100
AcDbEntity
  8
FORMAT
100
AcDbMText
 10
1188.0139443213
 20
785.7671791726
 30
0.0
 40
24.5
 41
0.0
 71
     1
 72
     1
  1
91
  7
SLDTEXTSTYLE0
 11
6.123233995736766E-17
 21
1.0
 31
0.0
 73
     1
 44
1.0
  0
ENDBLK
  5
29A
330
298
100
AcDbEntity
  8
0
100
AcDbBlockEnd
  0
BLOCK
  5
2A3
330
2A2
100
AcDbEntity
  8
0
100
AcDbBlockBegin
  2
_D_6
 70
     0
 10
0.0
 20
0.0
 30
0.0
  3
_D_6
  1

  0
SOLID
  5
2A5
330
2A2
100
AcDbEntity
  8
FORMAT
100
AcDbTrace
 10
708.1952088083
 20
750.4824564872
 30
0.0
 11
704.6392088083
 21
727.3684564872
 31
0.0
 12
711.7512088083
 22
727.3684564872
 32
0.0
 13
711.7512088083
 23
727.3684564872
 33
0.0
  0
SOLID
  5
2A6
330
2A2
100
AcDbEntity
  8
FORMAT
100
AcDbTrace
 10
708.1952088083
 20
766.4824564868
 30
0.0
 11
711.7512088083
 21
789.5964564868
 31
0.0
 12
704.6392088083
 22
789.5964564868
 32
0.0
 13
704.6392088083
 23
789.5964564868
 33
0.0
  0
LINE
  5
2A7
330
2A2
100
AcDbEntity
  8
FORMAT
100
AcDbLine
 10
717.329291739
 20
766.4824564868
 30
0.0
 11
701.1952088083
 21
766.4824564868
 31
0.0
  0
LINE
  5
2A8
330
2A2
100
AcDbEntity
  8
FORMAT
100
AcDbLine
 10
708.1952088083
 20
750.4824564872
 30
0.0
 11
708.1952088083
 21
696.1300973683
 31
0.0
  0
LINE
  5
2A9
330
2A2
100
AcDbEntity
  8
FORMAT
100
AcDbLine
 10
708.1952088083
 20
750.4824564872
 30
0.0
 11
708.1952088083
 21
766.4824564868
 31
0.0
  0
LINE
  5
2AA
330
2A2
100
AcDbEntity
  8
FORMAT
100
AcDbLine
 10
708.1952088083
 20
766.4824564868
 30
0.0
 11
708.1952088083
 21
810.9324564868
 31
0.0
  0
MTEXT
  5
2AB
330
2A2
100
AcDbEntity
  8
FORMAT
100
AcDbMText
 10
676.613047554
 20
696.1300973683
 30
0.0
 40
24.5
 41
0.0
 71
     1
 72
     1
  1
16
  7
SLDTEXTSTYLE0
 11
6.123233995736766E-17
 21
1.0
 31
0.0
 73
     1
 44
1.0
  0
ENDBLK
  5
2A4
330
2A2
100
AcDbEntity
  8
0
100
AcDbBlockEnd
  0
BLOCK
  5
2AF
330
2AE
100
AcDbEntity
  8
0
100
AcDbBlockBegin
  2
_D_7
 70
     0
 10
0.0
 20
0.0
 30
0.0
  3
_D_7
  1

  0
SOLID
  5
2B1
330
2AE
100
AcDbEntity
  8
FORMAT
100
AcDbTrace
 10
1279.2482262229
 20
733.2324564872
 30
0.0
 11
1275.6922262229
 21
710.1184564872
 31
0.0
 12
1282.8042262229
 22
710.1184564872
 32
0.0
 13
1282.8042262229
 23
710.1184564872
 33
0.0
  0
SOLID
  5
2B2
330
2AE
100
AcDbEntity
  8
FORMAT
100
AcDbTrace
 10
1279.2482262229
 20
755.4824564872
 30
0.0
 11
1282.8042262229
 21
778.5964564872
 31
0.0
 12
1275.6922262229
 22
778.5964564872
 32
0.0
 13
1275.6922262229
 23
778.5964564872
 33
0.0
  0
LINE
  5
2B3
330
2AE
100
AcDbEntity
  8
FORMAT
100
AcDbLine
 10
1241.329291739
 20
733.2324564872
 30
0.0
 11
1286.2482262229
 21
733.2324564872
 31
0.0
  0
LINE
  5
2B4
330
2AE
100
AcDbEntity
  8
FORMAT
100
AcDbLine
 10
1279.2482262229
 20
733.2324564872
 30
0.0
 11
1279.2482262229
 21
637.2609264216
 31
0.0
  0
LINE
  5
2B5
330
2AE
100
AcDbEntity
  8
FORMAT
100
AcDbLine
 10
1279.2482262229
 20
733.2324564872
 30
0.0
 11
1279.2482262229
 21
755.4824564872
 31
0.0
  0
LINE
  5
2B6
330
2AE
100
AcDbEntity
  8
FORMAT
100
AcDbLine
 10
1279.2482262229
 20
755.4824564872
 30
0.0
 11
1279.2482262229
 21
799.9324564872
 31
0.0
  0
MTEXT
  5
2B7
330
2AE
100
AcDbEntity
  8
FORMAT
100
AcDbMText
 10
1247.6660649687
 20
637.2609264216
 30
0.0
 40
24.5
 41
0.0
 71
     1
 72
     1
  1
22
  7
SLDTEXTSTYLE0
 11
6.123233995736766E-17
 21
1.0
 31
0.0
 73
     1
 44
1.0
  0
ENDBLK
  5
2B0
330
2AE
100
AcDbEntity
  8
0
100
AcDbBlockEnd
  0
BLOCK
  5
2BA
330
2B9
100
AcDbEntity
  8
0
100
AcDbBlockBegin
  2
_D_8
 70
     0
 10
0.0
 20
0.0
 30
0.0
  3
_D_8
  1

  0
SOLID
  5
2BC
330
2B9
100
AcDbEntity
  8
FORMAT
100
AcDbTrace
 10
383.0662538894
 20
755.4824564872
 30
0.0
 11
379.5102538894
 21
732.3684564872
 31
0.0
 12
386.6222538894
 22
732.3684564872
 32
0.0
 13
386.6222538894
 23
732.3684564872
 33
0.0
  0
SOLID
  5
2BD
330
2B9
100
AcDbEntity
  8
FORMAT
100
AcDbTrace
 10
383.0662538894
 20
758.9824564868
 30
0.0
 11
386.6222538894
 21
782.0964564868
 31
0.0
 12
379.5102538894
 22
782.0964564868
 32
0.0
 13
379.5102538894
 23
782.0964564868
 33
0.0
  0
LINE
  5
2BE
330
2B9
100
AcDbEntity
  8
FORMAT
100
AcDbLine
 10
520.329291739
 20
755.4824564872
 30
0.0
 11
376.0662538894
 21
755.4824564872
 31
0.0
  0
LINE
  5
2BF
330
2B9
100
AcDbEntity
  8
FORMAT
100
AcDbLine
 10
510.329291739
 20
758.9824564868
 30
0.0
 11
376.0662538894
 21
758.9824564868
 31
0.0
  0
LINE
  5
2C0
330
2B9
100
AcDbEntity
  8
FORMAT
100
AcDbLine
 10
383.0662538894
 20
755.4824564872
 30
0.0
 11
383.0662538894
 21
694.7994260871
 31
0.0
  0
LINE
  5
2C1
330
2B9
100
AcDbEntity
  8
FORMAT
100
AcDbLine
 10
383.0662538894
 20
755.4824564872
 30
0.0
 11
383.0662538894
 21
758.9824564868
 31
0.0
  0
LINE
  5
2C2
330
2B9
100
AcDbEntity
  8
FORMAT
100
AcDbLine
 10
383.0662538894
 20
758.9824564868
 30
0.0
 11
383.0662538894
 21
803.4324564868
 31
0.0
  0
MTEXT
  5
2C3
330
2B9
100
AcDbEntity
  8
FORMAT
100
AcDbMText
 10
351.4840926352
 20
694.7994260871
 30
0.0
 40
24.5
 41
0.0
 71
     1
 72
     1
  1
4
  7
SLDTEXTSTYLE0
 11
6.123233995736766E-17
 21
1.0
 31
0.0
 73
     1
 44
1.0
  0
ENDBLK
  5
2BB
330
2B9
100
AcDbEntity
  8
0
100
AcDbBlockEnd
  0
BLOCK
  5
2C6
330
2C5
100
AcDbEntity
  8
0
100
AcDbBlockBegin
  2
_D_9
 70
     0
 10
0.0
 20
0.0
 30
0.0
  3
_D_9
  1

  0
SOLID
  5
2C8
330
2C5
100
AcDbEntity
  8
FORMAT
100
AcDbTrace
 10
341.5685840617
 20
758.9824564868
 30
0.0
 11
338.0125840617
 21
735.8684564868
 31
0.0
 12
345.1245840617
 22
735.8684564868
 32
0.0
 13
345.1245840617
 23
735.8684564868
 33
0.0
  0
SOLID
  5
2C9
330
2C5
100
AcDbEntity
  8
FORMAT
100
AcDbTrace
 10
341.5685840617
 20
793.4824564872
 30
0.0
 11
345.1245840617
 21
816.5964564872
 31
0.0
 12
338.0125840617
 22
816.5964564872
 32
0.0
 13
338.0125840617
 23
816.5964564872
 33
0.0
  0
LINE
  5
2CA
330
2C5
100
AcDbEntity
  8
FORMAT
100
AcDbLine
 10
510.329291739
 20
758.9824564868
 30
0.0
 11
334.5685840617
 21
758.9824564868
 31
0.0
  0
LINE
  5
2CB
330
2C5
100
AcDbEntity
  8
FORMAT
100
AcDbLine
 10
511.829291739
 20
793.4824564872
 30
0.0
 11
334.5685840617
 21
793.4824564872
 31
0.0
  0
LINE
  5
2CC
330
2C5
100
AcDbEntity
  8
FORMAT
100
AcDbLine
 10
341.5685840617
 20
758.9824564868
 30
0.0
 11
341.5685840617
 21
685.4417874301
 31
0.0
  0
LINE
  5
2CD
330
2C5
100
AcDbEntity
  8
FORMAT
100
AcDbLine
 10
341.5685840617
 20
758.9824564868
 30
0.0
 11
341.5685840617
 21
793.4824564872
 31
0.0
  0
LINE
  5
2CE
330
2C5
100
AcDbEntity
  8
FORMAT
100
AcDbLine
 10
341.5685840617
 20
793.4824564872
 30
0.0
 11
341.5685840617
 21
837.9324564872
 31
0.0
  0
MTEXT
  5
2CF
330
2C5
100
AcDbEntity
  8
FORMAT
100
AcDbMText
 10
309.9864228075
 20
685.4417874301
 30
0.0
 40
24.5
 41
0.0
 71
     1
 72
     1
  1
35
  7
SLDTEXTSTYLE0
 11
6.123233995736766E-17
 21
1.0
 31
0.0
 73
     1
 44
1.0
  0
ENDBLK
  5
2C7
330
2C5
100
AcDbEntity
  8
0
100
AcDbBlockEnd
  0
BLOCK
  5
2D2
330
2D1
100
AcDbEntity
  8
0
100
AcDbBlockBegin
  2
_D_10
 70
     0
 10
0.0
 20
0.0
 30
0.0
  3
_D_10
  1

  0
SOLID
  5
2D4
330
2D1
100
AcDbEntity
  8
FORMAT
100
AcDbTrace
 10
300.9499887584
 20
793.4824564872
 30
0.0
 11
297.3939887584
 21
770.3684564872
 31
0.0
 12
304.5059887584
 22
770.3684564872
 32
0.0
 13
304.5059887584
 23
770.3684564872
 33
0.0
  0
SOLID
  5
2D5
330
2D1
100
AcDbEntity
  8
FORMAT
100
AcDbTrace
 10
300.9499887584
 20
817.4824564872
 30
0.0
 11
304.5059887584
 21
840.5964564872
 31
0.0
 12
297.3939887584
 22
840.5964564872
 32
0.0
 13
297.3939887584
 23
840.5964564872
 33
0.0
  0
LINE
  5
2D6
330
2D1
100
AcDbEntity
  8
FORMAT
100
AcDbLine
 10
511.829291739
 20
793.4824564872
 30
0.0
 11
293.9499887584
 21
793.4824564872
 31
0.0
  0
LINE
  5
2D7
330
2D1
100
AcDbEntity
  8
FORMAT
100
AcDbLine
 10
511.829291739
 20
817.4824564872
 30
0.0
 11
293.9499887584
 21
817.4824564872
 31
0.0
  0
LINE
  5
2D8
330
2D1
100
AcDbEntity
  8
FORMAT
100
AcDbLine
 10
300.9499887584
 20
793.4824564872
 30
0.0
 11
300.9499887584
 21
685.44178743
 31
0.0
  0
LINE
  5
2D9
330
2D1
100
AcDbEntity
  8
FORMAT
100
AcDbLine
 10
300.9499887584
 20
793.4824564872
 30
0.0
 11
300.9499887584
 21
817.4824564872
 31
0.0
  0
LINE
  5
2DA
330
2D1
100
AcDbEntity
  8
FORMAT
100
AcDbLine
 10
300.9499887584
 20
817.4824564872
 30
0.0
 11
300.9499887584
 21
861.9324564872
 31
0.0
  0
MTEXT
  5
2DB
330
2D1
100
AcDbEntity
  8
FORMAT
100
AcDbMText
 10
269.3678275041
 20
685.44178743
 30
0.0
 40
24.5
 41
0.0
 71
     1
 72
     1
  1
24
  7
SLDTEXTSTYLE0
 11
6.123233995736766E-17
 21
1.0
 31
0.0
 73
     1
 44
1.0
  0
ENDBLK
  5
2D3
330
2D1
100
AcDbEntity
  8
0
100
AcDbBlockEnd
  0
BLOCK
  5
2DE
330
2DD
100
AcDbEntity
  8
0
100
AcDbBlockBegin
  2
_D_11
 70
     0
 10
0.0
 20
0.0
 30
0.0
  3
_D_11
  1

  0
SOLID
  5
2E0
330
2DD
100
AcDbEntity
  8
FORMAT
100
AcDbTrace
 10
507.329291739
 20
974.0268219177
 30
0.0
 11
484.215291739
 21
977.5828219177
 31
0.0
 12
484.215291739
 22
970.4708219177
 32
0.0
 13
484.215291739
 23
970.4708219177
 33
0.0
  0
SOLID
  5
2E1
330
2DD
100
AcDbEntity
  8
FORMAT
100
AcDbTrace
 10
517.329291739
 20
974.0268219177
 30
0.0
 11
540.443291739
 21
970.4708219177
 31
0.0
 12
540.443291739
 22
977.5828219177
 32
0.0
 13
540.443291739
 23
977.5828219177
 33
0.0
  0
LINE
  5
2E2
330
2DD
100
AcDbEntity
  8
FORMAT
100
AcDbLine
 10
507.329291739
 20
631.4824564872
 30
0.0
 11
507.329291739
 21
981.0268219177
 31
0.0
  0
LINE
  5
2E3
330
2DD
100
AcDbEntity
  8
FORMAT
100
AcDbLine
 10
517.329291739
 20
783.9824564868
 30
0.0
 11
517.329291739
 21
981.0268219177
 31
0.0
  0
LINE
  5
2E4
330
2DD
100
AcDbEntity
  8
FORMAT
100
AcDbLine
 10
507.329291739
 20
974.0268219177
 30
0.0
 11
448.0581631195
 21
974.0268219177
 31
0.0
  0
LINE
  5
2E5
330
2DD
100
AcDbEntity
  8
FORMAT
100
AcDbLine
 10
507.329291739
 20
974.0268219177
 30
0.0
 11
517.329291739
 21
974.0268219177
 31
0.0
  0
LINE
  5
2E6
330
2DD
100
AcDbEntity
  8
FORMAT
100
AcDbLine
 10
517.329291739
 20
974.0268219177
 30
0.0
 11
561.779291739
 21
974.0268219177
 31
0.0
  0
MTEXT
  5
2E7
330
2DD
100
AcDbEntity
  8
FORMAT
100
AcDbMText
 10
448.0581631195
 20
1005.608983172
 30
0.0
 40
24.5
 41
0.0
 71
     1
 72
     1
  1
10
  7
SLDTEXTSTYLE0
 73
     1
 44
1.0
  0
ENDBLK
  5
2DF
330
2DD
100
AcDbEntity
  8
0
100
AcDbBlockEnd
  0
BLOCK
  5
2EA
330
2E9
100
AcDbEntity
  8
0
100
AcDbBlockBegin
  2
_D_12
 70
     0
 10
0.0
 20
0.0
 30
0.0
  3
_D_12
  1

  0
SOLID
  5
2EC
330
2E9
100
AcDbEntity
  8
FORMAT
100
AcDbTrace
 10
507.329291739
 20
1013.1376741613
 30
0.0
 11
484.215291739
 21
1016.6936741613
 31
0.0
 12
484.215291739
 22
1009.5816741613
 32
0.0
 13
484.215291739
 23
1009.5816741613
 33
0.0
  0
SOLID
  5
2ED
330
2E9
100
AcDbEntity
  8
FORMAT
100
AcDbTrace
 10
531.329291739
 20
1013.1376741613
 30
0.0
 11
554.443291739
 21
1009.5816741613
 31
0.0
 12
554.443291739
 22
1016.6936741613
 32
0.0
 13
554.443291739
 23
1016.6936741613
 33
0.0
  0
LINE
  5
2EE
330
2E9
100
AcDbEntity
  8
FORMAT
100
AcDbLine
 10
507.329291739
 20
631.4824564872
 30
0.0
 11
507.329291739
 21
1020.1376741613
 31
0.0
  0
LINE
  5
2EF
330
2E9
100
AcDbEntity
  8
FORMAT
100
AcDbLine
 10
531.329291739
 20
812.9824564872
 30
0.0
 11
531.329291739
 21
1020.1376741613
 31
0.0
  0
LINE
  5
2F0
330
2E9
100
AcDbEntity
  8
FORMAT
100
AcDbLine
 10
507.329291739
 20
1013.1376741613
 30
0.0
 11
448.0581631196
 21
1013.1376741613
 31
0.0
  0
LINE
  5
2F1
330
2E9
100
AcDbEntity
  8
FORMAT
100
AcDbLine
 10
507.329291739
 20
1013.1376741613
 30
0.0
 11
531.329291739
 21
1013.1376741613
 31
0.0
  0
LINE
  5
2F2
330
2E9
100
AcDbEntity
  8
FORMAT
100
AcDbLine
 10
531.329291739
 20
1013.1376741613
 30
0.0
 11
575.779291739
 21
1013.1376741613
 31
0.0
  0
MTEXT
  5
2F3
330
2E9
100
AcDbEntity
  8
FORMAT
100
AcDbMText
 10
448.0581631196
 20
1044.7198354155
 30
0.0
 40
24.5
 41
0.0
 71
     1
 72
     1
  1
24
  7
SLDTEXTSTYLE0
 73
     1
 44
1.0
  0
ENDBLK
  5
2EB
330
2E9
100
AcDbEntity
  8
0
100
AcDbBlockEnd
  0
BLOCK
  5
2F6
330
2F5
100
AcDbEntity
  8
0
100
AcDbBlockBegin
  2
_D_13
 70
     0
 10
0.0
 20
0.0
 30
0.0
  3
_D_13
  1

  0
SOLID
  5
2F8
330
2F5
100
AcDbEntity
  8
FORMAT
100
AcDbTrace
 10
507.329291739
 20
1046.3062821295
 30
0.0
 11
530.443291739
 21
1042.7502821295
 31
0.0
 12
530.443291739
 22
1049.8622821295
 32
0.0
 13
530.443291739
 23
1049.8622821295
 33
0.0
  0
SOLID
  5
2F9
330
2F5
100
AcDbEntity
  8
FORMAT
100
AcDbTrace
 10
724.329291739
 20
1046.3062821295
 30
0.0
 11
701.215291739
 21
1049.8622821295
 31
0.0
 12
701.215291739
 22
1042.7502821295
 32
0.0
 13
701.215291739
 23
1042.7502821295
 33
0.0
  0
LINE
  5
2FA
330
2F5
100
AcDbEntity
  8
FORMAT
100
AcDbLine
 10
507.329291739
 20
631.4824564872
 30
0.0
 11
507.329291739
 21
1053.3062821295
 31
0.0
  0
LINE
  5
2FB
330
2F5
100
AcDbEntity
  8
FORMAT
100
AcDbLine
 10
724.329291739
 20
849.4824564868
 30
0.0
 11
724.329291739
 21
1053.3062821295
 31
0.0
  0
LINE
  5
2FC
330
2F5
100
AcDbEntity
  8
FORMAT
100
AcDbLine
 10
507.329291739
 20
1046.3062821295
 30
0.0
 11
724.329291739
 21
1046.3062821295
 31
0.0
  0
MTEXT
  5
2FD
330
2F5
100
AcDbEntity
  8
FORMAT
100
AcDbMText
 10
587.7563757677
 20
1077.8884433838
 30
0.0
 40
24.5
 41
0.0
 71
     1
 72
     1
  1
217
  7
SLDTEXTSTYLE0
 73
     1
 44
1.0
  0
ENDBLK
  5
2F7
330
2F5
100
AcDbEntity
  8
0
100
AcDbBlockEnd
  0
BLOCK
  5
300
330
2FF
100
AcDbEntity
  8
0
100
AcDbBlockBegin
  2
_D_14
 70
     0
 10
0.0
 20
0.0
 30
0.0
  3
_D_14
  1

  0
SOLID
  5
302
330
2FF
100
AcDbEntity
  8
FORMAT
100
AcDbTrace
 10
724.329291739
 20
1046.3062821295
 30
0.0
 11
747.443291739
 21
1042.7502821295
 31
0.0
 12
747.443291739
 22
1049.8622821295
 32
0.0
 13
747.443291739
 23
1049.8622821295
 33
0.0
  0
SOLID
  5
303
330
2FF
100
AcDbEntity
  8
FORMAT
100
AcDbTrace
 10
931.329291739
 20
1046.3062821295
 30
0.0
 11
908.215291739
 21
1049.8622821295
 31
0.0
 12
908.215291739
 22
1042.7502821295
 32
0.0
 13
908.215291739
 23
1042.7502821295
 33
0.0
  0
LINE
  5
304
330
2FF
100
AcDbEntity
  8
FORMAT
100
AcDbLine
 10
724.329291739
 20
849.4824564868
 30
0.0
 11
724.329291739
 21
1053.3062821295
 31
0.0
  0
LINE
  5
305
330
2FF
100
AcDbEntity
  8
FORMAT
100
AcDbLine
 10
931.329291739
 20
849.4824564868
 30
0.0
 11
931.329291739
 21
1053.3062821295
 31
0.0
  0
LINE
  5
306
330
2FF
100
AcDbEntity
  8
FORMAT
100
AcDbLine
 10
724.329291739
 20
1046.3062821295
 30
0.0
 11
931.329291739
 21
1046.3062821295
 31
0.0
  0
MTEXT
  5
307
330
2FF
100
AcDbEntity
  8
FORMAT
100
AcDbMText
 10
799.7563757677
 20
1077.8884433838
 30
0.0
 40
24.5
 41
0.0
 71
     1
 72
     1
  1
207
  7
SLDTEXTSTYLE0
 73
     1
 44
1.0
  0
ENDBLK
  5
301
330
2FF
100
AcDbEntity
  8
0
100
AcDbBlockEnd
  0
BLOCK
  5
30A
330
309
100
AcDbEntity
  8
0
100
AcDbBlockBegin
  2
_D_15
 70
     0
 10
0.0
 20
0.0
 30
0.0
  3
_D_15
  1

  0
SOLID
  5
30C
330
309
100
AcDbEntity
  8
FORMAT
100
AcDbTrace
 10
931.329291739
 20
1046.3062821297
 30
0.0
 11
954.443291739
 21
1042.7502821297
 31
0.0
 12
954.443291739
 22
1049.8622821297
 32
0.0
 13
954.443291739
 23
1049.8622821297
 33
0.0
  0
SOLID
  5
30D
330
309
100
AcDbEntity
  8
FORMAT
100
AcDbTrace
 10
1157.329291739
 20
1046.3062821297
 30
0.0
 11
1134.215291739
 21
1049.8622821297
 31
0.0
 12
1134.215291739
 22
1042.7502821297
 32
0.0
 13
1134.215291739
 23
1042.7502821297
 33
0.0
  0
LINE
  5
30E
330
309
100
AcDbEntity
  8
FORMAT
100
AcDbLine
 10
931.329291739
 20
849.4824564868
 30
0.0
 11
931.329291739
 21
1053.3062821297
 31
0.0
  0
LINE
  5
30F
330
309
100
AcDbEntity
  8
FORMAT
100
AcDbLine
 10
1157.329291739
 20
849.4824564868
 30
0.0
 11
1157.329291739
 21
1053.3062821297
 31
0.0
  0
LINE
  5
310
330
309
100
AcDbEntity
  8
FORMAT
100
AcDbLine
 10
931.329291739
 20
1046.3062821297
 30
0.0
 11
1157.329291739
 21
1046.3062821297
 31
0.0
  0
MTEXT
  5
311
330
309
100
AcDbEntity
  8
FORMAT
100
AcDbMText
 10
1016.2563757677
 20
1077.8884433839
 30
0.0
 40
24.5
 41
0.0
 71
     1
 72
     1
  1
226
  7
SLDTEXTSTYLE0
 73
     1
 44
1.0
  0
ENDBLK
  5
30B
330
309
100
AcDbEntity
  8
0
100
AcDbBlockEnd
  0
BLOCK
  5
314
330
313
100
AcDbEntity
  8
0
100
AcDbBlockBegin
  2
_D_16
 70
     0
 10
0.0
 20
0.0
 30
0.0
  3
_D_16
  1

  0
SOLID
  5
316
330
313
100
AcDbEntity
  8
FORMAT
100
AcDbTrace
 10
507.329291739
 20
1091.429239319
 30
0.0
 11
530.443291739
 21
1087.873239319
 31
0.0
 12
530.443291739
 22
1094.985239319
 32
0.0
 13
530.443291739
 23
1094.985239319
 33
0.0
  0
SOLID
  5
317
330
313
100
AcDbEntity
  8
FORMAT
100
AcDbTrace
 10
1173.329291739
 20
1091.429239319
 30
0.0
 11
1150.215291739
 21
1094.985239319
 31
0.0
 12
1150.215291739
 22
1087.873239319
 32
0.0
 13
1150.215291739
 23
1087.873239319
 33
0.0
  0
LINE
  5
318
330
313
100
AcDbEntity
  8
FORMAT
100
AcDbLine
 10
507.329291739
 20
631.4824564872
 30
0.0
 11
507.329291739
 21
1098.429239319
 31
0.0
  0
LINE
  5
319
330
313
100
AcDbEntity
  8
FORMAT
100
AcDbLine
 10
1173.329291739
 20
836.9824564872
 30
0.0
 11
1173.329291739
 21
1098.429239319
 31
0.0
  0
LINE
  5
31A
330
313
100
AcDbEntity
  8
FORMAT
100
AcDbLine
 10
507.329291739
 20
1091.429239319
 30
0.0
 11
1173.329291739
 21
1091.429239319
 31
0.0
  0
MTEXT
  5
31B
330
313
100
AcDbEntity
  8
FORMAT
100
AcDbMText
 10
812.2563757677
 20
1123.0114005732
 30
0.0
 40
24.5
 41
0.0
 71
     1
 72
     1
  1
666
  7
SLDTEXTSTYLE0
 73
     1
 44
1.0
  0
ENDBLK
  5
315
330
313
100
AcDbEntity
  8
0
100
AcDbBlockEnd
  0
BLOCK
  5
31E
330
31D
100
AcDbEntity
  8
0
100
AcDbBlockBegin
  2
_D_17
 70
     0
 10
0.0
 20
0.0
 30
0.0
  3
_D_17
  1

  0
SOLID
  5
320
330
31D
100
AcDbEntity
  8
FORMAT
100
AcDbTrace
 10
507.329291739
 20
1134.3430645966
 30
0.0
 11
530.443291739
 21
1130.7870645966
 31
0.0
 12
530.443291739
 22
1137.8990645966
 32
0.0
 13
530.443291739
 23
1137.8990645966
 33
0.0
  0
SOLID
  5
321
330
31D
100
AcDbEntity
  8
FORMAT
100
AcDbTrace
 10
1187.329291739
 20
1134.3430645966
 30
0.0
 11
1164.215291739
 21
1137.8990645966
 31
0.0
 12
1164.215291739
 22
1130.7870645966
 32
0.0
 13
1164.215291739
 23
1130.7870645966
 33
0.0
  0
LINE
  5
322
330
31D
100
AcDbEntity
  8
FORMAT
100
AcDbLine
 10
507.329291739
 20
631.4824564872
 30
0.0
 11
507.329291739
 21
1141.3430645966
 31
0.0
  0
LINE
  5
323
330
31D
100
AcDbEntity
  8
FORMAT
100
AcDbLine
 10
1187.329291739
 20
849.4824564868
 30
0.0
 11
1187.329291739
 21
1141.3430645966
 31
0.0
  0
LINE
  5
324
330
31D
100
AcDbEntity
  8
FORMAT
100
AcDbLine
 10
507.329291739
 20
1134.3430645966
 30
0.0
 11
1187.329291739
 21
1134.3430645966
 31
0.0
  0
MTEXT
  5
325
330
31D
100
AcDbEntity
  8
FORMAT
100
AcDbMText
 10
819.2563757677
 20
1165.9252258508
 30
0.0
 40
24.5
 41
0.0
 71
     1
 72
     1
  1
680
  7
SLDTEXTSTYLE0
 73
     1
 44
1.0
  0
ENDBLK
  5
31F
330
31D
100
AcDbEntity
  8
0
100
AcDbBlockEnd
  0
BLOCK
  5
328
330
327
100
AcDbEntity
  8
0
100
AcDbBlockBegin
  2
_D_18
 70
     0
 10
0.0
 20
0.0
 30
0.0
  3
_D_18
  1

  0
SOLID
  5
32A
330
327
100
AcDbEntity
  8
FORMAT
100
AcDbTrace
 10
507.329291739
 20
596.9386013339
 30
0.0
 11
530.443291739
 21
593.3826013339
 31
0.0
 12
530.443291739
 22
600.4946013339
 32
0.0
 13
530.443291739
 23
600.4946013339
 33
0.0
  0
SOLID
  5
32B
330
327
100
AcDbEntity
  8
FORMAT
100
AcDbTrace
 10
596.329291739
 20
596.9386013339
 30
0.0
 11
573.215291739
 21
600.4946013339
 31
0.0
 12
573.215291739
 22
593.3826013339
 32
0.0
 13
573.215291739
 23
593.3826013339
 33
0.0
  0
LINE
  5
32C
330
327
100
AcDbEntity
  8
FORMAT
100
AcDbLine
 10
596.329291739
 20
721.2324564872
 30
0.0
 11
596.329291739
 21
589.9386013339
 31
0.0
  0
LINE
  5
32D
330
327
100
AcDbEntity
  8
FORMAT
100
AcDbLine
 10
507.329291739
 20
596.9386013339
 30
0.0
 11
596.329291739
 21
596.9386013339
 31
0.0
  0
MTEXT
  5
32E
330
327
100
AcDbEntity
  8
FORMAT
100
AcDbMText
 10
539.6813747925
 20
628.5207625881
 30
0.0
 40
24.5
 41
0.0
 71
     1
 72
     1
  1
D
  7
SLDTEXTSTYLE0
 73
     1
 44
1.0
  0
ENDBLK
  5
329
330
327
100
AcDbEntity
  8
0
100
AcDbBlockEnd
  0
BLOCK
  5
333
330
332
100
AcDbEntity
  8
0
100
AcDbBlockBegin
  2
SW_NOTE_0_5
 70
     0
 10
0.0
 20
0.0
 30
0.0
  3
SW_NOTE_0_5
  1

  0
MTEXT
  5
335
330
332
100
AcDbEntity
  8
FORMAT
 62
     0
100
AcDbMText
 10
-306.527768321
 20
37.1541311002
 30
0.0
 40
18.5208333333
 41
0.0
 71
     1
 72
     1
  1
ø20
  7
SLDTEXTSTYLE0
 73
     1
 44
1.0
  0
MTEXT
  5
336
330
332
100
AcDbEntity
  8
FORMAT
 62
     0
100
AcDbMText
 10
-306.527768321
 20
5.4596858068
 30
0.0
 40
18.5208333333
 41
0.0
 71
     1
 72
     1
  1
(verdeckte Kabelzuführung)
  7
SLDTEXTSTYLE0
 73
     1
 44
1.0
  0
ENDBLK
  5
334
330
332
100
AcDbEntity
  8
0
100
AcDbBlockEnd
  0
BLOCK
  5
33C
330
33B
100
AcDbEntity
  8
0
100
AcDbBlockBegin
  2
SW_CENTERMARKSYMBOL_0
 70
     0
 10
0.0
 20
0.0
 30
0.0
  3
SW_CENTERMARKSYMBOL_0
  1

  0
LINE
  5
33E
330
33B
100
AcDbEntity
  8
FORMAT
 62
     0
100
AcDbLine
 10
0.0
 20
0.0
 30
0.0
 11
0.0
 21
2.5
 31
0.0
  0
LINE
  5
33F
330
33B
100
AcDbEntity
  8
FORMAT
 62
     0
100
AcDbLine
 10
0.0
 20
0.0
 30
0.0
 11
-2.5
 21
0.0
 31
0.0
  0
LINE
  5
340
330
33B
100
AcDbEntity
  8
FORMAT
 62
     0
100
AcDbLine
 10
0.0
 20
0.0
 30
0.0
 11
0.0
 21
-2.5
 31
0.0
  0
LINE
  5
341
330
33B
100
AcDbEntity
  8
FORMAT
 62
     0
100
AcDbLine
 10
0.0
 20
0.0
 30
0.0
 11
2.5
 21
0.0
 31
0.0
  0
LINE
  5
342
330
33B
100
AcDbEntity
  8
FORMAT
 62
     0
100
AcDbLine
 10
0.0
 20
2.5
 30
0.0
 11
0.0
 21
5.0
 31
0.0
  0
LINE
  5
343
330
33B
100
AcDbEntity
  8
FORMAT
 62
     0
100
AcDbLine
 10
-2.5
 20
0.0
 30
0.0
 11
-5.0
 21
0.0
 31
0.0
  0
LINE
  5
344
330
33B
100
AcDbEntity
  8
FORMAT
 62
     0
100
AcDbLine
 10
0.0
 20
-2.5
 30
0.0
 11
0.0
 21
-5.0
 31
0.0
  0
LINE
  5
345
330
33B
100
AcDbEntity
  8
FORMAT
 62
     0
100
AcDbLine
 10
2.5
 20
0.0
 30
0.0
 11
5.0
 21
0.0
 31
0.0
  0
ENDBLK
  5
33D
330
33B
100
AcDbEntity
  8
0
100
AcDbBlockEnd
  0
BLOCK
  5
348
330
347
100
AcDbEntity
  8
0
100
AcDbBlockBegin
  2
SW_CENTERMARKSYMBOL_1
 70
     0
 10
0.0
 20
0.0
 30
0.0
  3
SW_CENTERMARKSYMBOL_1
  1

  0
LINE
  5
34A
330
347
100
AcDbEntity
  8
FORMAT
 62
     0
100
AcDbLine
 10
0.0
 20
0.0
 30
0.0
 11
0.0
 21
2.5
 31
0.0
  0
LINE
  5
34B
330
347
100
AcDbEntity
  8
FORMAT
 62
     0
100
AcDbLine
 10
0.0
 20
0.0
 30
0.0
 11
-2.5
 21
0.0
 31
0.0
  0
LINE
  5
34C
330
347
100
AcDbEntity
  8
FORMAT
 62
     0
100
AcDbLine
 10
0.0
 20
0.0
 30
0.0
 11
0.0
 21
-2.5
 31
0.0
  0
LINE
  5
34D
330
347
100
AcDbEntity
  8
FORMAT
 62
     0
100
AcDbLine
 10
0.0
 20
0.0
 30
0.0
 11
2.5
 21
0.0
 31
0.0
  0
LINE
  5
34E
330
347
100
AcDbEntity
  8
FORMAT
 62
     0
100
AcDbLine
 10
0.0
 20
2.5
 30
0.0
 11
0.0
 21
5.0
 31
0.0
  0
LINE
  5
34F
330
347
100
AcDbEntity
  8
FORMAT
 62
     0
100
AcDbLine
 10
-2.5
 20
0.0
 30
0.0
 11
-5.0
 21
0.0
 31
0.0
  0
LINE
  5
350
330
347
100
AcDbEntity
  8
FORMAT
 62
     0
100
AcDbLine
 10
0.0
 20
-2.5
 30
0.0
 11
0.0
 21
-5.0
 31
0.0
  0
LINE
  5
351
330
347
100
AcDbEntity
  8
FORMAT
 62
     0
100
AcDbLine
 10
2.5
 20
0.0
 30
0.0
 11
5.0
 21
0.0
 31
0.0
  0
ENDBLK
  5
349
330
347
100
AcDbEntity
  8
0
100
AcDbBlockEnd
  0
BLOCK
  5
354
330
353
100
AcDbEntity
  8
0
100
AcDbBlockBegin
  2
SW_CENTERMARKSYMBOL_2
 70
     0
 10
0.0
 20
0.0
 30
0.0
  3
SW_CENTERMARKSYMBOL_2
  1

  0
LINE
  5
356
330
353
100
AcDbEntity
  8
FORMAT
 62
     0
100
AcDbLine
 10
0.0
 20
0.0
 30
0.0
 11
0.0
 21
2.5
 31
0.0
  0
LINE
  5
357
330
353
100
AcDbEntity
  8
FORMAT
 62
     0
100
AcDbLine
 10
0.0
 20
0.0
 30
0.0
 11
-2.5
 21
0.0
 31
0.0
  0
LINE
  5
358
330
353
100
AcDbEntity
  8
FORMAT
 62
     0
100
AcDbLine
 10
0.0
 20
0.0
 30
0.0
 11
0.0
 21
-2.5
 31
0.0
  0
LINE
  5
359
330
353
100
AcDbEntity
  8
FORMAT
 62
     0
100
AcDbLine
 10
0.0
 20
0.0
 30
0.0
 11
2.5
 21
0.0
 31
0.0
  0
LINE
  5
35A
330
353
100
AcDbEntity
  8
FORMAT
 62
     0
100
AcDbLine
 10
0.0
 20
5.0
 30
0.0
 11
0.0
 21
5.75
 31
0.0
  0
LINE
  5
35B
330
353
100
AcDbEntity
  8
FORMAT
 62
     0
100
AcDbLine
 10
-5.0
 20
0.0
 30
0.0
 11
-5.75
 21
0.0
 31
0.0
  0
LINE
  5
35C
330
353
100
AcDbEntity
  8
FORMAT
 62
     0
100
AcDbLine
 10
0.0
 20
-5.0
 30
0.0
 11
0.0
 21
-5.75
 31
0.0
  0
LINE
  5
35D
330
353
100
AcDbEntity
  8
FORMAT
 62
     0
100
AcDbLine
 10
5.0
 20
0.0
 30
0.0
 11
5.75
 21
0.0
 31
0.0
  0
ENDBLK
  5
355
330
353
100
AcDbEntity
  8
0
100
AcDbBlockEnd
  0
BLOCK
  5
360
330
35F
100
AcDbEntity
  8
0
100
AcDbBlockBegin
  2
SW_CENTERMARKSYMBOL_3
 70
     0
 10
0.0
 20
0.0
 30
0.0
  3
SW_CENTERMARKSYMBOL_3
  1

  0
LINE
  5
362
330
35F
100
AcDbEntity
  8
FORMAT
 62
     0
100
AcDbLine
 10
0.0
 20
0.0
 30
0.0
 11
0.0
 21
2.5
 31
0.0
  0
LINE
  5
363
330
35F
100
AcDbEntity
  8
FORMAT
 62
     0
100
AcDbLine
 10
0.0
 20
0.0
 30
0.0
 11
-2.5
 21
0.0
 31
0.0
  0
LINE
  5
364
330
35F
100
AcDbEntity
  8
FORMAT
 62
     0
100
AcDbLine
 10
0.0
 20
0.0
 30
0.0
 11
0.0
 21
-2.5
 31
0.0
  0
LINE
  5
365
330
35F
100
AcDbEntity
  8
FORMAT
 62
     0
100
AcDbLine
 10
0.0
 20
0.0
 30
0.0
 11
2.5
 21
0.0
 31
0.0
  0
LINE
  5
366
330
35F
100
AcDbEntity
  8
FORMAT
 62
     0
100
AcDbLine
 10
0.0
 20
5.0
 30
0.0
 11
0.0
 21
5.75
 31
0.0
  0
LINE
  5
367
330
35F
100
AcDbEntity
  8
FORMAT
 62
     0
100
AcDbLine
 10
-5.0
 20
0.0
 30
0.0
 11
-5.75
 21
0.0
 31
0.0
  0
LINE
  5
368
330
35F
100
AcDbEntity
  8
FORMAT
 62
     0
100
AcDbLine
 10
0.0
 20
-5.0
 30
0.0
 11
0.0
 21
-5.75
 31
0.0
  0
LINE
  5
369
330
35F
100
AcDbEntity
  8
FORMAT
 62
     0
100
AcDbLine
 10
5.0
 20
0.0
 30
0.0
 11
5.75
 21
0.0
 31
0.0
  0
ENDBLK
  5
361
330
35F
100
AcDbEntity
  8
0
100
AcDbBlockEnd
  0
BLOCK
  5
36C
330
36B
100
AcDbEntity
  8
0
100
AcDbBlockBegin
  2
SW_CENTERMARKSYMBOL_4
 70
     0
 10
0.0
 20
0.0
 30
0.0
  3
SW_CENTERMARKSYMBOL_4
  1

  0
LINE
  5
36E
330
36B
100
AcDbEntity
  8
FORMAT
 62
     0
100
AcDbLine
 10
0.0
 20
0.0
 30
0.0
 11
0.0
 21
2.5
 31
0.0
  0
LINE
  5
36F
330
36B
100
AcDbEntity
  8
FORMAT
 62
     0
100
AcDbLine
 10
0.0
 20
0.0
 30
0.0
 11
-2.5
 21
0.0
 31
0.0
  0
LINE
  5
370
330
36B
100
AcDbEntity
  8
FORMAT
 62
     0
100
AcDbLine
 10
0.0
 20
0.0
 30
0.0
 11
0.0
 21
-2.5
 31
0.0
  0
LINE
  5
371
330
36B
100
AcDbEntity
  8
FORMAT
 62
     0
100
AcDbLine
 10
0.0
 20
0.0
 30
0.0
 11
2.5
 21
0.0
 31
0.0
  0
LINE
  5
372
330
36B
100
AcDbEntity
  8
FORMAT
 62
     0
100
AcDbLine
 10
0.0
 20
5.0
 30
0.0
 11
0.0
 21
5.75
 31
0.0
  0
LINE
  5
373
330
36B
100
AcDbEntity
  8
FORMAT
 62
     0
100
AcDbLine
 10
-5.0
 20
0.0
 30
0.0
 11
-5.75
 21
0.0
 31
0.0
  0
LINE
  5
374
330
36B
100
AcDbEntity
  8
FORMAT
 62
     0
100
AcDbLine
 10
0.0
 20
-5.0
 30
0.0
 11
0.0
 21
-5.75
 31
0.0
  0
LINE
  5
375
330
36B
100
AcDbEntity
  8
FORMAT
 62
     0
100
AcDbLine
 10
5.0
 20
0.0
 30
0.0
 11
5.75
 21
0.0
 31
0.0
  0
ENDBLK
  5
36D
330
36B
100
AcDbEntity
  8
0
100
AcDbBlockEnd
  0
BLOCK
  5
378
330
377
100
AcDbEntity
  8
0
100
AcDbBlockBegin
  2
SW_CENTERMARKSYMBOL_5
 70
     0
 10
0.0
 20
0.0
 30
0.0
  3
SW_CENTERMARKSYMBOL_5
  1

  0
LINE
  5
37A
330
377
100
AcDbEntity
  8
FORMAT
 62
     0
100
AcDbLine
 10
0.0
 20
0.0
 30
0.0
 11
0.0
 21
2.5
 31
0.0
  0
LINE
  5
37B
330
377
100
AcDbEntity
  8
FORMAT
 62
     0
100
AcDbLine
 10
0.0
 20
0.0
 30
0.0
 11
-2.5
 21
0.0
 31
0.0
  0
LINE
  5
37C
330
377
100
AcDbEntity
  8
FORMAT
 62
     0
100
AcDbLine
 10
0.0
 20
0.0
 30
0.0
 11
0.0
 21
-2.5
 31
0.0
  0
LINE
  5
37D
330
377
100
AcDbEntity
  8
FORMAT
 62
     0
100
AcDbLine
 10
0.0
 20
0.0
 30
0.0
 11
2.5
 21
0.0
 31
0.0
  0
LINE
  5
37E
330
377
100
AcDbEntity
  8
FORMAT
 62
     0
100
AcDbLine
 10
0.0
 20
5.0
 30
0.0
 11
0.0
 21
5.75
 31
0.0
  0
LINE
  5
37F
330
377
100
AcDbEntity
  8
FORMAT
 62
     0
100
AcDbLine
 10
-5.0
 20
0.0
 30
0.0
 11
-5.75
 21
0.0
 31
0.0
  0
LINE
  5
380
330
377
100
AcDbEntity
  8
FORMAT
 62
     0
100
AcDbLine
 10
0.0
 20
-5.0
 30
0.0
 11
0.0
 21
-5.75
 31
0.0
  0
LINE
  5
381
330
377
100
AcDbEntity
  8
FORMAT
 62
     0
100
AcDbLine
 10
5.0
 20
0.0
 30
0.0
 11
5.75
 21
0.0
 31
0.0
  0
ENDBLK
  5
379
330
377
100
AcDbEntity
  8
0
100
AcDbBlockEnd
  0
BLOCK
  5
384
330
383
100
AcDbEntity
  8
0
100
AcDbBlockBegin
  2
SW_CENTERMARKSYMBOL_6
 70
     0
 10
0.0
 20
0.0
 30
0.0
  3
SW_CENTERMARKSYMBOL_6
  1

  0
LINE
  5
386
330
383
100
AcDbEntity
  8
FORMAT
 62
     0
100
AcDbLine
 10
0.0
 20
0.0
 30
0.0
 11
0.0
 21
2.5
 31
0.0
  0
LINE
  5
387
330
383
100
AcDbEntity
  8
FORMAT
 62
     0
100
AcDbLine
 10
0.0
 20
0.0
 30
0.0
 11
-2.5
 21
0.0
 31
0.0
  0
LINE
  5
388
330
383
100
AcDbEntity
  8
FORMAT
 62
     0
100
AcDbLine
 10
0.0
 20
0.0
 30
0.0
 11
0.0
 21
-2.5
 31
0.0
  0
LINE
  5
389
330
383
100
AcDbEntity
  8
FORMAT
 62
     0
100
AcDbLine
 10
0.0
 20
0.0
 30
0.0
 11
2.5
 21
0.0
 31
0.0
  0
LINE
  5
38A
330
383
100
AcDbEntity
  8
FORMAT
 62
     0
100
AcDbLine
 10
0.0
 20
5.0
 30
0.0
 11
0.0
 21
5.75
 31
0.0
  0
LINE
  5
38B
330
383
100
AcDbEntity
  8
FORMAT
 62
     0
100
AcDbLine
 10
-5.0
 20
0.0
 30
0.0
 11
-5.75
 21
0.0
 31
0.0
  0
LINE
  5
38C
330
383
100
AcDbEntity
  8
FORMAT
 62
     0
100
AcDbLine
 10
0.0
 20
-5.0
 30
0.0
 11
0.0
 21
-5.75
 31
0.0
  0
LINE
  5
38D
330
383
100
AcDbEntity
  8
FORMAT
 62
     0
100
AcDbLine
 10
5.0
 20
0.0
 30
0.0
 11
5.75
 21
0.0
 31
0.0
  0
ENDBLK
  5
385
330
383
100
AcDbEntity
  8
0
100
AcDbBlockEnd
  0
BLOCK
  5
390
330
38F
100
AcDbEntity
  8
0
100
AcDbBlockBegin
  2
SW_CENTERMARKSYMBOL_7
 70
     0
 10
0.0
 20
0.0
 30
0.0
  3
SW_CENTERMARKSYMBOL_7
  1

  0
LINE
  5
392
330
38F
100
AcDbEntity
  8
FORMAT
 62
     0
100
AcDbLine
 10
0.0
 20
0.0
 30
0.0
 11
0.0
 21
2.5
 31
0.0
  0
LINE
  5
393
330
38F
100
AcDbEntity
  8
FORMAT
 62
     0
100
AcDbLine
 10
0.0
 20
0.0
 30
0.0
 11
-2.5
 21
0.0
 31
0.0
  0
LINE
  5
394
330
38F
100
AcDbEntity
  8
FORMAT
 62
     0
100
AcDbLine
 10
0.0
 20
0.0
 30
0.0
 11
0.0
 21
-2.5
 31
0.0
  0
LINE
  5
395
330
38F
100
AcDbEntity
  8
FORMAT
 62
     0
100
AcDbLine
 10
0.0
 20
0.0
 30
0.0
 11
2.5
 21
0.0
 31
0.0
  0
LINE
  5
396
330
38F
100
AcDbEntity
  8
FORMAT
 62
     0
100
AcDbLine
 10
0.0
 20
5.0
 30
0.0
 11
0.0
 21
5.75
 31
0.0
  0
LINE
  5
397
330
38F
100
AcDbEntity
  8
FORMAT
 62
     0
100
AcDbLine
 10
-5.0
 20
0.0
 30
0.0
 11
-5.75
 21
0.0
 31
0.0
  0
LINE
  5
398
330
38F
100
AcDbEntity
  8
FORMAT
 62
     0
100
AcDbLine
 10
0.0
 20
-5.0
 30
0.0
 11
0.0
 21
-5.75
 31
0.0
  0
LINE
  5
399
330
38F
100
AcDbEntity
  8
FORMAT
 62
     0
100
AcDbLine
 10
5.0
 20
0.0
 30
0.0
 11
5.75
 21
0.0
 31
0.0
  0
ENDBLK
  5
391
330
38F
100
AcDbEntity
  8
0
100
AcDbBlockEnd
  0
BLOCK
  5
39C
330
39B
100
AcDbEntity
  8
0
100
AcDbBlockBegin
  2
SW_CENTERMARKSYMBOL_8
 70
     0
 10
0.0
 20
0.0
 30
0.0
  3
SW_CENTERMARKSYMBOL_8
  1

  0
LINE
  5
39E
330
39B
100
AcDbEntity
  8
FORMAT
 62
     0
100
AcDbLine
 10
0.0
 20
0.0
 30
0.0
 11
0.0
 21
2.5
 31
0.0
  0
LINE
  5
39F
330
39B
100
AcDbEntity
  8
FORMAT
 62
     0
100
AcDbLine
 10
0.0
 20
0.0
 30
0.0
 11
-2.5
 21
0.0
 31
0.0
  0
LINE
  5
3A0
330
39B
100
AcDbEntity
  8
FORMAT
 62
     0
100
AcDbLine
 10
0.0
 20
0.0
 30
0.0
 11
0.0
 21
-2.5
 31
0.0
  0
LINE
  5
3A1
330
39B
100
AcDbEntity
  8
FORMAT
 62
     0
100
AcDbLine
 10
0.0
 20
0.0
 30
0.0
 11
2.5
 21
0.0
 31
0.0
  0
LINE
  5
3A2
330
39B
100
AcDbEntity
  8
FORMAT
 62
     0
100
AcDbLine
 10
0.0
 20
5.0
 30
0.0
 11
0.0
 21
12.5
 31
0.0
  0
LINE
  5
3A3
330
39B
100
AcDbEntity
  8
FORMAT
 62
     0
100
AcDbLine
 10
-5.0
 20
0.0
 30
0.0
 11
-12.5
 21
0.0
 31
0.0
  0
LINE
  5
3A4
330
39B
100
AcDbEntity
  8
FORMAT
 62
     0
100
AcDbLine
 10
0.0
 20
-5.0
 30
0.0
 11
0.0
 21
-12.5
 31
0.0
  0
LINE
  5
3A5
330
39B
100
AcDbEntity
  8
FORMAT
 62
     0
100
AcDbLine
 10
5.0
 20
0.0
 30
0.0
 11
12.5
 21
0.0
 31
0.0
  0
ENDBLK
  5
39D
330
39B
100
AcDbEntity
  8
0
100
AcDbBlockEnd
  0
BLOCK
  5
3A8
330
3A7
100
AcDbEntity
  8
0
100
AcDbBlockBegin
  2
SW_CENTERMARKSYMBOL_9
 70
     0
 10
0.0
 20
0.0
 30
0.0
  3
SW_CENTERMARKSYMBOL_9
  1

  0
LINE
  5
3AA
330
3A7
100
AcDbEntity
  8
FORMAT
 62
     0
100
AcDbLine
 10
0.0
 20
0.0
 30
0.0
 11
0.0
 21
2.5
 31
0.0
  0
LINE
  5
3AB
330
3A7
100
AcDbEntity
  8
FORMAT
 62
     0
100
AcDbLine
 10
0.0
 20
0.0
 30
0.0
 11
-2.5
 21
0.0
 31
0.0
  0
LINE
  5
3AC
330
3A7
100
AcDbEntity
  8
FORMAT
 62
     0
100
AcDbLine
 10
0.0
 20
0.0
 30
0.0
 11
0.0
 21
-2.5
 31
0.0
  0
LINE
  5
3AD
330
3A7
100
AcDbEntity
  8
FORMAT
 62
     0
100
AcDbLine
 10
0.0
 20
0.0
 30
0.0
 11
2.5
 21
0.0
 31
0.0
  0
LINE
  5
3AE
330
3A7
100
AcDbEntity
  8
FORMAT
 62
     0
100
AcDbLine
 10
0.0
 20
5.0
 30
0.0
 11
0.0
 21
12.5
 31
0.0
  0
LINE
  5
3AF
330
3A7
100
AcDbEntity
  8
FORMAT
 62
     0
100
AcDbLine
 10
-5.0
 20
0.0
 30
0.0
 11
-12.5
 21
0.0
 31
0.0
  0
LINE
  5
3B0
330
3A7
100
AcDbEntity
  8
FORMAT
 62
     0
100
AcDbLine
 10
0.0
 20
-5.0
 30
0.0
 11
0.0
 21
-12.5
 31
0.0
  0
LINE
  5
3B1
330
3A7
100
AcDbEntity
  8
FORMAT
 62
     0
100
AcDbLine
 10
5.0
 20
0.0
 30
0.0
 11
12.5
 21
0.0
 31
0.0
  0
ENDBLK
  5
3A9
330
3A7
100
AcDbEntity
  8
0
100
AcDbBlockEnd
  0
BLOCK
  5
3B4
330
3B3
100
AcDbEntity
  8
0
100
AcDbBlockBegin
  2
SW_CENTERMARKSYMBOL_10
 70
     0
 10
0.0
 20
0.0
 30
0.0
  3
SW_CENTERMARKSYMBOL_10
  1

  0
LINE
  5
3B6
330
3B3
100
AcDbEntity
  8
FORMAT
 62
     0
100
AcDbLine
 10
0.0
 20
0.0
 30
0.0
 11
0.0
 21
2.5
 31
0.0
  0
LINE
  5
3B7
330
3B3
100
AcDbEntity
  8
FORMAT
 62
     0
100
AcDbLine
 10
0.0
 20
0.0
 30
0.0
 11
-2.5
 21
0.0
 31
0.0
  0
LINE
  5
3B8
330
3B3
100
AcDbEntity
  8
FORMAT
 62
     0
100
AcDbLine
 10
0.0
 20
0.0
 30
0.0
 11
0.0
 21
-2.5
 31
0.0
  0
LINE
  5
3B9
330
3B3
100
AcDbEntity
  8
FORMAT
 62
     0
100
AcDbLine
 10
0.0
 20
0.0
 30
0.0
 11
2.5
 21
0.0
 31
0.0
  0
LINE
  5
3BA
330
3B3
100
AcDbEntity
  8
FORMAT
 62
     0
100
AcDbLine
 10
0.0
 20
5.0
 30
0.0
 11
0.0
 21
12.5
 31
0.0
  0
LINE
  5
3BB
330
3B3
100
AcDbEntity
  8
FORMAT
 62
     0
100
AcDbLine
 10
-5.0
 20
0.0
 30
0.0
 11
-12.5
 21
0.0
 31
0.0
  0
LINE
  5
3BC
330
3B3
100
AcDbEntity
  8
FORMAT
 62
     0
100
AcDbLine
 10
0.0
 20
-5.0
 30
0.0
 11
0.0
 21
-12.5
 31
0.0
  0
LINE
  5
3BD
330
3B3
100
AcDbEntity
  8
FORMAT
 62
     0
100
AcDbLine
 10
5.0
 20
0.0
 30
0.0
 11
12.5
 21
0.0
 31
0.0
  0
ENDBLK
  5
3B5
330
3B3
100
AcDbEntity
  8
0
100
AcDbBlockEnd
  0
BLOCK
  5
3C0
330
3BF
100
AcDbEntity
  8
0
100
AcDbBlockBegin
  2
SW_CENTERMARKSYMBOL_11
 70
     0
 10
0.0
 20
0.0
 30
0.0
  3
SW_CENTERMARKSYMBOL_11
  1

  0
LINE
  5
3C2
330
3BF
100
AcDbEntity
  8
FORMAT
 62
     0
100
AcDbLine
 10
0.0
 20
0.0
 30
0.0
 11
0.0
 21
2.5
 31
0.0
  0
LINE
  5
3C3
330
3BF
100
AcDbEntity
  8
FORMAT
 62
     0
100
AcDbLine
 10
0.0
 20
0.0
 30
0.0
 11
-2.5
 21
0.0
 31
0.0
  0
LINE
  5
3C4
330
3BF
100
AcDbEntity
  8
FORMAT
 62
     0
100
AcDbLine
 10
0.0
 20
0.0
 30
0.0
 11
0.0
 21
-2.5
 31
0.0
  0
LINE
  5
3C5
330
3BF
100
AcDbEntity
  8
FORMAT
 62
     0
100
AcDbLine
 10
0.0
 20
0.0
 30
0.0
 11
2.5
 21
0.0
 31
0.0
  0
LINE
  5
3C6
330
3BF
100
AcDbEntity
  8
FORMAT
 62
     0
100
AcDbLine
 10
0.0
 20
5.0
 30
0.0
 11
0.0
 21
12.5
 31
0.0
  0
LINE
  5
3C7
330
3BF
100
AcDbEntity
  8
FORMAT
 62
     0
100
AcDbLine
 10
-5.0
 20
0.0
 30
0.0
 11
-12.5
 21
0.0
 31
0.0
  0
LINE
  5
3C8
330
3BF
100
AcDbEntity
  8
FORMAT
 62
     0
100
AcDbLine
 10
0.0
 20
-5.0
 30
0.0
 11
0.0
 21
-12.5
 31
0.0
  0
LINE
  5
3C9
330
3BF
100
AcDbEntity
  8
FORMAT
 62
     0
100
AcDbLine
 10
5.0
 20
0.0
 30
0.0
 11
12.5
 21
0.0
 31
0.0
  0
ENDBLK
  5
3C1
330
3BF
100
AcDbEntity
  8
0
100
AcDbBlockEnd
  0
BLOCK
  5
44F
330
44E
100
AcDbEntity
  8
0
100
AcDbBlockBegin
  2
_Dot
 70
     0
 10
0.0
 20
0.0
 30
0.0
  3
_Dot
  1

  0
LWPOLYLINE
  5
451
330
44E
100
AcDbEntity
  8
0
  6
ByBlock
 62
     0
100
AcDbPolyline
 90
        2
 70
     1
 43
0.5
 10
-0.25
 20
0.0
 42
1.0
 10
0.25
 20
0.0
 42
1.0
  0
LINE
  5
452
330
44E
100
AcDbEntity
  8
0
  6
ByBlock
 62
     0
370
    -2
100
AcDbLine
 10
-0.5
 20
0.0
 30
0.0
 11
-1.0
 21
0.0
 31
0.0
  0
ENDBLK
  5
450
330
44E
100
AcDbEntity
  8
0
100
AcDbBlockEnd
  0
BLOCK
  5
454
330
453
100
AcDbEntity
  8
0
100
AcDbBlockBegin
  2
_D_19
 70
     0
 10
0.0
 20
0.0
 30
0.0
  3
_D_19
  1

  0
INSERT
  5
456
330
453
100
AcDbEntity
  8
FORMAT
100
AcDbBlockReference
  2
_Dot
 10
2239.4575851928
 20
1886.827761369
 30
0.0
 41
7.112
 42
7.112
 50
180.0
  0
SOLID
  5
457
330
453
100
AcDbEntity
  8
FORMAT
100
AcDbTrace
 10
2289.4575851928
 20
1886.827761369
 30
0.0
 11
2266.3435851928
 21
1890.383761369
 31
0.0
 12
2266.3435851928
 22
1883.271761369
 32
0.0
 13
2266.3435851928
 23
1883.271761369
 33
0.0
  0
LINE
  5
458
330
453
100
AcDbEntity
  8
FORMAT
100
AcDbLine
 10
2239.4575851928
 20
1830.2489515303
 30
0.0
 11
2239.4575851928
 21
1893.827761369
 31
0.0
  0
LINE
  5
459
330
453
100
AcDbEntity
  8
FORMAT
100
AcDbLine
 10
2239.4575851928
 20
1886.827761369
 30
0.0
 11
2289.4575851928
 21
1886.827761369
 31
0.0
  0
LINE
  5
45A
330
453
100
AcDbEntity
  8
FORMAT
100
AcDbLine
 10
2289.4575851928
 20
1886.827761369
 30
0.0
 11
2414.3715803909
 21
1886.827761369
 31
0.0
  0
MTEXT
  5
45B
330
453
100
AcDbEntity
  8
FORMAT
100
AcDbMText
 10
2312.1640091228
 20
1910.7023713551
 30
0.0
 40
18.5208333333
 41
0.0
 71
     1
 72
     1
  1
max. +
  7
SLDTEXTSTYLE0
 73
     1
 44
1.0
  0
MTEXT
  5
45C
330
453
100
AcDbEntity
  8
FORMAT
100
AcDbMText
 10
2386.9333011496
 20
1910.7023713551
 30
0.0
 40
18.5208333333
 41
0.0
 71
     1
 72
     1
  1
50
  7
SLDTEXTSTYLE0
 73
     1
 44
1.0
  0
ENDBLK
  5
455
330
453
100
AcDbEntity
  8
0
100
AcDbBlockEnd
  0
BLOCK
  5
45F
330
45E
100
AcDbEntity
  8
0
100
AcDbBlockBegin
  2
_D_20
 70
     0
 10
0.0
 20
0.0
 30
0.0
  3
_D_20
  1

  0
INSERT
  5
461
330
45E
100
AcDbEntity
  8
FORMAT
100
AcDbBlockReference
  2
_Dot
 10
2239.4575851928
 20
1886.8277613691
 30
0.0
 41
7.112
 42
7.112
 50
0.0
  0
SOLID
  5
462
330
45E
100
AcDbEntity
  8
FORMAT
100
AcDbTrace
 10
2209.4575851928
 20
1886.8277613691
 30
0.0
 11
2232.5715851928
 21
1883.2717613691
 31
0.0
 12
2232.5715851928
 22
1890.3837613691
 32
0.0
 13
2232.5715851928
 23
1890.3837613691
 33
0.0
  0
LINE
  5
463
330
45E
100
AcDbEntity
  8
FORMAT
100
AcDbLine
 10
2239.4575851928
 20
1830.2489515303
 30
0.0
 11
2239.4575851928
 21
1893.8277613691
 31
0.0
  0
LINE
  5
464
330
45E
100
AcDbEntity
  8
FORMAT
100
AcDbLine
 10
2239.4575851928
 20
1886.8277613691
 30
0.0
 11
2209.4575851928
 21
1886.8277613691
 31
0.0
  0
LINE
  5
465
330
45E
100
AcDbEntity
  8
FORMAT
100
AcDbLine
 10
2209.4575851928
 20
1886.8277613691
 30
0.0
 11
2063.4404928624
 21
1886.8277613691
 31
0.0
  0
MTEXT
  5
466
330
45E
100
AcDbEntity
  8
FORMAT
100
AcDbMText
 10
2063.4404928624
 20
1910.7023713551
 30
0.0
 40
18.5208333333
 41
0.0
 71
     1
 72
     1
  1
max. -
  7
SLDTEXTSTYLE0
 73
     1
 44
1.0
  0
MTEXT
  5
467
330
45E
100
AcDbEntity
  8
FORMAT
100
AcDbMText
 10
2132.0361714079
 20
1910.7023713551
 30
0.0
 40
18.5208333333
 41
0.0
 71
     1
 72
     1
  1
30
  7
SLDTEXTSTYLE0
 73
     1
 44
1.0
  0
ENDBLK
  5
460
330
45E
100
AcDbEntity
  8
0
100
AcDbBlockEnd
  0
BLOCK
  5
46A
330
469
100
AcDbEntity
  8
0
100
AcDbBlockBegin
  2
_D_21
 70
     0
 10
0.0
 20
0.0
 30
0.0
  3
_D_21
  1

  0
SOLID
  5
46C
330
469
100
AcDbEntity
  8
FORMAT
100
AcDbTrace
 10
2239.4575851928
 20
1470.1485136798
 30
0.0
 11
2216.3435851928
 21
1473.7045136798
 31
0.0
 12
2216.3435851928
 22
1466.5925136798
 32
0.0
 13
2216.3435851928
 23
1466.5925136798
 33
0.0
  0
SOLID
  5
46D
330
469
100
AcDbEntity
  8
FORMAT
100
AcDbTrace
 10
2267.4575851905
 20
1470.1485136798
 30
0.0
 11
2290.5715851905
 21
1466.5925136798
 31
0.0
 12
2290.5715851905
 22
1473.7045136798
 32
0.0
 13
2290.5715851905
 23
1473.7045136798
 33
0.0
  0
LINE
  5
46E
330
469
100
AcDbEntity
  8
FORMAT
100
AcDbLine
 10
2267.4575851905
 20
1586.2489515365
 30
0.0
 11
2267.4575851905
 21
1463.1485136798
 31
0.0
  0
LINE
  5
46F
330
469
100
AcDbEntity
  8
FORMAT
100
AcDbLine
 10
2239.4575851928
 20
1470.1485136798
 30
0.0
 11
2195.0075851928
 21
1470.1485136798
 31
0.0
  0
LINE
  5
470
330
469
100
AcDbEntity
  8
FORMAT
100
AcDbLine
 10
2239.4575851928
 20
1470.1485136798
 30
0.0
 11
2267.4575851905
 21
1470.1485136798
 31
0.0
  0
LINE
  5
471
330
469
100
AcDbEntity
  8
FORMAT
100
AcDbLine
 10
2267.4575851905
 20
1470.1485136798
 30
0.0
 11
2344.1553012449
 21
1470.1485136798
 31
0.0
  0
MTEXT
  5
472
330
469
100
AcDbEntity
  8
FORMAT
100
AcDbMText
 10
2306.7247466165
 20
1501.730674934
 30
0.0
 40
24.5
 41
0.0
 71
     1
 72
     1
  1
28
  7
SLDTEXTSTYLE0
 73
     1
 44
1.0
  0
ENDBLK
  5
46B
330
469
100
AcDbEntity
  8
0
100
AcDbBlockEnd
  0
BLOCK
  5
475
330
474
100
AcDbEntity
  8
0
100
AcDbBlockBegin
  2
_D_22
 70
     0
 10
0.0
 20
0.0
 30
0.0
  3
_D_22
  1

  0
SOLID
  5
477
330
474
100
AcDbEntity
  8
FORMAT
100
AcDbTrace
 10
2239.4575851928
 20
1416.0543976845
 30
0.0
 11
2262.5715851928
 21
1412.4983976845
 31
0.0
 12
2262.5715851928
 22
1419.6103976845
 32
0.0
 13
2262.5715851928
 23
1419.6103976845
 33
0.0
  0
SOLID
  5
478
330
474
100
AcDbEntity
  8
FORMAT
100
AcDbTrace
 10
2359.4575851925
 20
1416.0543976845
 30
0.0
 11
2336.3435851925
 21
1419.6103976845
 31
0.0
 12
2336.3435851925
 22
1412.4983976845
 32
0.0
 13
2336.3435851925
 23
1412.4983976845
 33
0.0
  0
LINE
  5
479
330
474
100
AcDbEntity
  8
FORMAT
100
AcDbLine
 10
2359.4575851925
 20
1622.7489515303
 30
0.0
 11
2359.4575851925
 21
1409.0543976845
 31
0.0
  0
LINE
  5
47A
330
474
100
AcDbEntity
  8
FORMAT
100
AcDbLine
 10
2239.4575851928
 20
1416.0543976845
 30
0.0
 11
2359.4575851925
 21
1416.0543976845
 31
0.0
  0
MTEXT
  5
47B
330
474
100
AcDbEntity
  8
FORMAT
100
AcDbMText
 10
2271.3846692214
 20
1447.6365589387
 30
0.0
 40
24.5
 41
0.0
 71
     1
 72
     1
  1
120
  7
SLDTEXTSTYLE0
 73
     1
 44
1.0
  0
ENDBLK
  5
476
330
474
100
AcDbEntity
  8
0
100
AcDbBlockEnd
  0
BLOCK
  5
47E
330
47D
100
AcDbEntity
  8
0
100
AcDbBlockBegin
  2
_D_23
 70
     0
 10
0.0
 20
0.0
 30
0.0
  3
_D_23
  1

  0
SOLID
  5
480
330
47D
100
AcDbEntity
  8
FORMAT
100
AcDbTrace
 10
2429.4575851925
 20
1592.7489515365
 30
0.0
 11
2433.0135851925
 21
1615.8629515365
 31
0.0
 12
2425.9015851925
 22
1615.8629515365
 32
0.0
 13
2425.9015851925
 23
1615.8629515365
 33
0.0
  0
SOLID
  5
481
330
47D
100
AcDbEntity
  8
FORMAT
100
AcDbTrace
 10
2429.4575851925
 20
1719.7489515303
 30
0.0
 11
2425.9015851925
 21
1696.6349515303
 31
0.0
 12
2433.0135851925
 22
1696.6349515303
 32
0.0
 13
2433.0135851925
 23
1696.6349515303
 33
0.0
  0
LINE
  5
482
330
47D
100
AcDbEntity
  8
FORMAT
100
AcDbLine
 10
2273.9575851905
 20
1592.7489515365
 30
0.0
 11
2436.4575851925
 21
1592.7489515365
 31
0.0
  0
LINE
  5
483
330
47D
100
AcDbEntity
  8
FORMAT
100
AcDbLine
 10
2361.4575851925
 20
1719.7489515303
 30
0.0
 11
2436.4575851925
 21
1719.7489515303
 31
0.0
  0
LINE
  5
484
330
47D
100
AcDbEntity
  8
FORMAT
100
AcDbLine
 10
2429.4575851925
 20
1592.7489515365
 30
0.0
 11
2429.4575851925
 21
1719.7489515303
 31
0.0
  0
MTEXT
  5
485
330
47D
100
AcDbEntity
  8
FORMAT
100
AcDbMText
 10
2397.8754239382
 20
1628.1760355621
 30
0.0
 40
24.5
 41
0.0
 71
     1
 72
     1
  1
127
  7
SLDTEXTSTYLE0
 11
1.837589179357618E-15
 21
1.0
 31
0.0
 73
     1
 44
1.0
  0
ENDBLK
  5
47F
330
47D
100
AcDbEntity
  8
0
100
AcDbBlockEnd
  0
BLOCK
  5
488
330
487
100
AcDbEntity
  8
0
100
AcDbBlockBegin
  2
_D_24
 70
     0
 10
0.0
 20
0.0
 30
0.0
  3
_D_24
  1

  0
SOLID
  5
48A
330
487
100
AcDbEntity
  8
FORMAT
100
AcDbTrace
 10
2125.2250375512
 20
1623.2489515303
 30
0.0
 11
2128.7810375512
 21
1646.3629515303
 31
0.0
 12
2121.6690375512
 22
1646.3629515303
 32
0.0
 13
2121.6690375512
 23
1646.3629515303
 33
0.0
  0
SOLID
  5
48B
330
487
100
AcDbEntity
  8
FORMAT
100
AcDbTrace
 10
2125.2250375512
 20
1720.7489515303
 30
0.0
 11
2121.6690375512
 21
1697.6349515303
 31
0.0
 12
2128.7810375512
 22
1697.6349515303
 32
0.0
 13
2128.7810375512
 23
1697.6349515303
 33
0.0
  0
LINE
  5
48C
330
487
100
AcDbEntity
  8
FORMAT
100
AcDbLine
 10
2202.4575851928
 20
1623.2489515303
 30
0.0
 11
2118.2250375512
 21
1623.2489515303
 31
0.0
  0
LINE
  5
48D
330
487
100
AcDbEntity
  8
FORMAT
100
AcDbLine
 10
2233.4575851925
 20
1720.7489515303
 30
0.0
 11
2118.2250375512
 21
1720.7489515303
 31
0.0
  0
LINE
  5
48E
330
487
100
AcDbEntity
  8
FORMAT
100
AcDbLine
 10
2125.2250375512
 20
1623.2489515303
 30
0.0
 11
2125.2250375512
 21
1720.7489515303
 31
0.0
  0
MTEXT
  5
48F
330
487
100
AcDbEntity
  8
FORMAT
100
AcDbMText
 10
2093.642876297
 20
1639.2472162304
 30
0.0
 40
24.5
 41
0.0
 71
     1
 72
     1
  1
97,5
  7
SLDTEXTSTYLE0
 11
6.123233995736766E-17
 21
1.0
 31
0.0
 73
     1
 44
1.0
  0
ENDBLK
  5
489
330
487
100
AcDbEntity
  8
0
100
AcDbBlockEnd
  0
BLOCK
  5
529
330
528
100
AcDbEntity
  8
0
100
AcDbBlockBegin
  2
_D_25
 70
     0
 10
0.0
 20
0.0
 30
0.0
  3
_D_25
  1

  0
ARC
  5
52B
330
528
100
AcDbEntity
  8
FORMAT
100
AcDbCircle
 10
2419.5008078674
 20
556.0992884299
 30
0.0
 40
42.03885414329039
100
AcDbArc
 50
153.4349488229
 51
206.5650511771
  0
ARC
  5
52C
330
528
100
AcDbEntity
  8
FORMAT
100
AcDbCircle
 10
2381.7299740473
 20
556.0992884299
 30
0.0
 40
42.03885414329039
100
AcDbArc
 50
333.4349488229
 51
26.5650511771
  0
SOLID
  5
52D
330
528
100
AcDbEntity
  8
FORMAT
100
AcDbTrace
 10
2294.3511726786
 20
537.2989413178
 30
0.0
 11
2271.2371726786
 21
540.8549413178
 31
0.0
 12
2271.2371726786
 22
533.7429413178
 32
0.0
 13
2271.2371726786
 23
533.7429413178
 33
0.0
  0
SOLID
  5
52E
330
528
100
AcDbEntity
  8
FORMAT
100
AcDbTrace
 10
2333.5511726753
 20
537.2989413178
 30
0.0
 11
2356.6651726753
 21
533.7429413178
 31
0.0
 12
2356.6651726753
 22
540.8549413178
 32
0.0
 13
2356.6651726753
 23
540.8549413178
 33
0.0
  0
LINE
  5
52F
330
528
100
AcDbEntity
  8
FORMAT
100
AcDbLine
 10
2294.3511726786
 20
581.4955278775
 30
0.0
 11
2294.3511726786
 21
530.2989413178
 31
0.0
  0
LINE
  5
530
330
528
100
AcDbEntity
  8
FORMAT
100
AcDbLine
 10
2333.5511726753
 20
680.7172326673
 30
0.0
 11
2333.5511726753
 21
530.2989413178
 31
0.0
  0
LINE
  5
531
330
528
100
AcDbEntity
  8
FORMAT
100
AcDbLine
 10
2294.3511726786
 20
537.2989413178
 30
0.0
 11
2249.9011726786
 21
537.2989413178
 31
0.0
  0
LINE
  5
532
330
528
100
AcDbEntity
  8
FORMAT
100
AcDbLine
 10
2294.3511726786
 20
537.2989413178
 30
0.0
 11
2333.5511726753
 21
537.2989413178
 31
0.0
  0
LINE
  5
533
330
528
100
AcDbEntity
  8
FORMAT
100
AcDbLine
 10
2333.5511726753
 20
537.2989413178
 30
0.0
 11
2423.7688267455
 21
537.2989413178
 31
0.0
  0
MTEXT
  5
534
330
528
100
AcDbEntity
  8
FORMAT
100
AcDbMText
 10
2381.9001136432
 20
568.881102572
 30
0.0
 40
24.5
 41
0.0
 71
     1
 72
     1
  1
28
  7
SLDTEXTSTYLE0
 73
     1
 44
1.0
  0
ENDBLK
  5
52A
330
528
100
AcDbEntity
  8
0
100
AcDbBlockEnd
  0
BLOCK
  5
537
330
536
100
AcDbEntity
  8
0
100
AcDbBlockBegin
  2
_D_26
 70
     0
 10
0.0
 20
0.0
 30
0.0
  3
_D_26
  1

  0
ARC
  5
539
330
536
100
AcDbEntity
  8
FORMAT
100
AcDbCircle
 10
2457.1008156472
 20
637.0909089958
 30
0.0
 40
42.03885414329059
100
AcDbArc
 50
243.4349488229
 51
296.5650511771
  0
ARC
  5
53A
330
536
100
AcDbEntity
  8
FORMAT
100
AcDbCircle
 10
2457.1008156472
 20
599.3200751757
 30
0.0
 40
42.03885414329069
100
AcDbArc
 50
63.4349488229
 51
116.5650511771
  0
SOLID
  5
53B
330
536
100
AcDbEntity
  8
FORMAT
100
AcDbTrace
 10
2475.9011627593
 20
687.0172326673
 30
0.0
 11
2472.3451627593
 21
663.9032326673
 31
0.0
 12
2479.4571627593
 22
663.9032326673
 32
0.0
 13
2479.4571627593
 23
663.9032326673
 33
0.0
  0
SOLID
  5
53C
330
536
100
AcDbEntity
  8
FORMAT
100
AcDbTrace
 10
2475.9011627593
 20
710.8172326673
 30
0.0
 11
2479.4571627593
 21
733.9312326673
 31
0.0
 12
2472.3451627593
 22
733.9312326673
 32
0.0
 13
2472.3451627593
 23
733.9312326673
 33
0.0
  0
LINE
  5
53D
330
536
100
AcDbEntity
  8
FORMAT
100
AcDbLine
 10
2339.8511726753
 20
687.0172326673
 30
0.0
 11
2482.9011627593
 21
687.0172326673
 31
0.0
  0
LINE
  5
53E
330
536
100
AcDbEntity
  8
FORMAT
100
AcDbLine
 10
2339.8511726753
 20
710.8172326673
 30
0.0
 11
2482.9011627593
 21
710.8172326673
 31
0.0
  0
LINE
  5
53F
330
536
100
AcDbEntity
  8
FORMAT
100
AcDbLine
 10
2475.9011627593
 20
687.0172326673
 30
0.0
 11
2475.9011627593
 21
595.0520546679
 31
0.0
  0
LINE
  5
540
330
536
100
AcDbEntity
  8
FORMAT
100
AcDbLine
 10
2475.9011627593
 20
687.0172326673
 30
0.0
 11
2475.9011627593
 21
710.8172326673
 31
0.0
  0
LINE
  5
541
330
536
100
AcDbEntity
  8
FORMAT
100
AcDbLine
 10
2475.9011627593
 20
710.8172326673
 30
0.0
 11
2475.9011627593
 21
755.2672326673
 31
0.0
  0
MTEXT
  5
542
330
536
100
AcDbEntity
  8
FORMAT
100
AcDbMText
 10
2444.3190015051
 20
599.4902147716
 30
0.0
 40
24.5
 41
0.0
 71
     1
 72
     1
  1
17
  7
SLDTEXTSTYLE0
 11
-1.191767205047844E-13
 21
1.0
 31
0.0
 73
     1
 44
1.0
  0
ENDBLK
  5
538
330
536
100
AcDbEntity
  8
0
100
AcDbBlockEnd
  0
BLOCK
  5
546
330
545
100
AcDbEntity
  8
0
100
AcDbBlockBegin
  2
_D_27
 70
     0
 10
0.0
 20
0.0
 30
0.0
  3
_D_27
  1

  0
SOLID
  5
548
330
545
100
AcDbEntity
  8
FORMAT
100
AcDbTrace
 10
2084.3511726786
 20
710.8172326673
 30
0.0
 11
2080.7951726786
 21
687.7032326673
 31
0.0
 12
2087.9071726786
 22
687.7032326673
 32
0.0
 13
2087.9071726786
 23
687.7032326673
 33
0.0
  0
INSERT
  5
549
330
545
100
AcDbEntity
  8
FORMAT
100
AcDbBlockReference
  2
_Dot
 10
2084.3511726786
 20
729.7172326586
 30
991.9171594413
 41
7.112
 42
7.112
 50
270.0
  0
LINE
  5
54A
330
545
100
AcDbEntity
  8
FORMAT
100
AcDbLine
 10
2288.0511726753
 20
710.8172326673
 30
0.0
 11
2077.3511726786
 21
710.8172326673
 31
0.0
  0
LINE
  5
54B
330
545
100
AcDbEntity
  8
FORMAT
100
AcDbLine
 10
2245.3511726786
 20
729.7172326586
 30
0.0
 11
2077.3511726786
 21
729.7172326586
 31
0.0
  0
LINE
  5
54C
330
545
100
AcDbEntity
  8
FORMAT
100
AcDbLine
 10
2084.3511726786
 20
710.8172326673
 30
0.0
 11
2084.3511726786
 21
607.9123978635
 31
0.0
  0
LINE
  5
54D
330
545
100
AcDbEntity
  8
FORMAT
100
AcDbLine
 10
2084.3511726786
 20
710.8172326673
 30
0.0
 11
2084.3511726786
 21
729.7172326586
 31
0.0
  0
LINE
  5
54E
330
545
100
AcDbEntity
  8
FORMAT
100
AcDbLine
 10
2084.3511726786
 20
729.7172326586
 30
0.0
 11
2084.3511726786
 21
774.1672326586
 31
0.0
  0
MTEXT
  5
54F
330
545
100
AcDbEntity
  8
FORMAT
100
AcDbMText
 10
2052.7690114244
 20
607.9123978635
 30
0.0
 40
24.5
 41
0.0
 71
     1
 72
     1
  1
13,5
  7
SLDTEXTSTYLE0
 11
6.123233995736766E-17
 21
1.0
 31
0.0
 73
     1
 44
1.0
  0
ENDBLK
  5
547
330
545
100
AcDbEntity
  8
0
100
AcDbBlockEnd
  0
BLOCK
  5
553
330
552
100
AcDbEntity
  8
0
100
AcDbBlockBegin
  2
_D_28
 70
     0
 10
0.0
 20
0.0
 30
0.0
  3
_D_28
  1

  0
INSERT
  5
555
330
552
100
AcDbEntity
  8
FORMAT
100
AcDbBlockReference
  2
_Dot
 10
2084.3511726786
 20
729.7172326586
 30
991.9171594413
 41
7.112
 42
7.112
 50
90.0
  0
SOLID
  5
556
330
552
100
AcDbEntity
  8
FORMAT
100
AcDbTrace
 10
2084.3511726786
 20
731.8172326586
 30
0.0
 11
2087.9071726786
 21
754.9312326586
 31
0.0
 12
2080.7951726786
 22
754.9312326586
 32
0.0
 13
2080.7951726786
 23
754.9312326586
 33
0.0
  0
LINE
  5
557
330
552
100
AcDbEntity
  8
FORMAT
100
AcDbLine
 10
2245.3511726786
 20
729.7172326586
 30
0.0
 11
2077.3511726786
 21
729.7172326586
 31
0.0
  0
LINE
  5
558
330
552
100
AcDbEntity
  8
FORMAT
100
AcDbLine
 10
2287.3511726781
 20
731.8172326586
 30
0.0
 11
2077.3511726786
 21
731.8172326586
 31
0.0
  0
LINE
  5
559
330
552
100
AcDbEntity
  8
FORMAT
100
AcDbLine
 10
2084.3511726786
 20
729.7172326586
 30
0.0
 11
2084.3511726786
 21
685.2672326586
 31
0.0
  0
LINE
  5
55A
330
552
100
AcDbEntity
  8
FORMAT
100
AcDbLine
 10
2084.3511726786
 20
729.7172326586
 30
0.0
 11
2084.3511726786
 21
731.8172326586
 31
0.0
  0
LINE
  5
55B
330
552
100
AcDbEntity
  8
FORMAT
100
AcDbLine
 10
2084.3511726786
 20
731.8172326586
 30
0.0
 11
2084.3511726786
 21
811.6221987642
 31
0.0
  0
MTEXT
  5
55C
330
552
100
AcDbEntity
  8
FORMAT
100
AcDbMText
 10
2052.7690114244
 20
764.8340054787
 30
0.0
 40
24.5
 41
0.0
 71
     1
 72
     1
  1
1,5
  7
SLDTEXTSTYLE0
 11
6.123233995736766E-17
 21
1.0
 31
0.0
 73
     1
 44
1.0
  0
ENDBLK
  5
554
330
552
100
AcDbEntity
  8
0
100
AcDbBlockEnd
  0
BLOCK
  5
560
330
55F
100
AcDbEntity
  8
0
100
AcDbBlockBegin
  2
_D_29
 70
     0
 10
0.0
 20
0.0
 30
0.0
  3
_D_29
  1

  0
SOLID
  5
562
330
55F
100
AcDbEntity
  8
FORMAT
100
AcDbTrace
 10
2143.7164953201
 20
724.1172326588
 30
0.0
 11
2140.1604953201
 21
701.0032326588
 31
0.0
 12
2147.2724953201
 22
701.0032326588
 32
0.0
 13
2147.2724953201
 23
701.0032326588
 33
0.0
  0
SOLID
  5
563
330
55F
100
AcDbEntity
  8
FORMAT
100
AcDbTrace
 10
2143.7164953201
 20
729.7172326586
 30
0.0
 11
2147.2724953201
 21
752.8312326586
 31
0.0
 12
2140.1604953201
 22
752.8312326586
 32
0.0
 13
2140.1604953201
 23
752.8312326586
 33
0.0
  0
LINE
  5
564
330
55F
100
AcDbEntity
  8
FORMAT
100
AcDbLine
 10
2317.4471348252
 20
724.1172326587
 30
0.0
 11
2136.7164953201
 21
724.1172326588
 31
0.0
  0
LINE
  5
565
330
55F
100
AcDbEntity
  8
FORMAT
100
AcDbLine
 10
2245.3511726786
 20
729.7172326586
 30
0.0
 11
2136.7164953201
 21
729.7172326586
 31
0.0
  0
LINE
  5
566
330
55F
100
AcDbEntity
  8
FORMAT
100
AcDbLine
 10
2143.7164953201
 20
724.1172326588
 30
0.0
 11
2143.7164953201
 21
652.4201863498
 31
0.0
  0
LINE
  5
567
330
55F
100
AcDbEntity
  8
FORMAT
100
AcDbLine
 10
2143.7164953201
 20
724.1172326588
 30
0.0
 11
2143.7164953201
 21
729.7172326586
 31
0.0
  0
LINE
  5
568
330
55F
100
AcDbEntity
  8
FORMAT
100
AcDbLine
 10
2143.7164953201
 20
729.7172326586
 30
0.0
 11
2143.7164953201
 21
774.1672326586
 31
0.0
  0
MTEXT
  5
569
330
55F
100
AcDbEntity
  8
FORMAT
100
AcDbMText
 10
2112.1343340659
 20
652.4201863498
 30
0.0
 40
24.5
 41
0.0
 71
     1
 72
     1
  1
4
  7
SLDTEXTSTYLE0
 11
6.123233995736766E-17
 21
1.0
 31
0.0
 73
     1
 44
1.0
  0
MTEXT
  5
56A
330
55F
100
AcDbEntity
  8
FORMAT
100
AcDbMText
 10
2112.1343340659
 20
671.135463664
 30
0.0
 40
24.5
 41
0.0
 71
     1
 72
     1
  1
*
  7
SLDTEXTSTYLE0
 11
6.123233995736766E-17
 21
1.0
 31
0.0
 73
     1
 44
1.0
  0
ENDBLK
  5
561
330
55F
100
AcDbEntity
  8
0
100
AcDbBlockEnd
  0
BLOCK
  5
56D
330
56C
100
AcDbEntity
  8
0
100
AcDbBlockBegin
  2
_D_30
 70
     0
 10
0.0
 20
0.0
 30
0.0
  3
_D_30
  1

  0
SOLID
  5
56F
330
56C
100
AcDbEntity
  8
FORMAT
100
AcDbTrace
 10
2524.8069508555
 20
710.8172326673
 30
0.0
 11
2521.2509508555
 21
687.7032326673
 31
0.0
 12
2528.3629508555
 22
687.7032326673
 32
0.0
 13
2528.3629508555
 23
687.7032326673
 33
0.0
  0
SOLID
  5
570
330
56C
100
AcDbEntity
  8
FORMAT
100
AcDbTrace
 10
2524.8069508555
 20
714.3172326588
 30
0.0
 11
2528.3629508555
 21
737.4312326588
 31
0.0
 12
2521.2509508555
 22
737.4312326588
 32
0.0
 13
2521.2509508555
 23
737.4312326588
 33
0.0
  0
LINE
  5
571
330
56C
100
AcDbEntity
  8
FORMAT
100
AcDbLine
 10
2339.8511726753
 20
710.8172326673
 30
0.0
 11
2531.8069508555
 21
710.8172326673
 31
0.0
  0
LINE
  5
572
330
56C
100
AcDbEntity
  8
FORMAT
100
AcDbLine
 10
2365.8854986743
 20
714.3172326588
 30
0.0
 11
2531.8069508555
 21
714.3172326588
 31
0.0
  0
LINE
  5
573
330
56C
100
AcDbEntity
  8
FORMAT
100
AcDbLine
 10
2524.8069508555
 20
710.8172326673
 30
0.0
 11
2524.8069508555
 21
627.6579776634
 31
0.0
  0
LINE
  5
574
330
56C
100
AcDbEntity
  8
FORMAT
100
AcDbLine
 10
2524.8069508555
 20
710.8172326673
 30
0.0
 11
2524.8069508555
 21
714.3172326588
 31
0.0
  0
LINE
  5
575
330
56C
100
AcDbEntity
  8
FORMAT
100
AcDbLine
 10
2524.8069508555
 20
714.3172326588
 30
0.0
 11
2524.8069508555
 21
758.7672326588
 31
0.0
  0
MTEXT
  5
576
330
56C
100
AcDbEntity
  8
FORMAT
100
AcDbMText
 10
2493.2247896012
 20
627.6579776634
 30
0.0
 40
24.5
 41
0.0
 71
     1
 72
     1
  1
2,5
  7
SLDTEXTSTYLE0
 11
-8.431571753155453E-14
 21
1.0
 31
0.0
 73
     1
 44
1.0
  0
ENDBLK
  5
56E
330
56C
100
AcDbEntity
  8
0
100
AcDbBlockEnd
  0
BLOCK
  5
579
330
578
100
AcDbEntity
  8
0
100
AcDbBlockBegin
  2
_D_31
 70
     0
 10
0.0
 20
0.0
 30
0.0
  3
_D_31
  1

  0
SOLID
  5
57B
330
578
100
AcDbEntity
  8
FORMAT
100
AcDbTrace
 10
2624.7602791364
 20
714.3172326588
 30
0.0
 11
2621.2042791364
 21
691.2032326588
 31
0.0
 12
2628.3162791364
 22
691.2032326588
 32
0.0
 13
2628.3162791364
 23
691.2032326588
 33
0.0
  0
SOLID
  5
57C
330
578
100
AcDbEntity
  8
FORMAT
100
AcDbTrace
 10
2624.7602791364
 20
731.8172326586
 30
0.0
 11
2628.3162791364
 21
754.9312326586
 31
0.0
 12
2621.2042791364
 22
754.9312326586
 32
0.0
 13
2621.2042791364
 23
754.9312326586
 33
0.0
  0
LINE
  5
57D
330
578
100
AcDbEntity
  8
FORMAT
100
AcDbLine
 10
2365.8854986743
 20
714.3172326588
 30
0.0
 11
2631.7602791364
 21
714.3172326588
 31
0.0
  0
LINE
  5
57E
330
578
100
AcDbEntity
  8
FORMAT
100
AcDbLine
 10
2462.3511726781
 20
731.8172326586
 30
0.0
 11
2631.7602791364
 21
731.8172326586
 31
0.0
  0
LINE
  5
57F
330
578
100
AcDbEntity
  8
FORMAT
100
AcDbLine
 10
2624.7602791364
 20
714.3172326588
 30
0.0
 11
2624.7602791364
 21
624.6275008016
 31
0.0
  0
LINE
  5
580
330
578
100
AcDbEntity
  8
FORMAT
100
AcDbLine
 10
2624.7602791364
 20
714.3172326588
 30
0.0
 11
2624.7602791364
 21
731.8172326586
 31
0.0
  0
LINE
  5
581
330
578
100
AcDbEntity
  8
FORMAT
100
AcDbLine
 10
2624.7602791364
 20
731.8172326586
 30
0.0
 11
2624.7602791364
 21
776.2672326586
 31
0.0
  0
MTEXT
  5
582
330
578
100
AcDbEntity
  8
FORMAT
100
AcDbMText
 10
2593.1781178821
 20
624.6275008016
 30
0.0
 40
24.5
 41
0.0
 71
     1
 72
     1
  1
12,5
  7
SLDTEXTSTYLE0
 11
6.123233995736766E-17
 21
1.0
 31
0.0
 73
     1
 44
1.0
  0
ENDBLK
  5
57A
330
578
100
AcDbEntity
  8
0
100
AcDbBlockEnd
  0
BLOCK
  5
5A5
330
5A4
100
AcDbEntity
  8
0
100
AcDbBlockBegin
  2
_D_32
 70
     0
 10
0.0
 20
0.0
 30
0.0
  3
_D_32
  1

  0
SOLID
  5
5A7
330
5A4
100
AcDbEntity
  8
FORMAT
100
AcDbTrace
 10
1765.1399755302
 20
192.8370275106
 30
0.0
 11
1761.5839755302
 21
169.7230275106
 31
0.0
 12
1768.6959755302
 22
169.7230275106
 32
0.0
 13
1768.6959755302
 23
169.7230275106
 33
0.0
  0
SOLID
  5
5A8
330
5A4
100
AcDbEntity
  8
FORMAT
100
AcDbTrace
 10
1765.1399755302
 20
203.3370275106
 30
0.0
 11
1768.6959755302
 21
226.4510275106
 31
0.0
 12
1761.5839755302
 22
226.4510275106
 32
0.0
 13
1761.5839755302
 23
226.4510275106
 33
0.0
  0
LINE
  5
5A9
330
5A4
100
AcDbEntity
  8
FORMAT
100
AcDbLine
 10
1810.6582605816
 20
192.8370275106
 30
0.0
 11
1758.1399755302
 21
192.8370275106
 31
0.0
  0
LINE
  5
5AA
330
5A4
100
AcDbEntity
  8
FORMAT
100
AcDbLine
 10
1839.1806400276
 20
203.3370275106
 30
0.0
 11
1758.1399755302
 21
203.3370275106
 31
0.0
  0
LINE
  5
5AB
330
5A4
100
AcDbEntity
  8
FORMAT
100
AcDbLine
 10
1765.1399755302
 20
192.8370275106
 30
0.0
 11
1765.1399755302
 21
119.9538615816
 31
0.0
  0
LINE
  5
5AC
330
5A4
100
AcDbEntity
  8
FORMAT
100
AcDbLine
 10
1765.1399755302
 20
192.8370275106
 30
0.0
 11
1765.1399755302
 21
203.3370275106
 31
0.0
  0
LINE
  5
5AD
330
5A4
100
AcDbEntity
  8
FORMAT
100
AcDbLine
 10
1765.1399755302
 20
203.3370275106
 30
0.0
 11
1765.1399755302
 21
247.7870275106
 31
0.0
  0
MTEXT
  5
5AE
330
5A4
100
AcDbEntity
  8
FORMAT
100
AcDbMText
 10
1733.557814276
 20
119.9538615816
 30
0.0
 40
24.5
 41
0.0
 71
     1
 72
     1
  1
7,5
  7
SLDTEXTSTYLE0
 11
6.123233995736766E-17
 21
1.0
 31
0.0
 73
     1
 44
1.0
  0
ENDBLK
  5
5A6
330
5A4
100
AcDbEntity
  8
0
100
AcDbBlockEnd
  0
BLOCK
  5
5B2
330
5B1
100
AcDbEntity
  8
0
100
AcDbBlockBegin
  2
_D_33
 70
     0
 10
0.0
 20
0.0
 30
0.0
  3
_D_33
  1

  0
SOLID
  5
5B4
330
5B1
100
AcDbEntity
  8
FORMAT
100
AcDbTrace
 10
1723.6549450358
 20
203.3370275106
 30
0.0
 11
1727.2109450358
 21
226.4510275106
 31
0.0
 12
1720.0989450358
 22
226.4510275106
 32
0.0
 13
1720.0989450358
 23
226.4510275106
 33
0.0
  0
SOLID
  5
5B5
330
5B1
100
AcDbEntity
  8
FORMAT
100
AcDbTrace
 10
1723.6549450358
 20
309.7370275106
 30
0.0
 11
1720.0989450358
 21
286.6230275106
 31
0.0
 12
1727.2109450358
 22
286.6230275106
 32
0.0
 13
1727.2109450358
 23
286.6230275106
 33
0.0
  0
LINE
  5
5B6
330
5B1
100
AcDbEntity
  8
FORMAT
100
AcDbLine
 10
1831.1306400276
 20
203.3370275106
 30
0.0
 11
1716.6549450358
 21
203.3370275106
 31
0.0
  0
LINE
  5
5B7
330
5B1
100
AcDbEntity
  8
FORMAT
100
AcDbLine
 10
1831.1306400276
 20
309.7370275106
 30
0.0
 11
1716.6549450358
 21
309.7370275106
 31
0.0
  0
LINE
  5
5B8
330
5B1
100
AcDbEntity
  8
FORMAT
100
AcDbLine
 10
1723.6549450358
 20
203.3370275106
 30
0.0
 11
1723.6549450358
 21
309.7370275106
 31
0.0
  0
MTEXT
  5
5B9
330
5B1
100
AcDbEntity
  8
FORMAT
100
AcDbMText
 10
1692.0727837816
 20
237.8217501964
 30
0.0
 40
24.5
 41
0.0
 71
     1
 72
     1
  1
76
  7
SLDTEXTSTYLE0
 11
6.123233995736766E-17
 21
1.0
 31
0.0
 73
     1
 44
1.0
  0
ENDBLK
  5
5B3
330
5B1
100
AcDbEntity
  8
0
100
AcDbBlockEnd
  0
BLOCK
  5
5BC
330
5BB
100
AcDbEntity
  8
0
100
AcDbBlockBegin
  2
SW_CENTERMARKSYMBOL_12
 70
     0
 10
0.0
 20
0.0
 30
0.0
  3
SW_CENTERMARKSYMBOL_12
  1

  0
LINE
  5
5BE
330
5BB
100
AcDbEntity
  8
FORMAT
 62
     0
100
AcDbLine
 10
0.0
 20
0.0
 30
0.0
 11
0.0
 21
3.5000018775
 31
0.0
  0
LINE
  5
5BF
330
5BB
100
AcDbEntity
  8
FORMAT
 62
     0
100
AcDbLine
 10
0.0
 20
0.0
 30
0.0
 11
-3.4999966621
 21
0.0
 31
0.0
  0
LINE
  5
5C0
330
5BB
100
AcDbEntity
  8
FORMAT
 62
     0
100
AcDbLine
 10
0.0
 20
0.0
 30
0.0
 11
0.0
 21
-3.5000018775
 31
0.0
  0
LINE
  5
5C1
330
5BB
100
AcDbEntity
  8
FORMAT
 62
     0
100
AcDbLine
 10
0.0
 20
0.0
 30
0.0
 11
3.4999966621
 21
0.0
 31
0.0
  0
LINE
  5
5C2
330
5BB
100
AcDbEntity
  8
FORMAT
 62
     0
100
AcDbLine
 10
0.0
 20
6.9999985397
 30
0.0
 11
0.0
 21
8.0499954522
 31
0.0
  0
LINE
  5
5C3
330
5BB
100
AcDbEntity
  8
FORMAT
 62
     0
100
AcDbLine
 10
-6.9999933243
 20
0.0
 30
0.0
 11
-8.0500006676
 21
0.0
 31
0.0
  0
LINE
  5
5C4
330
5BB
100
AcDbEntity
  8
FORMAT
 62
     0
100
AcDbLine
 10
0.0
 20
-6.9999985397
 30
0.0
 11
0.0
 21
-8.0500006676
 31
0.0
  0
LINE
  5
5C5
330
5BB
100
AcDbEntity
  8
FORMAT
 62
     0
100
AcDbLine
 10
6.9999933243
 20
0.0
 30
0.0
 11
8.0500006676
 21
0.0
 31
0.0
  0
ENDBLK
  5
5BD
330
5BB
100
AcDbEntity
  8
0
100
AcDbBlockEnd
  0
BLOCK
  5
5C8
330
5C7
100
AcDbEntity
  8
0
100
AcDbBlockBegin
  2
SW_CENTERMARKSYMBOL_13
 70
     0
 10
0.0
 20
0.0
 30
0.0
  3
SW_CENTERMARKSYMBOL_13
  1

  0
LINE
  5
5CA
330
5C7
100
AcDbEntity
  8
FORMAT
 62
     0
100
AcDbLine
 10
0.0
 20
0.0
 30
0.0
 11
0.0
 21
3.5000175238
 31
0.0
  0
LINE
  5
5CB
330
5C7
100
AcDbEntity
  8
FORMAT
 62
     0
100
AcDbLine
 10
0.0
 20
0.0
 30
0.0
 11
-3.4999966621
 21
0.0
 31
0.0
  0
LINE
  5
5CC
330
5C7
100
AcDbEntity
  8
FORMAT
 62
     0
100
AcDbLine
 10
0.0
 20
0.0
 30
0.0
 11
0.0
 21
-3.4999966621
 31
0.0
  0
LINE
  5
5CD
330
5C7
100
AcDbEntity
  8
FORMAT
 62
     0
100
AcDbLine
 10
0.0
 20
0.0
 30
0.0
 11
3.4999966621
 21
0.0
 31
0.0
  0
LINE
  5
5CE
330
5C7
100
AcDbEntity
  8
FORMAT
 62
     0
100
AcDbLine
 10
0.0
 20
7.0000141859
 30
0.0
 11
0.0
 21
8.0500006676
 31
0.0
  0
LINE
  5
5CF
330
5C7
100
AcDbEntity
  8
FORMAT
 62
     0
100
AcDbLine
 10
-6.9999933243
 20
0.0
 30
0.0
 11
-8.0500006676
 21
0.0
 31
0.0
  0
LINE
  5
5D0
330
5C7
100
AcDbEntity
  8
FORMAT
 62
     0
100
AcDbLine
 10
0.0
 20
-6.9999933243
 30
0.0
 11
0.0
 21
-8.0500006676
 31
0.0
  0
LINE
  5
5D1
330
5C7
100
AcDbEntity
  8
FORMAT
 62
     0
100
AcDbLine
 10
6.9999933243
 20
0.0
 30
0.0
 11
8.0500006676
 21
0.0
 31
0.0
  0
ENDBLK
  5
5C9
330
5C7
100
AcDbEntity
  8
0
100
AcDbBlockEnd
  0
ENDSEC
  0
SECTION
  2
ENTITIES
  0
LINE
  5
CA
330
1F
100
AcDbEntity
  8
FORMAT
  6
Continuous
 62
     7
370
    18
100
AcDbLine
 10
2648.7467156628
 20
249.0548071362
 30
0.0
 11
2121.8704816337
 21
249.0548071362
 31
0.0
  0
LINE
  5
CB
330
1F
100
AcDbEntity
  8
FORMAT
  6
Continuous
 62
     7
370
    18
100
AcDbLine
 10
2648.7467156628
 20
341.1944719343
 30
0.0
 11
2869.6070185003
 21
341.1944719343
 31
0.0
  0
LINE
  5
CC
330
1F
100
AcDbEntity
  8
0
  6
Continuous
 62
     7
370
    18
100
AcDbLine
 10
2552.9704263625
 20
249.0548071362
 30
0.0
 11
2552.9704263625
 21
181.3583509723
 31
0.0
  0
LINE
  5
CD
330
1F
100
AcDbEntity
  8
FORMAT
100
AcDbLine
 10
2869.6070185003
 20
2009.0
 30
0.0
 11
69.6070185003
 21
2009.0
 31
0.0
  0
LINE
  5
CE
330
1F
100
AcDbEntity
  8
FORMAT
100
AcDbLine
 10
69.6070185003
 20
2009.0
 30
0.0
 11
69.6070185003
 21
70.0
 31
0.0
  0
LINE
  5
CF
330
1F
100
AcDbEntity
  8
BEMASSUNG
  6
Continuous
 62
     7
370
    18
100
AcDbLine
 10
2648.7467156628
 20
283.9466531596
 30
0.0
 11
2869.6070185003
 21
283.9466531596
 31
0.0
  0
LINE
  5
D0
330
1F
100
AcDbEntity
  8
FORMAT
100
AcDbLine
 10
69.6070185003
 20
70.0
 30
0.0
 11
2869.6070185003
 21
70.0
 31
0.0
  0
LINE
  5
D1
330
1F
100
AcDbEntity
  8
FORMAT
100
AcDbLine
 10
2869.6070185003
 20
70.0
 30
0.0
 11
2869.6070185003
 21
2009.0
 31
0.0
  0
LINE
  5
D2
330
1F
100
AcDbEntity
  8
0
  6
Continuous
 62
     7
370
    18
100
AcDbLine
 10
2121.8704816337
 20
368.7467824209
 30
0.0
 11
2121.8704816337
 21
70.0000160588
 31
0.0
  0
LINE
  5
D3
330
1F
100
AcDbEntity
  8
0
  6
Continuous
 62
     7
370
    18
100
AcDbLine
 10
2766.39523512
 20
70.0
 30
0.0
 11
2766.39523512
 21
135.4292810523
 31
0.0
  0
LINE
  5
D4
330
1F
100
AcDbEntity
  8
0
  6
Continuous
 62
     7
370
    18
100
AcDbLine
 10
2121.8704816337
 20
181.3583509723
 30
0.0
 11
2869.6070185003
 21
181.3583509723
 31
0.0
  0
LINE
  5
D5
330
1F
100
AcDbEntity
  8
0
  6
Continuous
 62
     7
370
    18
100
AcDbLine
 10
2648.7467156628
 20
135.4292810523
 30
0.0
 11
2869.6070185003
 21
135.4292810523
 31
0.0
  0
LINE
  5
D6
330
1F
100
AcDbEntity
  8
0
  6
Continuous
 62
     7
370
    18
100
AcDbLine
 10
2121.8704816337
 20
368.7467824209
 30
0.0
 11
2869.7006917056
 21
368.7467824209
 31
0.0
  0
LINE
  5
D7
330
1F
100
AcDbEntity
  8
0
  6
Continuous
 62
     7
370
    18
100
AcDbLine
 10
2648.7467156628
 20
70.0
 30
0.0
 11
2648.7467156628
 21
368.7467824209
 31
0.0
  0
INSERT
  5
D8
330
1F
100
AcDbEntity
  8
0
  6
Continuous
 62
     7
100
AcDbBlockReference
  2
Block1_3_1
 10
2700.6135347481
 20
189.6696797211
 30
0.0
  0
INSERT
  5
D9
330
1F
100
AcDbEntity
  8
0
  6
Continuous
 62
     7
100
AcDbBlockReference
  2
Block2_3_1
 10
509.1807851128
 20
-261.5944962483
 30
0.0
  0
INSERT
  5
DA
330
1F
100
AcDbEntity
  8
FORMAT
100
AcDbBlockReference
  2
rechtlicher_Hinweis_Katalogzeichnungen_1
 10
86.2294908427
 20
31.5549972483
 30
0.0
 41
0.5
 42
0.5
 43
0.5
  0
MTEXT
  5
DB
330
1F
100
AcDbEntity
  8
FORMAT
100
AcDbMText
 10
2230.7492342515
 20
1919.5150701886
 30
0.0
 40
18.5208333333
 41
0.0
 71
     1
 72
     1
  1
**
  7
SLDTEXTSTYLE0
 73
     1
 44
1.0
  0
MTEXT
  5
DC
330
1F
100
AcDbEntity
  8
FORMAT
100
AcDbMText
 10
2204.1012365355
 20
503.0940344106
 30
0.0
 40
18.5208333333
 41
0.0
 71
     1
 72
     1
  1
* Abstand Oberkante Hebel zu Unterkante Türrahmen
  7
SLDTEXTSTYLE0
 73
     1
 44
1.0
  0
INSERT
  5
E3
330
1F
100
AcDbEntity
  8
FORMAT
100
AcDbBlockReference
  2
SW_NOTE_0_4
 10
90.8231582181
 20
357.8676295584
 30
0.0
  0
MTEXT
  5
E4
330
1F
100
AcDbEntity
  8
0
  6
Continuous
 62
     7
370
     0
100
AcDbMText
 10
2655.2495495755
 20
165.0094332157
 30
0.0
 40
14.0
 41
0.0
 71
     1
 72
     1
  1
Maßstab:
  7
SLDTEXTSTYLE0
 73
     1
 44
1.0
  0
MTEXT
  5
E5
330
1F
100
AcDbEntity
  8
0
  6
Continuous
 62
     7
370
     0
100
AcDbMText
 10
2785.9502817651
 20
125.2286542559
 30
0.0
 40
14.0
 41
0.0
 71
     1
 72
     1
  1
Format
  7
SLDTEXTSTYLE0
 73
     1
 44
1.0
  0
MTEXT
  5
E6
330
1F
100
AcDbEntity
  8
0
  6
Continuous
 62
     7
370
     0
100
AcDbMText
 10
2135.8123898948
 20
356.9818853041
 30
0.0
 40
14.0
 41
0.0
 71
     1
 72
     1
  1
Benennung:
  7
SLDTEXTSTYLE0
 73
     1
 44
1.0
  0
MTEXT
  5
E7
330
1F
100
AcDbEntity
  8
0
  6
Continuous
 62
     7
370
     0
100
AcDbMText
 10
2664.5005395913
 20
125.2286542559
 30
0.0
 40
14.0
 41
0.0
 71
     1
 72
     1
  1
Blatt / von
  7
SLDTEXTSTYLE0
 73
     1
 44
1.0
  0
MTEXT
  5
E8
330
1F
100
AcDbEntity
  8
0
  6
Continuous
 62
     7
370
     0
100
AcDbMText
 10
2706.4725907482
 20
100.6974422258
 30
0.0
 40
17.5
 41
0.0
 71
     2
 72
     1
  1
/
  7
SLDTEXTSTYLE0
 73
     1
 44
1.0
  0
MTEXT
  5
EA
330
1F
100
AcDbEntity
  8
0
  6
Continuous
 62
     7
370
     0
100
AcDbMText
 10
2134.2541581219
 20
214.7882486886
 30
0.0
 40
22.225
 41
0.0
 71
     1
 72
     1
  1
D052-49471
  7
SLDTEXTSTYLE3
 73
     1
 44
1.0
  0
MTEXT
  5
EB
330
1F
100
AcDbEntity
  8
0
  6
Continuous
 62
     7
370
     0
100
AcDbMText
 10
2752.495267605
 20
165.9085614452
 30
0.0
 40
14.8166666667
 41
0.0
 71
     1
 72
     1
  1
1:7
  7
SLDTEXTSTYLE0
 73
     1
 44
1.0
  0
MTEXT
  5
EC
330
1F
100
AcDbEntity
  8
0
  6
Continuous
 62
     7
370
     0
100
AcDbMText
 10
2803.7489693293
 20
99.2074950551
 30
0.0
 40
14.8166666667
 41
0.0
 71
     1
 72
     1
  1
A3
  7
SLDTEXTSTYLE0
 73
     1
 44
1.0
  0
MTEXT
  5
ED
330
1F
100
AcDbEntity
  8
0
  6
Continuous
 62
     7
370
     0
100
AcDbMText
 10
2680.0334055091
 20
99.9642475618
 30
0.0
 40
14.8166666667
 41
0.0
 71
     1
 72
     1
  1
1
  7
SLDTEXTSTYLE0
 73
     1
 44
1.0
  0
MTEXT
  5
EE
330
1F
100
AcDbEntity
  8
0
  6
Continuous
 62
     7
370
     0
100
AcDbMText
 10
2722.5410575592
 20
99.9642475618
 30
0.0
 40
14.8166666667
 41
0.0
 71
     1
 72
     1
  1
1
  7
SLDTEXTSTYLE0
 73
     1
 44
1.0
  0
MTEXT
  5
EF
330
1F
100
AcDbEntity
  8
FORMAT
100
AcDbMText
 10
2137.971220638
 20
240.9301481691
 30
0.0
 40
14.0
 41
0.0
 71
     1
 72
     1
  1
Zeichnungsnummer:
  7
SLDTEXTSTYLE0
 73
     1
 44
1.0
  0
MTEXT
  5
F0
330
1F
100
AcDbEntity
  8
FORMAT
100
AcDbMText
 10
2666.6233339517
 20
361.2067203863
 30
0.0
 40
12.6
 41
0.0
 71
     1
 72
     1
  1
KATALOGZEICHNUNG
  7
SLDTEXTSTYLE3
 73
     1
 44
1.0
  0
MTEXT
  5
F1
330
1F
100
AcDbEntity
  8
FORMAT
100
AcDbMText
 10
2573.4610565193
 20
241.0417881835
 30
0.0
 40
14.0
 41
0.0
 71
     1
 72
     1
  1
Index:
  7
SLDTEXTSTYLE0
 73
     1
 44
1.0
  0
MTEXT
  5
F2
330
1F
100
AcDbEntity
  8
BEMASSUNG
 62
     7
100
AcDbMText
 10
2654.3752871088
 20
335.5547520888
 30
0.0
 40
14.0
 41
0.0
 71
     1
 72
     1
  1
Ausführung:
  7
SLDTEXTSTYLE0
 73
     1
 44
1.0
  0
MTEXT
  5
F3
330
1F
100
AcDbEntity
  8
FORMAT
100
AcDbMText
 10
2134.4508235056
 20
277.1473496808
 30
0.0
 40
17.5
 41
0.0
 71
     1
 72
     1
  1
Bandgegenseite DIN Rechts
  7
SLDTEXTSTYLE3
 73
     1
 44
1.0
  0
MTEXT
  5
F4
330
1F
100
AcDbEntity
  8
FORMAT
100
AcDbMText
 10
2134.4508235056
 20
333.2914097385
 30
0.0
 40
24.5
 41
0.0
 71
     1
 72
     1
  1
ETS 73 (GSD - GB 18 - AV 0)
  7
SLDTEXTSTYLE3
 73
     1
 44
1.0
  0
INSERT
  5
10F
330
1F
100
AcDbEntity
  8
FORMAT
100
AcDbBlockReference
  2
SW_TABLEANNOTATION_0
 10
1659.5974186078
 20
1471.856203797
 30
0.0
  0
LINE
  5
110
330
1F
100
AcDbEntity
  8
0
  6
Continuous
 62
     7
370
    25
100
AcDbLine
 10
1177.5879448841
 20
1611.7489515303
 30
0.0
 11
1177.5879448841
 21
1609.7489515345
 31
0.0
  0
LINE
  5
111
330
1F
100
AcDbEntity
  8
0
  6
Continuous
 62
     7
370
    25
100
AcDbLine
 10
1191.5879448841
 20
1609.7489515345
 30
0.0
 11
1191.5879448841
 21
1611.7489515303
 31
0.0
  0
LINE
  5
112
330
1F
100
AcDbEntity
  8
0
  6
Continuous
 62
     7
370
    25
100
AcDbLine
 10
1189.5879448841
 20
1611.7489515303
 30
0.0
 11
1189.5879448841
 21
1612.2489515303
 31
0.0
  0
LINE
  5
113
330
1F
100
AcDbEntity
  8
0
  6
Continuous
 62
     7
370
    25
100
AcDbLine
 10
1179.5879448841
 20
1612.2489515303
 30
0.0
 11
1179.5879448841
 21
1611.7489515303
 31
0.0
  0
ARC
  5
114
330
1F
100
AcDbEntity
  8
0
  6
Continuous
 62
     7
370
    25
100
AcDbCircle
 10
805.329291739
 20
1622.2489515304
 30
0.0
 40
2.999999999999886
100
AcDbArc
 50
179.9999999998
 51
270.0
  0
LINE
  5
115
330
1F
100
AcDbEntity
  8
0
  6
Continuous
 62
     7
370
    25
100
AcDbLine
 10
772.3292917391
 20
1624.7489515303
 30
0.0
 11
772.3292917391
 21
1613.2489515304
 31
0.0
  0
LINE
  5
116
330
1F
100
AcDbEntity
  8
0
  6
Continuous
 62
     7
370
    25
100
AcDbLine
 10
802.329291739
 20
1622.2489515304
 30
0.0
 11
802.329291739
 21
1624.7489515303
 31
0.0
  0
LINE
  5
117
330
1F
100
AcDbEntity
  8
0
  6
Continuous
 62
     7
370
    25
100
AcDbLine
 10
772.3292917391
 20
1613.2489515304
 30
0.0
 11
773.3292917391
 21
1612.2489515304
 31
0.0
  0
LINE
  5
118
330
1F
100
AcDbEntity
  8
0
  6
Continuous
 62
     7
370
    25
100
AcDbLine
 10
1195.5879448841
 20
1618.2489515303
 30
0.0
 11
1194.5879448841
 21
1619.2489515303
 31
0.0
  0
LINE
  5
119
330
1F
100
AcDbEntity
  8
0
  6
Continuous
 62
     7
370
    25
100
AcDbLine
 10
1194.5879448841
 20
1612.2489515303
 30
0.0
 11
1195.5879448841
 21
1613.2489515303
 31
0.0
  0
LINE
  5
11A
330
1F
100
AcDbEntity
  8
0
  6
Continuous
 62
     7
370
    25
100
AcDbLine
 10
1195.5879448841
 20
1613.2489515303
 30
0.0
 11
1195.5879448841
 21
1618.2489515303
 31
0.0
  0
LINE
  5
11B
330
1F
100
AcDbEntity
  8
0
  6
Continuous
 62
     7
370
    25
100
AcDbLine
 10
764.329291739
 20
1720.7489515303
 30
0.0
 11
764.329291739
 21
1719.7489515303
 31
0.0
  0
LINE
  5
11C
330
1F
100
AcDbEntity
  8
0
  6
Continuous
 62
     7
370
    25
100
AcDbLine
 10
810.329291739
 20
1720.7489515303
 30
0.0
 11
810.329291739
 21
1719.7489515303
 31
0.0
  0
LINE
  5
11D
330
1F
100
AcDbEntity
  8
0
  6
Continuous
 62
     7
370
    25
100
AcDbLine
 10
764.329291739
 20
1720.7489515303
 30
0.0
 11
810.329291739
 21
1720.7489515303
 31
0.0
  0
LINE
  5
11E
330
1F
100
AcDbEntity
  8
0
  6
Continuous
 62
     7
370
    25
100
AcDbLine
 10
810.329291739
 20
1623.7489515303
 30
0.0
 11
807.1030116723
 21
1623.7489515303
 31
0.0
  0
LINE
  5
11F
330
1F
100
AcDbEntity
  8
0
  6
Continuous
 62
     7
370
    25
100
AcDbLine
 10
807.1030116723
 20
1624.7489515303
 30
0.0
 11
807.1030116723
 21
1623.7489515303
 31
0.0
  0
LINE
  5
120
330
1F
100
AcDbEntity
  8
0
  6
Continuous
 62
     7
370
    25
100
AcDbLine
 10
810.329291739
 20
1623.7489515303
 30
0.0
 11
810.329291739
 21
1624.7489515303
 31
0.0
  0
LINE
  5
121
330
1F
100
AcDbEntity
  8
0
  6
Continuous
 62
     7
370
    25
100
AcDbLine
 10
767.5555718057
 20
1623.7489515303
 30
0.0
 11
767.5555718057
 21
1624.7489515303
 31
0.0
  0
LINE
  5
122
330
1F
100
AcDbEntity
  8
0
  6
Continuous
 62
     7
370
    25
100
AcDbLine
 10
767.5555718057
 20
1623.7489515303
 30
0.0
 11
764.329291739
 21
1623.7489515303
 31
0.0
  0
LINE
  5
123
330
1F
100
AcDbEntity
  8
0
  6
Continuous
 62
     7
370
    25
100
AcDbLine
 10
764.329291739
 20
1624.7489515303
 30
0.0
 11
764.329291739
 21
1623.7489515303
 31
0.0
  0
LINE
  5
124
330
1F
100
AcDbEntity
  8
0
  6
Continuous
 62
     7
370
    25
100
AcDbLine
 10
807.1030116723
 20
1623.7489515303
 30
0.0
 11
802.329291739
 21
1623.7489515303
 31
0.0
  0
LINE
  5
125
330
1F
100
AcDbEntity
  8
0
  6
Continuous
 62
     7
370
    25
100
AcDbLine
 10
772.3292917391
 20
1623.7489515303
 30
0.0
 11
767.5555718057
 21
1623.7489515303
 31
0.0
  0
LINE
  5
126
330
1F
100
AcDbEntity
  8
0
  6
Continuous
 62
     7
370
    25
100
AcDbLine
 10
517.329291739
 20
1629.7489515303
 30
0.0
 11
515.329291739
 21
1629.7489515303
 31
0.0
  0
LINE
  5
127
330
1F
100
AcDbEntity
  8
0
  6
Continuous
 62
     7
370
    25
100
AcDbLine
 10
517.329291739
 20
1629.7489515303
 30
0.0
 11
517.329291739
 21
1624.7489515303
 31
0.0
  0
LINE
  5
128
330
1F
100
AcDbEntity
  8
0
  6
Continuous
 62
     7
370
    25
100
AcDbLine
 10
517.329291739
 20
1624.7489515303
 30
0.0
 11
515.329291739
 21
1624.7489515303
 31
0.0
  0
LINE
  5
129
330
1F
100
AcDbEntity
  8
0
  6
Continuous
 62
     7
370
    25
100
AcDbLine
 10
515.329291739
 20
1629.7489515303
 30
0.0
 11
515.329291739
 21
1624.7489515303
 31
0.0
  0
LINE
  5
12A
330
1F
100
AcDbEntity
  8
0
  6
Continuous
 62
     7
370
    25
100
AcDbLine
 10
517.329291739
 20
1714.7489515303
 30
0.0
 11
515.329291739
 21
1714.7489515303
 31
0.0
  0
LINE
  5
12B
330
1F
100
AcDbEntity
  8
0
  6
Continuous
 62
     7
370
    25
100
AcDbLine
 10
517.329291739
 20
1714.7489515303
 30
0.0
 11
517.329291739
 21
1629.7489515303
 31
0.0
  0
LINE
  5
12C
330
1F
100
AcDbEntity
  8
0
  6
Continuous
 62
     7
370
    25
100
AcDbLine
 10
515.329291739
 20
1714.7489515303
 30
0.0
 11
515.329291739
 21
1629.7489515303
 31
0.0
  0
LINE
  5
12D
330
1F
100
AcDbEntity
  8
0
  6
Continuous
 62
     7
370
    25
100
AcDbLine
 10
517.329291739
 20
1719.7489515303
 30
0.0
 11
515.329291739
 21
1719.7489515303
 31
0.0
  0
LINE
  5
12E
330
1F
100
AcDbEntity
  8
0
  6
Continuous
 62
     7
370
    25
100
AcDbLine
 10
517.329291739
 20
1719.7489515303
 30
0.0
 11
517.329291739
 21
1714.7489515303
 31
0.0
  0
LINE
  5
12F
330
1F
100
AcDbEntity
  8
0
  6
Continuous
 62
     7
370
    25
100
AcDbLine
 10
515.329291739
 20
1719.7489515303
 30
0.0
 11
515.329291739
 21
1714.7489515303
 31
0.0
  0
LINE
  5
130
330
1F
100
AcDbEntity
  8
0
  6
Continuous
 62
     7
370
    25
100
AcDbLine
 10
510.829291739
 20
1629.7489515303
 30
0.0
 11
510.829291739
 21
1714.748951535
 31
0.0
  0
LINE
  5
131
330
1F
100
AcDbEntity
  8
0
  6
Continuous
 62
     7
370
    25
100
AcDbLine
 10
515.329291739
 20
1714.7489515303
 30
0.0
 11
510.829291739
 21
1714.7489515303
 31
0.0
  0
LINE
  5
132
330
1F
100
AcDbEntity
  8
0
  6
Continuous
 62
     7
370
    25
100
AcDbLine
 10
510.829291739
 20
1629.7489515303
 30
0.0
 11
515.329291739
 21
1629.7489515303
 31
0.0
  0
LINE
  5
133
330
1F
100
AcDbEntity
  8
0
  6
Continuous
 62
     7
370
    25
100
AcDbLine
 10
507.829291739
 20
1629.7489515303
 30
0.0
 11
510.829291739
 21
1629.7489515303
 31
0.0
  0
LINE
  5
134
330
1F
100
AcDbEntity
  8
0
  6
Continuous
 62
     7
370
    25
100
AcDbLine
 10
507.829291739
 20
1629.7489515303
 30
0.0
 11
507.829291739
 21
1714.7489515303
 31
0.0
  0
LINE
  5
135
330
1F
100
AcDbEntity
  8
0
  6
Continuous
 62
     7
370
    25
100
AcDbLine
 10
510.829291739
 20
1714.7489515303
 30
0.0
 11
507.829291739
 21
1714.7489515303
 31
0.0
  0
LINE
  5
136
330
1F
100
AcDbEntity
  8
0
  6
Continuous
 62
     7
370
    25
100
AcDbLine
 10
510.829291739
 20
1714.7489515397
 30
0.0
 11
510.829291739
 21
1717.7489515303
 31
0.0
  0
LINE
  5
137
330
1F
100
AcDbEntity
  8
0
  6
Continuous
 62
     7
370
    25
100
AcDbLine
 10
510.829291739
 20
1717.7489515303
 30
0.0
 11
515.329291739
 21
1717.7489515303
 31
0.0
  0
LINE
  5
138
330
1F
100
AcDbEntity
  8
0
  6
Continuous
 62
     7
370
    25
100
AcDbLine
 10
515.329291739
 20
1626.7489515303
 30
0.0
 11
510.829291739
 21
1626.7489515303
 31
0.0
  0
LINE
  5
139
330
1F
100
AcDbEntity
  8
0
  6
Continuous
 62
     7
370
    25
100
AcDbLine
 10
510.829291739
 20
1626.7489515303
 30
0.0
 11
510.829291739
 21
1629.7489515303
 31
0.0
  0
ARC
  5
13A
330
1F
100
AcDbEntity
  8
0
  6
Continuous
 62
     7
370
    25
100
AcDbCircle
 10
510.829291739
 20
1629.7489515303
 30
0.0
 40
3.000000000000227
100
AcDbArc
 50
180.0
 51
270.0
  0
ARC
  5
13B
330
1F
100
AcDbEntity
  8
0
  6
Continuous
 62
     7
370
    25
100
AcDbCircle
 10
510.829291739
 20
1714.7489515303
 30
0.0
 40
3.000000000000057
100
AcDbArc
 50
90.0
 51
180.0
  0
LINE
  5
13C
330
1F
100
AcDbEntity
  8
0
  6
Continuous
 62
     7
370
    25
100
AcDbLine
 10
1189.329291739
 20
1714.7489515302
 30
0.0
 11
1189.329291739
 21
1719.7489515302
 31
0.0
  0
LINE
  5
13D
330
1F
100
AcDbEntity
  8
0
  6
Continuous
 62
     7
370
    25
100
AcDbLine
 10
1187.329291739
 20
1714.7489515302
 30
0.0
 11
1189.329291739
 21
1714.7489515302
 31
0.0
  0
LINE
  5
13E
330
1F
100
AcDbEntity
  8
0
  6
Continuous
 62
     7
370
    25
100
AcDbLine
 10
1187.329291739
 20
1714.7489515302
 30
0.0
 11
1187.329291739
 21
1719.7489515302
 31
0.0
  0
LINE
  5
13F
330
1F
100
AcDbEntity
  8
0
  6
Continuous
 62
     7
370
    25
100
AcDbLine
 10
1187.329291739
 20
1719.7489515302
 30
0.0
 11
1189.329291739
 21
1719.7489515302
 31
0.0
  0
LINE
  5
140
330
1F
100
AcDbEntity
  8
0
  6
Continuous
 62
     7
370
    25
100
AcDbLine
 10
1189.329291739
 20
1624.7489515302
 30
0.0
 11
1189.329291739
 21
1629.7489515302
 31
0.0
  0
LINE
  5
141
330
1F
100
AcDbEntity
  8
0
  6
Continuous
 62
     7
370
    25
100
AcDbLine
 10
1187.329291739
 20
1624.7489515302
 30
0.0
 11
1189.329291739
 21
1624.7489515302
 31
0.0
  0
LINE
  5
142
330
1F
100
AcDbEntity
  8
0
  6
Continuous
 62
     7
370
    25
100
AcDbLine
 10
1187.329291739
 20
1624.7489515302
 30
0.0
 11
1187.329291739
 21
1629.7489515302
 31
0.0
  0
LINE
  5
143
330
1F
100
AcDbEntity
  8
0
  6
Continuous
 62
     7
370
    25
100
AcDbLine
 10
1187.329291739
 20
1629.7489515302
 30
0.0
 11
1189.329291739
 21
1629.7489515302
 31
0.0
  0
LINE
  5
144
330
1F
100
AcDbEntity
  8
0
  6
Continuous
 62
     7
370
    25
100
AcDbLine
 10
1189.329291739
 20
1629.7489515302
 30
0.0
 11
1189.329291739
 21
1714.7489515302
 31
0.0
  0
LINE
  5
145
330
1F
100
AcDbEntity
  8
0
  6
Continuous
 62
     7
370
    25
100
AcDbLine
 10
1187.329291739
 20
1629.7489515302
 30
0.0
 11
1187.329291739
 21
1714.7489515302
 31
0.0
  0
LINE
  5
146
330
1F
100
AcDbEntity
  8
0
  6
Continuous
 62
     7
370
    25
100
AcDbLine
 10
1189.329291739
 20
1629.7489515302
 30
0.0
 11
1193.829291739
 21
1629.7489515302
 31
0.0
  0
LINE
  5
147
330
1F
100
AcDbEntity
  8
0
  6
Continuous
 62
     7
370
    25
100
AcDbLine
 10
1193.829291739
 20
1629.7489515208
 30
0.0
 11
1193.829291739
 21
1626.7489515302
 31
0.0
  0
LINE
  5
148
330
1F
100
AcDbEntity
  8
0
  6
Continuous
 62
     7
370
    25
100
AcDbLine
 10
1193.829291739
 20
1626.7489515302
 30
0.0
 11
1189.329291739
 21
1626.7489515302
 31
0.0
  0
LINE
  5
149
330
1F
100
AcDbEntity
  8
0
  6
Continuous
 62
     7
370
    25
100
AcDbLine
 10
1193.829291739
 20
1714.7489515302
 30
0.0
 11
1193.829291739
 21
1629.7489515255
 31
0.0
  0
LINE
  5
14A
330
1F
100
AcDbEntity
  8
0
  6
Continuous
 62
     7
370
    25
100
AcDbLine
 10
1196.829291739
 20
1714.7489515302
 30
0.0
 11
1193.829291739
 21
1714.7489515302
 31
0.0
  0
LINE
  5
14B
330
1F
100
AcDbEntity
  8
0
  6
Continuous
 62
     7
370
    25
100
AcDbLine
 10
1196.829291739
 20
1714.7489515302
 30
0.0
 11
1196.829291739
 21
1629.7489515302
 31
0.0
  0
LINE
  5
14C
330
1F
100
AcDbEntity
  8
0
  6
Continuous
 62
     7
370
    25
100
AcDbLine
 10
1193.829291739
 20
1629.7489515302
 30
0.0
 11
1196.829291739
 21
1629.7489515302
 31
0.0
  0
LINE
  5
14D
330
1F
100
AcDbEntity
  8
0
  6
Continuous
 62
     7
370
    25
100
AcDbLine
 10
1193.829291739
 20
1714.7489515302
 30
0.0
 11
1189.329291739
 21
1714.7489515302
 31
0.0
  0
LINE
  5
14E
330
1F
100
AcDbEntity
  8
0
  6
Continuous
 62
     7
370
    25
100
AcDbLine
 10
1189.329291739
 20
1717.7489515302
 30
0.0
 11
1193.829291739
 21
1717.7489515302
 31
0.0
  0
LINE
  5
14F
330
1F
100
AcDbEntity
  8
0
  6
Continuous
 62
     7
370
    25
100
AcDbLine
 10
1193.829291739
 20
1717.7489515302
 30
0.0
 11
1193.829291739
 21
1714.7489515302
 31
0.0
  0
ARC
  5
150
330
1F
100
AcDbEntity
  8
0
  6
Continuous
 62
     7
370
    25
100
AcDbCircle
 10
1193.829291739
 20
1714.7489515302
 30
0.0
 40
3.000000000000227
100
AcDbArc
 50
0.0
 51
90.0
  0
ARC
  5
151
330
1F
100
AcDbEntity
  8
0
  6
Continuous
 62
     7
370
    25
100
AcDbCircle
 10
1193.829291739
 20
1629.7489515302
 30
0.0
 40
2.999999999999773
100
AcDbArc
 50
270.0
 51
0.0
  0
LINE
  5
152
330
1F
100
AcDbEntity
  8
0
  6
Continuous
 62
     7
370
    25
100
AcDbLine
 10
517.329291739
 20
1714.7489515303
 30
0.0
 11
1187.329291739
 21
1714.7489515303
 31
0.0
  0
LINE
  5
153
330
1F
100
AcDbEntity
  8
0
  6
Continuous
 62
     7
370
    25
100
AcDbLine
 10
517.329291739
 20
1629.7489515303
 30
0.0
 11
1187.329291739
 21
1629.7489515303
 31
0.0
  0
LINE
  5
154
330
1F
100
AcDbEntity
  8
0
  6
Continuous
 62
     7
370
    25
100
AcDbLine
 10
517.329291739
 20
1719.7489515303
 30
0.0
 11
1187.329291739
 21
1719.7489515303
 31
0.0
  0
LINE
  5
155
330
1F
100
AcDbEntity
  8
0
  6
Continuous
 62
     7
370
    25
100
AcDbLine
 10
517.329291739
 20
1624.7489515303
 30
0.0
 11
1187.329291739
 21
1624.7489515303
 31
0.0
  0
LINE
  5
156
330
1F
100
AcDbEntity
  8
0
  6
Continuous
 62
     7
370
    25
100
AcDbLine
 10
1191.5879448841
 20
1611.7489515303
 30
0.0
 11
1177.5879448841
 21
1611.7489515303
 31
0.0
  0
LWPOLYLINE
  5
157
330
1F
100
AcDbEntity
  8
0
  6
Continuous
 62
     7
370
    25
100
AcDbPolyline
 90
       16
 70
   128
 43
0.0
 10
800.2017132401
 20
1619.2489515304
 10
798.3957126892
 20
1619.3852093315
 10
796.5445573824
 20
1619.7445677503
 10
794.6447341184
 20
1620.2702658758
 10
793.3371294316
 20
1620.6945836763
 10
791.8689743413
 20
1621.2112189847
 10
791.5312004891
 20
1621.3342438943
 10
791.1868223274
 20
1621.4608875679
 10
790.8356969888
 20
1621.5909781749
 10
790.477654681
 20
1621.7243194515
 10
789.4479782313
 20
1622.1118530359
 10
789.182256565
 20
1622.2120107217
 10
789.1115939912
 20
1622.238388528
 10
789.0918189388
 20
1622.2456469807
 10
789.0858211682
 20
1622.2477934957
 10
789.0824167391
 20
1622.2489515304
  0
LINE
  5
158
330
1F
100
AcDbEntity
  8
0
  6
Continuous
 62
     7
370
    25
100
AcDbLine
 10
800.3185882401
 20
1618.2489515304
 30
0.0
 11
800.2017132401
 21
1619.2489515304
 31
0.0
  0
LWPOLYLINE
  5
159
330
1F
100
AcDbEntity
  8
0
  6
Continuous
 62
     7
370
    25
100
AcDbPolyline
 90
       16
 70
   128
 43
0.0
 10
800.3185882401
 20
1618.2489515304
 10
798.3338482601
 20
1618.4282196265
 10
796.3607178981
 20
1618.9070889199
 10
794.4123813265
 20
1619.6107115682
 10
793.572834875
 20
1619.9713812612
 10
792.6704911211
 20
1620.3895799611
 10
791.7053500648
 20
1620.865307668
 10
790.388506686
 20
1621.5494408079
 10
790.149778415
 20
1621.676117361
 10
789.9318982928
 20
1621.7924981029
 10
789.7348663196
 20
1621.8985830333
 10
789.259508985
 20
1622.1550698047
 10
789.133679726
 20
1622.2223362983
 10
789.0987274485
 20
1622.240725322
 10
789.0882418978
 20
1622.2461087781
 10
789.0824167391
 20
1622.2489515304
  0
LINE
  5
15A
330
1F
100
AcDbEntity
  8
0
  6
Continuous
 62
     7
370
    25
100
AcDbLine
 10
789.0824167391
 20
1613.2489515304
 30
0.0
 11
789.0824167391
 21
1622.2489515304
 31
0.0
  0
LINE
  5
15B
330
1F
100
AcDbEntity
  8
0
  6
Continuous
 62
     7
370
    25
100
AcDbLine
 10
789.0824167391
 20
1613.2489515304
 30
0.0
 11
772.3292917391
 21
1613.2489515304
 31
0.0
  0
LINE
  5
15C
330
1F
100
AcDbEntity
  8
0
  6
Continuous
 62
     7
370
    25
100
AcDbLine
 10
788.9655417391
 20
1612.2489515304
 30
0.0
 11
789.0824167391
 21
1613.2489515304
 31
0.0
  0
LINE
  5
15D
330
1F
100
AcDbEntity
  8
0
  6
Continuous
 62
     7
370
    25
100
AcDbLine
 10
788.9655417391
 20
1612.2489515304
 30
0.0
 11
773.3292917391
 21
1612.2489515304
 31
0.0
  0
LINE
  5
15E
330
1F
100
AcDbEntity
  8
0
  6
Continuous
 62
     7
370
    25
100
AcDbLine
 10
998.111263782
 20
1613.2489515303
 30
0.0
 11
998.111263782
 21
1618.2489515303
 31
0.0
  0
LINE
  5
15F
330
1F
100
AcDbEntity
  8
0
  6
Continuous
 62
     7
370
    25
100
AcDbLine
 10
998.111263782
 20
1613.2489515303
 30
0.0
 11
789.0824167391
 21
1613.2489515304
 31
0.0
  0
LINE
  5
160
330
1F
100
AcDbEntity
  8
0
  6
Continuous
 62
     7
370
    25
100
AcDbLine
 10
998.111263782
 20
1618.2489515303
 30
0.0
 11
800.3185882401
 21
1618.2489515304
 31
0.0
  0
LINE
  5
161
330
1F
100
AcDbEntity
  8
0
  6
Continuous
 62
     7
370
    25
100
AcDbLine
 10
998.111263782
 20
1613.2489515303
 30
0.0
 11
997.994388782
 21
1612.2489515304
 31
0.0
  0
LINE
  5
162
330
1F
100
AcDbEntity
  8
0
  6
Continuous
 62
     7
370
    25
100
AcDbLine
 10
997.994388782
 20
1612.2489515304
 30
0.0
 11
788.9655417391
 21
1612.2489515304
 31
0.0
  0
LINE
  5
163
330
1F
100
AcDbEntity
  8
0
  6
Continuous
 62
     7
370
    25
100
AcDbLine
 10
800.2017132401
 20
1619.2489515304
 30
0.0
 11
997.994388782
 21
1619.2489515303
 31
0.0
  0
LINE
  5
164
330
1F
100
AcDbEntity
  8
0
  6
Continuous
 62
     7
370
    25
100
AcDbLine
 10
998.111263782
 20
1618.2489515303
 30
0.0
 11
997.994388782
 21
1619.2489515303
 31
0.0
  0
LINE
  5
165
330
1F
100
AcDbEntity
  8
0
  6
Continuous
 62
     7
370
    25
100
AcDbLine
 10
999.0221744265
 20
1612.2489515304
 30
0.0
 11
999.1600246437
 21
1613.2489515303
 31
0.0
  0
LINE
  5
166
330
1F
100
AcDbEntity
  8
0
  6
Continuous
 62
     7
370
    25
100
AcDbLine
 10
998.111263782
 20
1613.2489515303
 30
0.0
 11
999.1600246437
 21
1613.2489515303
 31
0.0
  0
LINE
  5
167
330
1F
100
AcDbEntity
  8
0
  6
Continuous
 62
     7
370
    25
100
AcDbLine
 10
999.0221744265
 20
1612.2489515304
 30
0.0
 11
997.994388782
 21
1612.2489515304
 31
0.0
  0
LINE
  5
168
330
1F
100
AcDbEntity
  8
0
  6
Continuous
 62
     7
370
    25
100
AcDbLine
 10
999.1600246438
 20
1618.2489515303
 30
0.0
 11
998.111263782
 21
1618.2489515303
 31
0.0
  0
LINE
  5
169
330
1F
100
AcDbEntity
  8
0
  6
Continuous
 62
     7
370
    25
100
AcDbLine
 10
999.1600246438
 20
1618.2489515303
 30
0.0
 11
999.1600246437
 21
1613.2489515303
 31
0.0
  0
LINE
  5
16A
330
1F
100
AcDbEntity
  8
0
  6
Continuous
 62
     7
370
    25
100
AcDbLine
 10
999.0221744265
 20
1619.2489515303
 30
0.0
 11
999.1600246438
 21
1618.2489515303
 31
0.0
  0
LINE
  5
16B
330
1F
100
AcDbEntity
  8
0
  6
Continuous
 62
     7
370
    25
100
AcDbLine
 10
997.994388782
 20
1619.2489515303
 30
0.0
 11
999.0221744265
 21
1619.2489515303
 31
0.0
  0
LINE
  5
16C
330
1F
100
AcDbEntity
  8
0
  6
Continuous
 62
     7
370
    25
100
AcDbLine
 10
1185.9664470565
 20
1612.2489515303
 30
0.0
 11
1186.1042972738
 21
1613.2489515303
 31
0.0
  0
LINE
  5
16D
330
1F
100
AcDbEntity
  8
0
  6
Continuous
 62
     7
370
    25
100
AcDbLine
 10
1186.1042972738
 20
1613.2489515303
 30
0.0
 11
999.1600246437
 21
1613.2489515303
 31
0.0
  0
LINE
  5
16E
330
1F
100
AcDbEntity
  8
0
  6
Continuous
 62
     7
370
    25
100
AcDbLine
 10
1185.9664470565
 20
1612.2489515303
 30
0.0
 11
999.0221744265
 21
1612.2489515304
 31
0.0
  0
LINE
  5
16F
330
1F
100
AcDbEntity
  8
0
  6
Continuous
 62
     7
370
    25
100
AcDbLine
 10
1186.1042972738
 20
1618.2489515303
 30
0.0
 11
1185.9664470565
 21
1619.2489515303
 31
0.0
  0
LINE
  5
170
330
1F
100
AcDbEntity
  8
0
  6
Continuous
 62
     7
370
    25
100
AcDbLine
 10
1186.1042972738
 20
1618.2489515303
 30
0.0
 11
999.1600246438
 21
1618.2489515303
 31
0.0
  0
LINE
  5
171
330
1F
100
AcDbEntity
  8
0
  6
Continuous
 62
     7
370
    25
100
AcDbLine
 10
999.0221744265
 20
1619.2489515303
 30
0.0
 11
1185.9664470565
 21
1619.2489515303
 31
0.0
  0
LINE
  5
172
330
1F
100
AcDbEntity
  8
0
  6
Continuous
 62
     7
370
    25
100
AcDbLine
 10
1186.1042972738
 20
1613.2489515303
 30
0.0
 11
1186.1042972738
 21
1618.2489515303
 31
0.0
  0
LINE
  5
173
330
1F
100
AcDbEntity
  8
0
  6
Continuous
 62
     7
370
    25
100
AcDbLine
 10
1195.5879448841
 20
1618.2489515303
 30
0.0
 11
1186.1042972738
 21
1618.2489515303
 31
0.0
  0
LINE
  5
174
330
1F
100
AcDbEntity
  8
0
  6
Continuous
 62
     7
370
    25
100
AcDbLine
 10
1185.9664470565
 20
1619.2489515303
 30
0.0
 11
1194.5879448841
 21
1619.2489515303
 31
0.0
  0
LINE
  5
175
330
1F
100
AcDbEntity
  8
0
  6
Continuous
 62
     7
370
    25
100
AcDbLine
 10
1195.5879448841
 20
1613.2489515303
 30
0.0
 11
1186.1042972738
 21
1613.2489515303
 31
0.0
  0
LINE
  5
176
330
1F
100
AcDbEntity
  8
0
  6
Continuous
 62
     7
370
    25
100
AcDbLine
 10
1194.5879448841
 20
1612.2489515303
 30
0.0
 11
1185.9664470565
 21
1612.2489515303
 31
0.0
  0
LINE
  5
177
330
1F
100
AcDbEntity
  8
0
  6
Continuous
 62
     7
370
    25
100
AcDbLine
 10
1239.329301326
 20
1609.2489515365
 30
0.0
 11
1239.329301326
 21
1593.2489515365
 31
0.0
  0
LINE
  5
178
330
1F
100
AcDbEntity
  8
0
  6
Continuous
 62
     7
370
    25
100
AcDbLine
 10
1238.829301326
 20
1593.2489515365
 30
0.0
 11
1239.329301326
 21
1593.2489515365
 31
0.0
  0
LINE
  5
179
330
1F
100
AcDbEntity
  8
0
  6
Continuous
 62
     7
370
    25
100
AcDbLine
 10
1238.829301326
 20
1609.2489515365
 30
0.0
 11
1238.829301326
 21
1593.2489515365
 31
0.0
  0
LINE
  5
17A
330
1F
100
AcDbEntity
  8
0
  6
Continuous
 62
     7
370
    25
100
AcDbLine
 10
1239.329301326
 20
1609.2489515365
 30
0.0
 11
1238.829301326
 21
1609.2489515365
 31
0.0
  0
LINE
  5
17B
330
1F
100
AcDbEntity
  8
0
  6
Continuous
 62
     7
370
    25
100
AcDbLine
 10
1221.3293013265
 20
1593.2489515365
 30
0.0
 11
1238.829301326
 21
1593.2489515365
 31
0.0
  0
LINE
  5
17C
330
1F
100
AcDbEntity
  8
0
  6
Continuous
 62
     7
370
    25
100
AcDbLine
 10
1221.3293013266
 20
1609.2489515365
 30
0.0
 11
1221.3293013265
 21
1593.2489515365
 31
0.0
  0
LINE
  5
17D
330
1F
100
AcDbEntity
  8
0
  6
Continuous
 62
     7
370
    25
100
AcDbLine
 10
1238.829301326
 20
1609.2489515365
 30
0.0
 11
1221.3293013266
 21
1609.2489515365
 31
0.0
  0
LINE
  5
17E
330
1F
100
AcDbEntity
  8
0
  6
Continuous
 62
     7
370
    25
100
AcDbLine
 10
1220.8293013263
 20
1593.2489515365
 30
0.0
 11
1221.3293013265
 21
1593.2489515365
 31
0.0
  0
LINE
  5
17F
330
1F
100
AcDbEntity
  8
0
  6
Continuous
 62
     7
370
    25
100
AcDbLine
 10
1220.8293013266
 20
1609.2489515365
 30
0.0
 11
1220.8293013263
 21
1593.2489515365
 31
0.0
  0
LINE
  5
180
330
1F
100
AcDbEntity
  8
0
  6
Continuous
 62
     7
370
    25
100
AcDbLine
 10
1221.3293013266
 20
1609.2489515365
 30
0.0
 11
1220.8293013266
 21
1609.2489515365
 31
0.0
  0
LINE
  5
181
330
1F
100
AcDbEntity
  8
0
  6
Continuous
 62
     7
370
    25
100
AcDbLine
 10
1221.3293013266
 20
1609.7489515365
 30
0.0
 11
1221.3293013266
 21
1609.2489515365
 31
0.0
  0
LINE
  5
182
330
1F
100
AcDbEntity
  8
0
  6
Continuous
 62
     7
370
    25
100
AcDbLine
 10
1221.3293013266
 20
1609.7489515365
 30
0.0
 11
1238.829301326
 21
1609.7489515365
 31
0.0
  0
LINE
  5
183
330
1F
100
AcDbEntity
  8
0
  6
Continuous
 62
     7
370
    25
100
AcDbLine
 10
1238.829301326
 20
1609.7489515365
 30
0.0
 11
1238.829301326
 21
1609.2489515365
 31
0.0
  0
ARC
  5
184
330
1F
100
AcDbEntity
  8
0
  6
Continuous
 62
     7
370
    25
100
AcDbCircle
 10
1238.829301326
 20
1609.2489515365
 30
0.0
 40
0.5
100
AcDbArc
 50
0.0000000002
 51
90.0
  0
ARC
  5
185
330
1F
100
AcDbEntity
  8
0
  6
Continuous
 62
     7
370
    25
100
AcDbCircle
 10
1221.3293013266
 20
1609.2489515365
 30
0.0
 40
0.5000000000002274
100
AcDbArc
 50
90.0
 51
179.9999999989
  0
ARC
  5
186
330
1F
100
AcDbEntity
  8
0
  6
Continuous
 62
     7
370
    25
100
AcDbCircle
 10
1238.829301326
 20
1593.2489515365
 30
0.0
 40
0.5
100
AcDbArc
 50
270.0
 51
0.0
  0
LINE
  5
187
330
1F
100
AcDbEntity
  8
0
  6
Continuous
 62
     7
370
    25
100
AcDbLine
 10
1238.829301326
 20
1593.2489515365
 30
0.0
 11
1238.829301326
 21
1592.7489515365
 31
0.0
  0
LINE
  5
188
330
1F
100
AcDbEntity
  8
0
  6
Continuous
 62
     7
370
    25
100
AcDbLine
 10
1238.829301326
 20
1592.7489515365
 30
0.0
 11
1221.3293013263
 21
1592.7489515365
 31
0.0
  0
LINE
  5
189
330
1F
100
AcDbEntity
  8
0
  6
Continuous
 62
     7
370
    25
100
AcDbLine
 10
1221.3293013265
 20
1593.2489515365
 30
0.0
 11
1221.3293013263
 21
1592.7489515365
 31
0.0
  0
ARC
  5
18A
330
1F
100
AcDbEntity
  8
0
  6
Continuous
 62
     7
370
    25
100
AcDbCircle
 10
1221.3293013263
 20
1593.2489515365
 30
0.0
 40
0.5000000000002274
100
AcDbArc
 50
179.9999999989
 51
270.0
  0
LINE
  5
18B
330
1F
100
AcDbEntity
  8
0
  6
Continuous
 62
     7
370
    25
100
AcDbLine
 10
604.8293013254
 20
1609.2489515365
 30
0.0
 11
604.3293013254
 21
1609.2489515365
 31
0.0
  0
LINE
  5
18C
330
1F
100
AcDbEntity
  8
0
  6
Continuous
 62
     7
370
    25
100
AcDbLine
 10
604.8293013257
 20
1593.2489515365
 30
0.0
 11
604.8293013254
 21
1609.2489515365
 31
0.0
  0
LINE
  5
18D
330
1F
100
AcDbEntity
  8
0
  6
Continuous
 62
     7
370
    25
100
AcDbLine
 10
604.3293013257
 20
1593.2489515365
 30
0.0
 11
604.8293013257
 21
1593.2489515365
 31
0.0
  0
LINE
  5
18E
330
1F
100
AcDbEntity
  8
0
  6
Continuous
 62
     7
370
    25
100
AcDbLine
 10
604.3293013257
 20
1593.2489515365
 30
0.0
 11
604.3293013254
 21
1609.2489515365
 31
0.0
  0
LINE
  5
18F
330
1F
100
AcDbEntity
  8
0
  6
Continuous
 62
     7
370
    25
100
AcDbLine
 10
586.829301326
 20
1593.2489515365
 30
0.0
 11
586.829301326
 21
1609.2489515365
 31
0.0
  0
LINE
  5
190
330
1F
100
AcDbEntity
  8
0
  6
Continuous
 62
     7
370
    25
100
AcDbLine
 10
604.3293013254
 20
1609.2489515365
 30
0.0
 11
586.829301326
 21
1609.2489515365
 31
0.0
  0
LINE
  5
191
330
1F
100
AcDbEntity
  8
0
  6
Continuous
 62
     7
370
    25
100
AcDbLine
 10
586.829301326
 20
1593.2489515365
 30
0.0
 11
604.3293013257
 21
1593.2489515365
 31
0.0
  0
LINE
  5
192
330
1F
100
AcDbEntity
  8
0
  6
Continuous
 62
     7
370
    25
100
AcDbLine
 10
586.829301326
 20
1609.2489515365
 30
0.0
 11
586.829301326
 21
1609.7489515365
 31
0.0
  0
LINE
  5
193
330
1F
100
AcDbEntity
  8
0
  6
Continuous
 62
     7
370
    25
100
AcDbLine
 10
586.829301326
 20
1609.7489515365
 30
0.0
 11
604.3293013254
 21
1609.7489515365
 31
0.0
  0
LINE
  5
194
330
1F
100
AcDbEntity
  8
0
  6
Continuous
 62
     7
370
    25
100
AcDbLine
 10
604.3293013254
 20
1609.2489515365
 30
0.0
 11
604.3293013254
 21
1609.7489515365
 31
0.0
  0
ARC
  5
195
330
1F
100
AcDbEntity
  8
0
  6
Continuous
 62
     7
370
    25
100
AcDbCircle
 10
604.3293013254
 20
1609.2489515365
 30
0.0
 40
0.5
100
AcDbArc
 50
0.000000003
 51
90.0
  0
LINE
  5
196
330
1F
100
AcDbEntity
  8
0
  6
Continuous
 62
     7
370
    25
100
AcDbLine
 10
586.829301326
 20
1609.2489515365
 30
0.0
 11
586.329301326
 21
1609.2489515365
 31
0.0
  0
ARC
  5
197
330
1F
100
AcDbEntity
  8
0
  6
Continuous
 62
     7
370
    25
100
AcDbCircle
 10
586.829301326
 20
1609.2489515365
 30
0.0
 40
0.5000000000001137
100
AcDbArc
 50
89.9999999939
 51
180.0
  0
LINE
  5
198
330
1F
100
AcDbEntity
  8
0
  6
Continuous
 62
     7
370
    25
100
AcDbLine
 10
586.329301326
 20
1593.2489515365
 30
0.0
 11
586.829301326
 21
1593.2489515365
 31
0.0
  0
LINE
  5
199
330
1F
100
AcDbEntity
  8
0
  6
Continuous
 62
     7
370
    25
100
AcDbLine
 10
586.329301326
 20
1593.2489515365
 30
0.0
 11
586.329301326
 21
1609.2489515365
 31
0.0
  0
LINE
  5
19A
330
1F
100
AcDbEntity
  8
0
  6
Continuous
 62
     7
370
    25
100
AcDbLine
 10
586.829301326
 20
1593.2489515365
 30
0.0
 11
586.829301326
 21
1592.7489515365
 31
0.0
  0
LINE
  5
19B
330
1F
100
AcDbEntity
  8
0
  6
Continuous
 62
     7
370
    25
100
AcDbLine
 10
604.3293013257
 20
1592.7489515365
 30
0.0
 11
604.3293013257
 21
1593.2489515365
 31
0.0
  0
LINE
  5
19C
330
1F
100
AcDbEntity
  8
0
  6
Continuous
 62
     7
370
    25
100
AcDbLine
 10
604.3293013257
 20
1592.7489515365
 30
0.0
 11
586.829301326
 21
1592.7489515365
 31
0.0
  0
ARC
  5
19D
330
1F
100
AcDbEntity
  8
0
  6
Continuous
 62
     7
370
    25
100
AcDbCircle
 10
586.829301326
 20
1593.2489515365
 30
0.0
 40
0.5000000000001137
100
AcDbArc
 50
180.0
 51
270.0
  0
ARC
  5
19E
330
1F
100
AcDbEntity
  8
0
  6
Continuous
 62
     7
370
    25
100
AcDbCircle
 10
604.3293013257
 20
1593.2489515365
 30
0.0
 40
0.5000000000004547
100
AcDbArc
 50
270.0
 51
0.000000001
  0
LINE
  5
19F
330
1F
100
AcDbEntity
  8
0
  6
Continuous
 62
     7
370
    25
100
AcDbLine
 10
604.3293013254
 20
1609.7489515345
 30
0.0
 11
1221.3293013266
 21
1609.7489515345
 31
0.0
  0
LINE
  5
1A0
330
1F
100
AcDbEntity
  8
0
  6
Continuous
 62
     7
370
    25
100
AcDbLine
 10
1221.3293013263
 20
1592.7489515365
 30
0.0
 11
604.3293013257
 21
1592.7489515365
 31
0.0
  0
LINE
  5
1A1
330
1F
100
AcDbEntity
  8
0
  6
Continuous
 62
     7
370
    25
100
AcDbLine
 10
1482.329291739
 20
1618.2489515303
 30
0.0
 11
1195.5879448841
 21
1618.2489515303
 31
0.0
  0
LINE
  5
1A2
330
1F
100
AcDbEntity
  8
0
  6
Continuous
 62
     7
370
    25
100
AcDbLine
 10
772.3292917391
 20
1618.2489515303
 30
0.0
 11
532.329291739
 21
1618.2489515303
 31
0.0
  0
LINE
  5
1A3
330
1F
100
AcDbEntity
  8
0
  6
Continuous
 62
     7
370
    25
100
AcDbLine
 10
532.329291739
 20
1323.2489515303
 30
0.0
 11
1482.329291739
 21
1323.2489515303
 31
0.0
  0
LINE
  5
1A4
330
1F
100
AcDbEntity
  8
0
  6
Continuous
 62
     7
370
    25
100
AcDbLine
 10
532.329291739
 20
1618.2489515303
 30
0.0
 11
532.329291739
 21
1323.2489515303
 31
0.0
  0
LINE
  5
1A5
330
1F
100
AcDbEntity
  8
0
  6
Continuous
 62
     7
370
    25
100
AcDbLine
 10
1482.329291739
 20
1323.2489515303
 30
0.0
 11
1482.329291739
 21
1618.2489515303
 31
0.0
  0
LINE
  5
1A6
330
1F
100
AcDbEntity
  8
0
  6
Continuous
 62
     7
370
    25
100
AcDbLine
 10
1487.329291739
 20
1323.2489515303
 30
0.0
 11
1482.329291739
 21
1323.2489515303
 31
0.0
  0
LINE
  5
1A7
330
1F
100
AcDbEntity
  8
0
  6
Continuous
 62
     7
370
    25
100
AcDbLine
 10
532.329291739
 20
1323.2489515303
 30
0.0
 11
527.329291739
 21
1323.2489515303
 31
0.0
  0
LINE
  5
1A8
330
1F
100
AcDbEntity
  8
0
  6
Continuous
 62
     7
370
    25
100
AcDbLine
 10
407.329291739
 20
1823.2489515303
 30
0.0
 11
407.329291739
 21
1323.2489515303
 31
0.0
  0
LINE
  5
1A9
330
1F
100
AcDbEntity
  8
0
  6
Continuous
 62
     7
370
    25
100
AcDbLine
 10
1487.329291739
 20
1323.2489515303
 30
0.0
 11
1487.329291739
 21
1623.2489515303
 31
0.0
  0
LINE
  5
1AA
330
1F
100
AcDbEntity
  8
0
  6
Continuous
 62
     7
370
    25
100
AcDbLine
 10
1487.329291739
 20
1623.2489515303
 30
0.0
 11
802.329291739
 21
1623.2489515303
 31
0.0
  0
LINE
  5
1AB
330
1F
100
AcDbEntity
  8
0
  6
Continuous
 62
     7
370
    25
100
AcDbLine
 10
772.3292917391
 20
1623.2489515303
 30
0.0
 11
527.329291739
 21
1623.2489515303
 31
0.0
  0
LINE
  5
1AC
330
1F
100
AcDbEntity
  8
0
  6
Continuous
 62
     7
370
    25
100
AcDbLine
 10
527.329291739
 20
1623.2489515303
 30
0.0
 11
527.329291739
 21
1323.2489515303
 31
0.0
  0
LINE
  5
1AD
330
1F
100
AcDbEntity
  8
0
  6
Continuous
 62
     7
370
    25
100
AcDbLine
 10
1607.329291739
 20
1823.2489515303
 30
0.0
 11
407.329291739
 21
1823.2489515303
 31
0.0
  0
LINE
  5
1AE
330
1F
100
AcDbEntity
  8
0
  6
Continuous
 62
     7
370
    25
100
AcDbLine
 10
1607.329291739
 20
1323.2489515303
 30
0.0
 11
1607.329291739
 21
1823.2489515303
 31
0.0
  0
LINE
  5
1AF
330
1F
100
AcDbEntity
  8
0
  6
Continuous
 62
     7
370
    25
100
AcDbLine
 10
407.329291739
 20
1323.2489515303
 30
0.0
 11
527.329291739
 21
1323.2489515303
 31
0.0
  0
LINE
  5
1B0
330
1F
100
AcDbEntity
  8
0
  6
Continuous
 62
     7
370
    25
100
AcDbLine
 10
1487.329291739
 20
1323.2489515303
 30
0.0
 11
1607.329291739
 21
1323.2489515303
 31
0.0
  0
LINE
  5
1B1
330
1F
100
AcDbEntity
  8
0
  6
Continuous
 62
     7
370
    25
100
AcDbLine
 10
789.0824167391
 20
1622.2489515304
 30
0.0
 11
802.329291739
 21
1622.2489515304
 31
0.0
  0
LINE
  5
1B2
330
1F
100
AcDbEntity
  8
0
  6
Continuous
 62
     7
370
    25
100
AcDbLine
 10
1220.8293013266
 20
1609.2489515345
 30
0.0
 11
604.8293013254
 21
1609.2489515345
 31
0.0
  0
LINE
  5
1B3
330
1F
100
AcDbEntity
  8
0
  6
Continuous
 62
     7
370
    25
100
AcDbLine
 10
1220.8293013263
 20
1593.2489515365
 30
0.0
 11
604.8293013257
 21
1593.2489515365
 31
0.0
  0
DIMENSION
  5
1B4
330
1F
100
AcDbEntity
  8
FORMAT
100
AcDbDimension
  2
_D
 10
1239.329301326
 20
1465.8527249318
 30
0.0
 11
912.829301326
 21
1465.8527249318
 31
0.0
 70
   160
  1
<>
 71
     2
 42
-1.0
  3
SLDDIMSTYLE0
100
AcDbAlignedDimension
 13
586.329301326
 23
1593.2489515365
 33
0.0
 14
1239.329301326
 24
1593.2489515365
 34
0.0
 50
0.0
100
AcDbRotatedDimension
  0
DIMENSION
  5
1BF
330
1F
100
AcDbEntity
  8
FORMAT
100
AcDbDimension
  2
_D_1
 10
1294.6408050405
 20
1609.7489515365
 30
0.0
 11
1294.6408050405
 21
1531.2838698656
 31
0.0
 70
   160
  1
<>
 71
     2
 42
-1.0
  3
SLDDIMSTYLE1
100
AcDbAlignedDimension
 13
1238.829301326
 23
1592.7489515365
 33
0.0
 14
1238.829301326
 24
1609.7489515365
 34
0.0
 50
90.0
100
AcDbRotatedDimension
  0
DIMENSION
  5
1CC
330
1F
100
AcDbEntity
  8
FORMAT
100
AcDbDimension
  2
_D_2
 10
463.5004279447
 20
1719.7489515303
 30
0.0
 11
463.5004279447
 21
1672.2489515303
 31
0.0
 70
   160
  1
<>
 71
     2
 42
-1.0
  3
SLDDIMSTYLE0
100
AcDbAlignedDimension
 13
517.329291739
 23
1624.7489515303
 33
0.0
 14
517.329291739
 24
1719.7489515303
 34
0.0
 50
90.0
100
AcDbRotatedDimension
  0
DIMENSION
  5
1D6
330
1F
100
AcDbEntity
  8
FORMAT
100
AcDbDimension
  2
_D_3
 10
1196.829291739
 20
1759.233570481
 30
0.0
 11
852.329291739
 21
1759.233570481
 31
0.0
 70
   160
  1
<>
 71
     2
 42
-1.0
  3
SLDDIMSTYLE0
100
AcDbAlignedDimension
 13
507.829291739
 23
1714.7489515303
 33
0.0
 14
1196.829291739
 24
1714.7489515302
 34
0.0
100
AcDbRotatedDimension
  0
LINE
  5
1E0
330
1F
100
AcDbEntity
  8
0
  6
CENTER
 62
     7
370
    18
100
AcDbLine
 10
624.3538302266
 20
1883.2489515303
 30
0.0
 11
624.3538302266
 21
1263.2489515303
 31
0.0
  0
LINE
  5
1E1
330
1F
100
AcDbEntity
  8
0
  6
Continuous
 62
     7
370
    18
100
AcDbLine
 10
535.4538302266
 20
1869.2489515303
 30
0.0
 11
624.3538302266
 21
1869.2489515303
 31
0.0
  0
SOLID
  5
1E2
330
1F
100
AcDbEntity
  8
0
  6
Continuous
 62
     7
370
    18
100
AcDbTrace
 10
624.3538302266
 20
1869.2489515303
 30
0.0
 11
579.9038302266
 21
1876.3609515303
 31
0.0
 12
579.9038302266
 22
1862.1369515303
 32
0.0
 13
579.9038302266
 23
1862.1369515303
 33
0.0
  0
LINE
  5
1E3
330
1F
100
AcDbEntity
  8
0
  6
Continuous
 62
     7
370
    18
100
AcDbLine
 10
535.4538302266
 20
1277.2489515303
 30
0.0
 11
624.3538302266
 21
1277.2489515303
 31
0.0
  0
SOLID
  5
1E4
330
1F
100
AcDbEntity
  8
0
  6
Continuous
 62
     7
370
    18
100
AcDbTrace
 10
624.3538302266
 20
1277.2489515303
 30
0.0
 11
579.9038302266
 21
1284.3609515303
 31
0.0
 12
579.9038302266
 22
1270.1369515303
 32
0.0
 13
579.9038302266
 23
1270.1369515303
 33
0.0
  0
MTEXT
  5
1E5
330
1F
100
AcDbEntity
  8
0
  6
Continuous
 62
     7
100
AcDbMText
 10
535.4538302266
 20
1922.9348765785
 30
0.0
 40
35.0
 41
0.0
 71
     1
 72
     1
  1
A
  7
SLDTEXTSTYLE0
 73
     1
 44
1.0
  0
MTEXT
  5
1E6
330
1F
100
AcDbEntity
  8
0
  6
Continuous
 62
     7
100
AcDbMText
 10
535.4538302266
 20
1259.3715384892
 30
0.0
 40
35.0
 41
0.0
 71
     1
 72
     1
  1
A
  7
SLDTEXTSTYLE0
 73
     1
 44
1.0
  0
LINE
  5
1E7
330
1F
100
AcDbEntity
  8
FORMAT
  6
CENTERX2
370
    18
100
AcDbLine
 10
787.3292917391
 20
1603.7489515304
 30
0.0
 11
787.3292917391
 21
1647.0489515304
 31
0.0
  0
LINE
  5
1E8
330
1F
100
AcDbEntity
  8
FORMAT
  6
CENTERX2
370
    18
100
AcDbLine
 10
507.329291739
 20
1492.2489515303
 30
0.0
 11
507.329291739
 21
1391.9099443561
 31
0.0
  0
ARC
  5
1E9
330
1F
100
AcDbEntity
  8
0
  6
Continuous
 62
     7
370
    25
100
AcDbCircle
 10
1176.829291739
 20
842.4824564868
 30
0.0
 40
2.000000000000143
100
AcDbArc
 50
14.4775121862
 51
165.5224878124
  0
ARC
  5
1EA
330
1F
100
AcDbEntity
  8
0
  6
Continuous
 62
     7
370
    25
100
AcDbCircle
 10
1157.329291739
 20
842.4824564868
 30
0.0
 40
3.2500000000004
100
AcDbArc
 50
8.8498831004
 51
171.1501169005
  0
ARC
  5
1EB
330
1F
100
AcDbEntity
  8
0
  6
Continuous
 62
     7
370
    25
100
AcDbCircle
 10
931.329291739
 20
842.4824564868
 30
0.0
 40
3.249999999996354
100
AcDbArc
 50
8.8498830993
 51
171.1501169007
  0
ARC
  5
1EC
330
1F
100
AcDbEntity
  8
0
  6
Continuous
 62
     7
370
    25
100
AcDbCircle
 10
864.329291739
 20
842.4824564868
 30
0.0
 40
3.00000000000034
100
AcDbArc
 50
9.5940682278
 51
170.4059317722
  0
ARC
  5
1ED
330
1F
100
AcDbEntity
  8
0
  6
Continuous
 62
     7
370
    25
100
AcDbCircle
 10
740.329291739
 20
842.4824564868
 30
0.0
 40
3.000000000000363
100
AcDbArc
 50
9.594068228
 51
170.4059317719
  0
ARC
  5
1EE
330
1F
100
AcDbEntity
  8
0
  6
Continuous
 62
     7
370
    25
100
AcDbCircle
 10
724.329291739
 20
842.4824564868
 30
0.0
 40
3.249999999996201
100
AcDbArc
 50
8.8498830994
 51
171.1501169005
  0
ARC
  5
1EF
330
1F
100
AcDbEntity
  8
0
  6
Continuous
 62
     7
370
    25
100
AcDbCircle
 10
557.329291739
 20
842.4824564868
 30
0.0
 40
2.000000000000572
100
AcDbArc
 50
14.4775121877
 51
165.5224878124
  0
ARC
  5
1F0
330
1F
100
AcDbEntity
  8
0
  6
Continuous
 62
     7
370
    25
100
AcDbCircle
 10
527.829291739
 20
842.4824564868
 30
0.0
 40
2.000000000000542
100
AcDbArc
 50
14.4775121876
 51
165.5224878126
  0
LINE
  5
1F1
330
1F
100
AcDbEntity
  8
0
  6
Continuous
 62
     7
370
    25
100
AcDbLine
 10
1187.329291739
 20
848.9824564868
 30
0.0
 11
1187.329291739
 21
842.9824564868
 31
0.0
  0
LINE
  5
1F2
330
1F
100
AcDbEntity
  8
0
  6
Continuous
 62
     7
370
    25
100
AcDbLine
 10
517.329291739
 20
842.9824564868
 30
0.0
 11
517.329291739
 21
848.9824564868
 31
0.0
  0
ARC
  5
1F3
330
1F
100
AcDbEntity
  8
0
  6
Continuous
 62
     7
370
    25
100
AcDbCircle
 10
527.829291739
 20
842.4824564868
 30
0.0
 40
2.000000000000655
100
AcDbArc
 50
165.5224878126
 51
180.0000000001
  0
LINE
  5
1F4
330
1F
100
AcDbEntity
  8
0
  6
Continuous
 62
     7
370
    25
100
AcDbLine
 10
517.329291739
 20
842.9824564868
 30
0.0
 11
517.329291739
 21
842.4824564868
 31
0.0
  0
ARC
  5
1F5
330
1F
100
AcDbEntity
  8
0
  6
Continuous
 62
     7
370
    25
100
AcDbCircle
 10
527.829291739
 20
842.4824564868
 30
0.0
 40
2.0
100
AcDbArc
 50
180.0000000001
 51
194.4775121861
  0
LINE
  5
1F6
330
1F
100
AcDbEntity
  8
0
  6
Continuous
 62
     7
370
    25
100
AcDbLine
 10
517.329291739
 20
842.4824564868
 30
0.0
 11
517.329291739
 21
841.9824564868
 31
0.0
  0
ARC
  5
1F7
330
1F
100
AcDbEntity
  8
0
  6
Continuous
 62
     7
370
    25
100
AcDbCircle
 10
724.329291739
 20
766.4824564868
 30
0.0
 40
3.24999999999641
100
AcDbArc
 50
8.8498830984
 51
171.1501169016
  0
ARC
  5
1F8
330
1F
100
AcDbEntity
  8
0
  6
Continuous
 62
     7
370
    25
100
AcDbCircle
 10
557.329291739
 20
766.4824564868
 30
0.0
 40
2.000000000000046
100
AcDbArc
 50
14.4775121861
 51
165.5224878138
  0
ARC
  5
1F9
330
1F
100
AcDbEntity
  8
0
  6
Continuous
 62
     7
370
    25
100
AcDbCircle
 10
527.829291739
 20
766.4824564868
 30
0.0
 40
2.000000000000057
100
AcDbArc
 50
14.4775121862
 51
165.5224878138
  0
LINE
  5
1FA
330
1F
100
AcDbEntity
  8
0
  6
Continuous
 62
     7
370
    25
100
AcDbLine
 10
517.329291739
 20
766.9824564868
 30
0.0
 11
517.329291739
 21
776.6824564868
 31
0.0
  0
ARC
  5
1FB
330
1F
100
AcDbEntity
  8
0
  6
Continuous
 62
     7
370
    25
100
AcDbCircle
 10
1176.829291739
 20
766.4824564868
 30
0.0
 40
2.000000000000803
100
AcDbArc
 50
14.4775121862
 51
165.5224878136
  0
ARC
  5
1FC
330
1F
100
AcDbEntity
  8
0
  6
Continuous
 62
     7
370
    25
100
AcDbCircle
 10
1157.329291739
 20
766.4824564868
 30
0.0
 40
3.249999999999989
100
AcDbArc
 50
8.8498830987
 51
171.1501169013
  0
ARC
  5
1FD
330
1F
100
AcDbEntity
  8
0
  6
Continuous
 62
     7
370
    25
100
AcDbCircle
 10
931.329291739
 20
766.4824564868
 30
0.0
 40
3.249999999995944
100
AcDbArc
 50
8.8498830985
 51
171.1501169015
  0
ARC
  5
1FE
330
1F
100
AcDbEntity
  8
0
  6
Continuous
 62
     7
370
    25
100
AcDbCircle
 10
864.329291739
 20
766.4824564868
 30
0.0
 40
3.000000000000036
100
AcDbArc
 50
9.5940682269
 51
170.4059317731
  0
ARC
  5
1FF
330
1F
100
AcDbEntity
  8
0
  6
Continuous
 62
     7
370
    25
100
AcDbCircle
 10
740.329291739
 20
766.4824564868
 30
0.0
 40
3.000000000000396
100
AcDbArc
 50
9.5940682272
 51
170.4059317729
  0
LINE
  5
200
330
1F
100
AcDbEntity
  8
0
  6
Continuous
 62
     7
370
    25
100
AcDbLine
 10
1187.329291739
 20
776.6824564868
 30
0.0
 11
1187.329291739
 21
766.9824564868
 31
0.0
  0
ARC
  5
201
330
1F
100
AcDbEntity
  8
0
  6
Continuous
 62
     7
370
    25
100
AcDbCircle
 10
527.829291739
 20
842.4824564868
 30
0.0
 40
2.000000000000021
100
AcDbArc
 50
194.4775121861
 51
345.5224878139
  0
ARC
  5
202
330
1F
100
AcDbEntity
  8
0
  6
Continuous
 62
     7
370
    25
100
AcDbCircle
 10
557.329291739
 20
842.4824564868
 30
0.0
 40
2.000000000000091
100
AcDbArc
 50
194.4775121861
 51
345.5224878141
  0
ARC
  5
203
330
1F
100
AcDbEntity
  8
0
  6
Continuous
 62
     7
370
    25
100
AcDbCircle
 10
724.329291739
 20
842.4824564868
 30
0.0
 40
3.249999999995996
100
AcDbArc
 50
188.8498830984
 51
351.1501169016
  0
ARC
  5
204
330
1F
100
AcDbEntity
  8
0
  6
Continuous
 62
     7
370
    25
100
AcDbCircle
 10
740.329291739
 20
842.4824564868
 30
0.0
 40
3.000000000000087
100
AcDbArc
 50
189.5940682267
 51
350.4059317733
  0
ARC
  5
205
330
1F
100
AcDbEntity
  8
0
  6
Continuous
 62
     7
370
    25
100
AcDbCircle
 10
864.329291739
 20
842.4824564868
 30
0.0
 40
3.000000000000111
100
AcDbArc
 50
189.5940682269
 51
350.4059317731
  0
ARC
  5
206
330
1F
100
AcDbEntity
  8
0
  6
Continuous
 62
     7
370
    25
100
AcDbCircle
 10
931.329291739
 20
842.4824564868
 30
0.0
 40
3.249999999995996
100
AcDbArc
 50
188.8498830984
 51
351.1501169016
  0
ARC
  5
207
330
1F
100
AcDbEntity
  8
0
  6
Continuous
 62
     7
370
    25
100
AcDbCircle
 10
1157.329291739
 20
842.4824564868
 30
0.0
 40
3.25000000000015
100
AcDbArc
 50
188.8498830982
 51
351.1501169018
  0
ARC
  5
208
330
1F
100
AcDbEntity
  8
0
  6
Continuous
 62
     7
370
    25
100
AcDbCircle
 10
1176.829291739
 20
842.4824564868
 30
0.0
 40
2.000000000000175
100
AcDbArc
 50
194.4775121856
 51
345.5224878144
  0
LINE
  5
209
330
1F
100
AcDbEntity
  8
0
  6
Continuous
 62
     7
370
    25
100
AcDbLine
 10
1187.329291739
 20
841.9824564868
 30
0.0
 11
1187.329291739
 21
830.4824564868
 31
0.0
  0
LINE
  5
20A
330
1F
100
AcDbEntity
  8
0
  6
Continuous
 62
     7
370
    25
100
AcDbLine
 10
517.329291739
 20
830.4824564868
 30
0.0
 11
517.329291739
 21
841.9824564868
 31
0.0
  0
ARC
  5
20B
330
1F
100
AcDbEntity
  8
0
  6
Continuous
 62
     7
370
    25
100
AcDbCircle
 10
1176.829291739
 20
766.4824564868
 30
0.0
 40
2.000000000000831
100
AcDbArc
 50
0.0000000001
 51
14.4775121862
  0
LINE
  5
20C
330
1F
100
AcDbEntity
  8
0
  6
Continuous
 62
     7
370
    25
100
AcDbLine
 10
1187.329291739
 20
766.4824564868
 30
0.0
 11
1187.329291739
 21
766.9824564868
 31
0.0
  0
ARC
  5
20D
330
1F
100
AcDbEntity
  8
0
  6
Continuous
 62
     7
370
    25
100
AcDbCircle
 10
1176.829291739
 20
842.4824564868
 30
0.0
 40
2.000000000000227
100
AcDbArc
 50
345.5224878144
 51
0.0000000003
  0
LINE
  5
20E
330
1F
100
AcDbEntity
  8
0
  6
Continuous
 62
     7
370
    25
100
AcDbLine
 10
1187.329291739
 20
841.9824564868
 30
0.0
 11
1187.329291739
 21
842.4824564868
 31
0.0
  0
ARC
  5
20F
330
1F
100
AcDbEntity
  8
0
  6
Continuous
 62
     7
370
    25
100
AcDbCircle
 10
1176.829291739
 20
842.4824564868
 30
0.0
 40
2.000000000000256
100
AcDbArc
 50
0.0000000003
 51
14.4775121862
  0
LINE
  5
210
330
1F
100
AcDbEntity
  8
0
  6
Continuous
 62
     7
370
    25
100
AcDbLine
 10
1187.329291739
 20
842.4824564868
 30
0.0
 11
1187.329291739
 21
842.9824564868
 31
0.0
  0
LINE
  5
211
330
1F
100
AcDbEntity
  8
0
  6
Continuous
 62
     7
370
    25
100
AcDbLine
 10
1187.329291739
 20
830.4824564868
 30
0.0
 11
1187.329291739
 21
829.9824564868
 31
0.0
  0
LINE
  5
212
330
1F
100
AcDbEntity
  8
0
  6
Continuous
 62
     7
370
    25
100
AcDbLine
 10
517.329291739
 20
829.9824564868
 30
0.0
 11
517.329291739
 21
830.4824564868
 31
0.0
  0
ARC
  5
213
330
1F
100
AcDbEntity
  8
0
  6
Continuous
 62
     7
370
    25
100
AcDbCircle
 10
527.829291739
 20
766.4824564868
 30
0.0
 40
2.000000000000063
100
AcDbArc
 50
179.9999999998
 51
194.4775121859
  0
LINE
  5
214
330
1F
100
AcDbEntity
  8
0
  6
Continuous
 62
     7
370
    25
100
AcDbLine
 10
517.329291739
 20
766.4824564868
 30
0.0
 11
517.329291739
 21
765.9824564868
 31
0.0
  0
ARC
  5
215
330
1F
100
AcDbEntity
  8
0
  6
Continuous
 62
     7
370
    25
100
AcDbCircle
 10
1176.829291739
 20
766.4824564868
 30
0.0
 40
2.000000000000227
100
AcDbArc
 50
345.5224878127
 51
0.0000000001
  0
LINE
  5
216
330
1F
100
AcDbEntity
  8
0
  6
Continuous
 62
     7
370
    25
100
AcDbLine
 10
1187.329291739
 20
765.9824564868
 30
0.0
 11
1187.329291739
 21
766.4824564868
 31
0.0
  0
ARC
  5
217
330
1F
100
AcDbEntity
  8
0
  6
Continuous
 62
     7
370
    25
100
AcDbCircle
 10
931.329291739
 20
766.4824564868
 30
0.0
 40
3.249999999995961
100
AcDbArc
 50
188.8498830984
 51
351.1501169016
  0
ARC
  5
218
330
1F
100
AcDbEntity
  8
0
  6
Continuous
 62
     7
370
    25
100
AcDbCircle
 10
1157.329291739
 20
766.4824564868
 30
0.0
 40
3.249999999999926
100
AcDbArc
 50
188.8498830982
 51
351.1501169018
  0
ARC
  5
219
330
1F
100
AcDbEntity
  8
0
  6
Continuous
 62
     7
370
    25
100
AcDbCircle
 10
1176.829291739
 20
766.4824564868
 30
0.0
 40
2.000000000000147
100
AcDbArc
 50
194.4775121873
 51
345.5224878127
  0
ARC
  5
21A
330
1F
100
AcDbEntity
  8
0
  6
Continuous
 62
     7
370
    25
100
AcDbCircle
 10
527.829291739
 20
766.4824564868
 30
0.0
 40
2.000000000000063
100
AcDbArc
 50
194.4775121859
 51
345.5224878142
  0
ARC
  5
21B
330
1F
100
AcDbEntity
  8
0
  6
Continuous
 62
     7
370
    25
100
AcDbCircle
 10
557.329291739
 20
766.4824564868
 30
0.0
 40
2.000000000000094
100
AcDbArc
 50
194.4775121858
 51
345.5224878144
  0
ARC
  5
21C
330
1F
100
AcDbEntity
  8
0
  6
Continuous
 62
     7
370
    25
100
AcDbCircle
 10
724.329291739
 20
766.4824564868
 30
0.0
 40
3.249999999995979
100
AcDbArc
 50
188.8498830984
 51
351.1501169015
  0
ARC
  5
21D
330
1F
100
AcDbEntity
  8
0
  6
Continuous
 62
     7
370
    25
100
AcDbCircle
 10
740.329291739
 20
766.4824564868
 30
0.0
 40
3.000000000000144
100
AcDbArc
 50
189.5940682268
 51
350.4059317733
  0
ARC
  5
21E
330
1F
100
AcDbEntity
  8
0
  6
Continuous
 62
     7
370
    25
100
AcDbCircle
 10
864.329291739
 20
766.4824564868
 30
0.0
 40
3.000000000000018
100
AcDbArc
 50
189.5940682269
 51
350.4059317731
  0
LINE
  5
21F
330
1F
100
AcDbEntity
  8
0
  6
Continuous
 62
     7
370
    25
100
AcDbLine
 10
517.329291739
 20
759.9824564868
 30
0.0
 11
517.329291739
 21
765.9824564868
 31
0.0
  0
LINE
  5
220
330
1F
100
AcDbEntity
  8
0
  6
Continuous
 62
     7
370
    25
100
AcDbLine
 10
1187.329291739
 20
765.9824564868
 30
0.0
 11
1187.329291739
 21
759.9824564868
 31
0.0
  0
ARC
  5
221
330
1F
100
AcDbEntity
  8
0
  6
Continuous
 62
     7
370
    25
100
AcDbCircle
 10
527.829291739
 20
766.4824564868
 30
0.0
 40
2.000000000000057
100
AcDbArc
 50
165.5224878138
 51
179.9999999998
  0
LINE
  5
222
330
1F
100
AcDbEntity
  8
0
  6
Continuous
 62
     7
370
    25
100
AcDbLine
 10
517.329291739
 20
766.9824564868
 30
0.0
 11
517.329291739
 21
766.4824564868
 31
0.0
  0
LINE
  5
223
330
1F
100
AcDbEntity
  8
0
  6
Continuous
 62
     7
370
    25
100
AcDbLine
 10
1187.329291739
 20
849.9824564868
 30
0.0
 11
517.329291739
 21
849.9824564868
 31
0.0
  0
LINE
  5
224
330
1F
100
AcDbEntity
  8
0
  6
Continuous
 62
     7
370
    25
100
AcDbLine
 10
1187.329291739
 20
848.9824564868
 30
0.0
 11
1187.329291739
 21
849.9824564868
 31
0.0
  0
LINE
  5
225
330
1F
100
AcDbEntity
  8
0
  6
Continuous
 62
     7
370
    25
100
AcDbLine
 10
517.329291739
 20
849.9824564868
 30
0.0
 11
517.329291739
 21
848.9824564868
 31
0.0
  0
LINE
  5
226
330
1F
100
AcDbEntity
  8
0
  6
Continuous
 62
     7
370
    25
100
AcDbLine
 10
517.329291739
 20
758.9824564868
 30
0.0
 11
1187.329291739
 21
758.9824564868
 31
0.0
  0
LINE
  5
227
330
1F
100
AcDbEntity
  8
0
  6
Continuous
 62
     7
370
    25
100
AcDbLine
 10
517.329291739
 20
759.9824564868
 30
0.0
 11
517.329291739
 21
758.9824564868
 31
0.0
  0
LINE
  5
228
330
1F
100
AcDbEntity
  8
0
  6
Continuous
 62
     7
370
    25
100
AcDbLine
 10
1187.329291739
 20
758.9824564868
 30
0.0
 11
1187.329291739
 21
759.9824564868
 31
0.0
  0
ARC
  5
229
330
1F
100
AcDbEntity
  8
0
  6
Continuous
 62
     7
370
    25
100
AcDbCircle
 10
1176.829291739
 20
842.4824564868
 30
0.0
 40
2.000000000000007
100
AcDbArc
 50
165.5224878124
 51
179.9999999991
  0
ARC
  5
22A
330
1F
100
AcDbEntity
  8
0
  6
Continuous
 62
     7
370
    25
100
AcDbCircle
 10
1157.329291739
 20
842.4824564868
 30
0.0
 40
3.25
100
AcDbArc
 50
0.0000000005
 51
8.8498831004
  0
ARC
  5
22B
330
1F
100
AcDbEntity
  8
0
  6
Continuous
 62
     7
370
    25
100
AcDbCircle
 10
864.329291739
 20
842.4824564868
 30
0.0
 40
3.000000000000415
100
AcDbArc
 50
170.4059317722
 51
180.0000000001
  0
ARC
  5
22C
330
1F
100
AcDbEntity
  8
0
  6
Continuous
 62
     7
370
    25
100
AcDbCircle
 10
740.329291739
 20
842.4824564868
 30
0.0
 40
3.000000000000439
100
AcDbArc
 50
0.0000000001
 51
9.594068228
  0
ARC
  5
22D
330
1F
100
AcDbEntity
  8
0
  6
Continuous
 62
     7
370
    25
100
AcDbCircle
 10
557.329291739
 20
842.4824564868
 30
0.0
 40
2.00000000000001
100
AcDbArc
 50
165.5224878124
 51
180.0000000001
  0
ARC
  5
22E
330
1F
100
AcDbEntity
  8
0
  6
Continuous
 62
     7
370
    25
100
AcDbCircle
 10
527.829291739
 20
842.4824564868
 30
0.0
 40
2.00000000000001
100
AcDbArc
 50
359.9999999999
 51
14.4775121876
  0
ARC
  5
22F
330
1F
100
AcDbEntity
  8
0
  6
Continuous
 62
     7
370
    25
100
AcDbCircle
 10
931.329291739
 20
842.4824564868
 30
0.0
 40
3.249999999996021
100
AcDbArc
 50
359.9999999999
 51
8.8498830993
  0
ARC
  5
230
330
1F
100
AcDbEntity
  8
0
  6
Continuous
 62
     7
370
    25
100
AcDbCircle
 10
1157.329291739
 20
842.4824564868
 30
0.0
 40
3.25000000000033
100
AcDbArc
 50
171.1501169005
 51
179.9999999999
  0
ARC
  5
231
330
1F
100
AcDbEntity
  8
0
  6
Continuous
 62
     7
370
    25
100
AcDbCircle
 10
724.329291739
 20
842.4824564868
 30
0.0
 40
3.249999999995913
100
AcDbArc
 50
359.9999999999
 51
8.8498830994
  0
ARC
  5
232
330
1F
100
AcDbEntity
  8
0
  6
Continuous
 62
     7
370
    25
100
AcDbCircle
 10
740.329291739
 20
842.4824564868
 30
0.0
 40
2.999999999999984
100
AcDbArc
 50
170.4059317719
 51
179.9999999999
  0
ARC
  5
233
330
1F
100
AcDbEntity
  8
0
  6
Continuous
 62
     7
370
    25
100
AcDbCircle
 10
931.329291739
 20
842.4824564868
 30
0.0
 40
3.249999999996215
100
AcDbArc
 50
171.1501169007
 51
180.0000000001
  0
ARC
  5
234
330
1F
100
AcDbEntity
  8
0
  6
Continuous
 62
     7
370
    25
100
AcDbCircle
 10
864.329291739
 20
842.4824564868
 30
0.0
 40
3.000000000000415
100
AcDbArc
 50
360.0
 51
9.5940682278
  0
ARC
  5
235
330
1F
100
AcDbEntity
  8
0
  6
Continuous
 62
     7
370
    25
100
AcDbCircle
 10
557.329291739
 20
842.4824564868
 30
0.0
 40
2.000000000000686
100
AcDbArc
 50
0.0
 51
14.4775121877
  0
ARC
  5
236
330
1F
100
AcDbEntity
  8
0
  6
Continuous
 62
     7
370
    25
100
AcDbCircle
 10
724.329291739
 20
842.4824564868
 30
0.0
 40
3.249999999996061
100
AcDbArc
 50
171.1501169005
 51
180.0
  0
ARC
  5
237
330
1F
100
AcDbEntity
  8
0
  6
Continuous
 62
     7
370
    25
100
AcDbCircle
 10
1157.329291739
 20
766.4824564868
 30
0.0
 40
3.250000000000013
100
AcDbArc
 50
351.1501169017
 51
0.0000000002
  0
ARC
  5
238
330
1F
100
AcDbEntity
  8
0
  6
Continuous
 62
     7
370
    25
100
AcDbCircle
 10
1176.829291739
 20
766.4824564868
 30
0.0
 40
2.0
100
AcDbArc
 50
179.9999999997
 51
194.4775121873
  0
ARC
  5
239
330
1F
100
AcDbEntity
  8
0
  6
Continuous
 62
     7
370
    25
100
AcDbCircle
 10
864.329291739
 20
766.4824564868
 30
0.0
 40
3.0
100
AcDbArc
 50
0.0
 51
9.5940682269
  0
ARC
  5
23A
330
1F
100
AcDbEntity
  8
0
  6
Continuous
 62
     7
370
    25
100
AcDbCircle
 10
931.329291739
 20
766.4824564868
 30
0.0
 40
3.249999999996021
100
AcDbArc
 50
171.1501169015
 51
180.0
  0
ARC
  5
23B
330
1F
100
AcDbEntity
  8
0
  6
Continuous
 62
     7
370
    25
100
AcDbCircle
 10
1157.329291739
 20
766.4824564868
 30
0.0
 40
3.25
100
AcDbArc
 50
0.0000000002
 51
8.8498830987
  0
ARC
  5
23C
330
1F
100
AcDbEntity
  8
0
  6
Continuous
 62
     7
370
    25
100
AcDbCircle
 10
1176.829291739
 20
766.4824564868
 30
0.0
 40
2.0
100
AcDbArc
 50
165.5224878136
 51
179.9999999997
  0
ARC
  5
23D
330
1F
100
AcDbEntity
  8
0
  6
Continuous
 62
     7
370
    25
100
AcDbCircle
 10
557.329291739
 20
766.4824564868
 30
0.0
 40
2.000000000000046
100
AcDbArc
 50
0.0000000001
 51
14.4775121861
  0
ARC
  5
23E
330
1F
100
AcDbEntity
  8
0
  6
Continuous
 62
     7
370
    25
100
AcDbCircle
 10
724.329291739
 20
766.4824564868
 30
0.0
 40
3.249999999996175
100
AcDbArc
 50
171.1501169016
 51
180.0000000001
  0
ARC
  5
23F
330
1F
100
AcDbEntity
  8
0
  6
Continuous
 62
     7
370
    25
100
AcDbCircle
 10
864.329291739
 20
766.4824564868
 30
0.0
 40
3.000000000000114
100
AcDbArc
 50
170.4059317731
 51
180.0
  0
ARC
  5
240
330
1F
100
AcDbEntity
  8
0
  6
Continuous
 62
     7
370
    25
100
AcDbCircle
 10
740.329291739
 20
766.4824564868
 30
0.0
 40
3.000000000000114
100
AcDbArc
 50
0.0000000001
 51
9.5940682272
  0
ARC
  5
241
330
1F
100
AcDbEntity
  8
0
  6
Continuous
 62
     7
370
    25
100
AcDbCircle
 10
931.329291739
 20
766.4824564868
 30
0.0
 40
3.249999999996021
100
AcDbArc
 50
360.0
 51
8.8498830985
  0
ARC
  5
242
330
1F
100
AcDbEntity
  8
0
  6
Continuous
 62
     7
370
    25
100
AcDbCircle
 10
1157.329291739
 20
766.4824564868
 30
0.0
 40
3.249999999999902
100
AcDbArc
 50
171.1501169013
 51
179.9999999998
  0
ARC
  5
243
330
1F
100
AcDbEntity
  8
0
  6
Continuous
 62
     7
370
    25
100
AcDbCircle
 10
740.329291739
 20
766.4824564868
 30
0.0
 40
3.000000000000396
100
AcDbArc
 50
170.4059317729
 51
180.0
  0
ARC
  5
244
330
1F
100
AcDbEntity
  8
0
  6
Continuous
 62
     7
370
    25
100
AcDbCircle
 10
724.329291739
 20
766.4824564868
 30
0.0
 40
3.249999999996287
100
AcDbArc
 50
359.9999999999
 51
8.8498830984
  0
ARC
  5
245
330
1F
100
AcDbEntity
  8
0
  6
Continuous
 62
     7
370
    25
100
AcDbCircle
 10
724.329291739
 20
842.4824564868
 30
0.0
 40
3.249999999996136
100
AcDbArc
 50
351.1501169015
 51
359.9999999999
  0
ARC
  5
246
330
1F
100
AcDbEntity
  8
0
  6
Continuous
 62
     7
370
    25
100
AcDbCircle
 10
740.329291739
 20
842.4824564868
 30
0.0
 40
2.9999999999999
100
AcDbArc
 50
179.9999999999
 51
189.5940682267
  0
ARC
  5
247
330
1F
100
AcDbEntity
  8
0
  6
Continuous
 62
     7
370
    25
100
AcDbCircle
 10
931.329291739
 20
842.4824564868
 30
0.0
 40
3.249999999996136
100
AcDbArc
 50
180.0000000001
 51
188.8498830985
  0
ARC
  5
248
330
1F
100
AcDbEntity
  8
0
  6
Continuous
 62
     7
370
    25
100
AcDbCircle
 10
864.329291739
 20
842.4824564868
 30
0.0
 40
3.0
100
AcDbArc
 50
350.4059317731
 51
360.0
  0
ARC
  5
249
330
1F
100
AcDbEntity
  8
0
  6
Continuous
 62
     7
370
    25
100
AcDbCircle
 10
1176.829291739
 20
842.4824564868
 30
0.0
 40
2.0
100
AcDbArc
 50
179.9999999991
 51
194.4775121856
  0
ARC
  5
24A
330
1F
100
AcDbEntity
  8
0
  6
Continuous
 62
     7
370
    25
100
AcDbCircle
 10
1157.329291739
 20
842.4824564868
 30
0.0
 40
3.25000000000022
100
AcDbArc
 50
351.1501169017
 51
0.0000000005
  0
ARC
  5
24B
330
1F
100
AcDbEntity
  8
0
  6
Continuous
 62
     7
370
    25
100
AcDbCircle
 10
557.329291739
 20
842.4824564868
 30
0.0
 40
2.0
100
AcDbArc
 50
180.0000000001
 51
194.4775121861
  0
ARC
  5
24C
330
1F
100
AcDbEntity
  8
0
  6
Continuous
 62
     7
370
    25
100
AcDbCircle
 10
527.829291739
 20
842.4824564868
 30
0.0
 40
2.0
100
AcDbArc
 50
345.5224878139
 51
359.9999999999
  0
ARC
  5
24D
330
1F
100
AcDbEntity
  8
0
  6
Continuous
 62
     7
370
    25
100
AcDbCircle
 10
931.329291739
 20
842.4824564868
 30
0.0
 40
3.249999999996136
100
AcDbArc
 50
351.1501169015
 51
359.9999999999
  0
ARC
  5
24E
330
1F
100
AcDbEntity
  8
0
  6
Continuous
 62
     7
370
    25
100
AcDbCircle
 10
1157.329291739
 20
842.4824564868
 30
0.0
 40
3.249999999999996
100
AcDbArc
 50
179.9999999999
 51
188.8498830983
  0
ARC
  5
24F
330
1F
100
AcDbEntity
  8
0
  6
Continuous
 62
     7
370
    25
100
AcDbCircle
 10
557.329291739
 20
842.4824564868
 30
0.0
 40
2.0
100
AcDbArc
 50
345.5224878141
 51
0.0
  0
ARC
  5
250
330
1F
100
AcDbEntity
  8
0
  6
Continuous
 62
     7
370
    25
100
AcDbCircle
 10
724.329291739
 20
842.4824564868
 30
0.0
 40
3.249999999996136
100
AcDbArc
 50
180.0
 51
188.8498830985
  0
ARC
  5
251
330
1F
100
AcDbEntity
  8
0
  6
Continuous
 62
     7
370
    25
100
AcDbCircle
 10
864.329291739
 20
842.4824564868
 30
0.0
 40
3.000000000000114
100
AcDbArc
 50
180.0000000001
 51
189.5940682269
  0
ARC
  5
252
330
1F
100
AcDbEntity
  8
0
  6
Continuous
 62
     7
370
    25
100
AcDbCircle
 10
740.329291739
 20
842.4824564868
 30
0.0
 40
3.000000000000012
100
AcDbArc
 50
350.4059317733
 51
0.0000000001
  0
LINE
  5
253
330
1F
100
AcDbEntity
  8
0
  6
Continuous
 62
     7
370
    25
100
AcDbLine
 10
517.329291739
 20
776.9824564868
 30
0.0
 11
517.329291739
 21
776.6824564868
 31
0.0
  0
LINE
  5
254
330
1F
100
AcDbEntity
  8
0
  6
Continuous
 62
     7
370
    25
100
AcDbLine
 10
1187.329291739
 20
776.6824564868
 30
0.0
 11
1187.329291739
 21
776.9824564868
 31
0.0
  0
ARC
  5
255
330
1F
100
AcDbEntity
  8
0
  6
Continuous
 62
     7
370
    25
100
AcDbCircle
 10
557.329291739
 20
766.4824564868
 30
0.0
 40
2.000000000000094
100
AcDbArc
 50
345.5224878144
 51
0.0000000001
  0
ARC
  5
256
330
1F
100
AcDbEntity
  8
0
  6
Continuous
 62
     7
370
    25
100
AcDbCircle
 10
724.329291739
 20
766.4824564868
 30
0.0
 40
3.2499999999961
100
AcDbArc
 50
180.0000000001
 51
188.8498830985
  0
ARC
  5
257
330
1F
100
AcDbEntity
  8
0
  6
Continuous
 62
     7
370
    25
100
AcDbCircle
 10
864.329291739
 20
766.4824564868
 30
0.0
 40
3.000000000000114
100
AcDbArc
 50
180.0
 51
189.5940682269
  0
ARC
  5
258
330
1F
100
AcDbEntity
  8
0
  6
Continuous
 62
     7
370
    25
100
AcDbCircle
 10
740.329291739
 20
766.4824564868
 30
0.0
 40
3.000000000000144
100
AcDbArc
 50
350.4059317733
 51
0.0000000001
  0
ARC
  5
259
330
1F
100
AcDbEntity
  8
0
  6
Continuous
 62
     7
370
    25
100
AcDbCircle
 10
931.329291739
 20
766.4824564868
 30
0.0
 40
3.249999999996065
100
AcDbArc
 50
351.1501169016
 51
360.0
  0
ARC
  5
25A
330
1F
100
AcDbEntity
  8
0
  6
Continuous
 62
     7
370
    25
100
AcDbCircle
 10
1157.329291739
 20
766.4824564868
 30
0.0
 40
3.250000000000013
100
AcDbArc
 50
179.9999999998
 51
188.8498830983
  0
ARC
  5
25B
330
1F
100
AcDbEntity
  8
0
  6
Continuous
 62
     7
370
    25
100
AcDbCircle
 10
557.329291739
 20
766.4824564868
 30
0.0
 40
2.000000000000052
100
AcDbArc
 50
179.9999999998
 51
194.4775121858
  0
ARC
  5
25C
330
1F
100
AcDbEntity
  8
0
  6
Continuous
 62
     7
370
    25
100
AcDbCircle
 10
527.829291739
 20
766.4824564868
 30
0.0
 40
2.000000000000052
100
AcDbArc
 50
345.5224878142
 51
0.0000000002
  0
ARC
  5
25D
330
1F
100
AcDbEntity
  8
0
  6
Continuous
 62
     7
370
    25
100
AcDbCircle
 10
864.329291739
 20
766.4824564868
 30
0.0
 40
3.0
100
AcDbArc
 50
350.4059317731
 51
0.0
  0
ARC
  5
25E
330
1F
100
AcDbEntity
  8
0
  6
Continuous
 62
     7
370
    25
100
AcDbCircle
 10
931.329291739
 20
766.4824564868
 30
0.0
 40
3.249999999996065
100
AcDbArc
 50
180.0
 51
188.8498830985
  0
ARC
  5
25F
330
1F
100
AcDbEntity
  8
0
  6
Continuous
 62
     7
370
    25
100
AcDbCircle
 10
557.329291739
 20
766.4824564868
 30
0.0
 40
2.0
100
AcDbArc
 50
165.5224878138
 51
179.9999999998
  0
ARC
  5
260
330
1F
100
AcDbEntity
  8
0
  6
Continuous
 62
     7
370
    25
100
AcDbCircle
 10
527.829291739
 20
766.4824564868
 30
0.0
 40
2.0
100
AcDbArc
 50
0.0000000002
 51
14.4775121862
  0
ARC
  5
261
330
1F
100
AcDbEntity
  8
0
  6
Continuous
 62
     7
370
    25
100
AcDbCircle
 10
740.329291739
 20
766.4824564868
 30
0.0
 40
3.000000000000063
100
AcDbArc
 50
180.0
 51
189.5940682268
  0
ARC
  5
262
330
1F
100
AcDbEntity
  8
0
  6
Continuous
 62
     7
370
    25
100
AcDbCircle
 10
724.329291739
 20
766.4824564868
 30
0.0
 40
3.249999999996101
100
AcDbArc
 50
351.1501169015
 51
359.9999999999
  0
ARC
  5
263
330
1F
100
AcDbEntity
  8
0
  6
Continuous
 62
     7
370
    25
100
AcDbCircle
 10
540.329291739
 20
822.9824564868
 30
0.0
 40
5.000000000004889
100
AcDbArc
 50
0.0000000002
 51
90.0
  0
LINE
  5
264
330
1F
100
AcDbEntity
  8
0
  6
Continuous
 62
     7
370
    25
100
AcDbLine
 10
517.329291739
 20
827.9824564868
 30
0.0
 11
540.329291739
 21
827.9824564868
 31
0.0
  0
LINE
  5
265
330
1F
100
AcDbEntity
  8
0
  6
Continuous
 62
     7
370
    25
100
AcDbLine
 10
1164.329291739
 20
827.9824564868
 30
0.0
 11
1187.329291739
 21
827.9824564868
 31
0.0
  0
ARC
  5
266
330
1F
100
AcDbEntity
  8
0
  6
Continuous
 62
     7
370
    25
100
AcDbCircle
 10
1164.329291739
 20
822.9824564868
 30
0.0
 40
4.999999999999773
100
AcDbArc
 50
90.0
 51
180.0000000001
  0
LINE
  5
267
330
1F
100
AcDbEntity
  8
0
  6
Continuous
 62
     7
370
    25
100
AcDbLine
 10
1159.329291739
 20
822.9824564868
 30
0.0
 11
1159.329291739
 21
817.1786089095
 31
0.0
  0
LINE
  5
268
330
1F
100
AcDbEntity
  8
0
  6
Continuous
 62
     7
370
    25
100
AcDbLine
 10
545.329291739
 20
817.1786089095
 30
0.0
 11
545.329291739
 21
822.9824564868
 31
0.0
  0
LINE
  5
269
330
1F
100
AcDbEntity
  8
0
  6
Continuous
 62
     7
370
    25
100
AcDbLine
 10
1187.329291739
 20
827.9824564868
 30
0.0
 11
1187.329291739
 21
829.9824564868
 31
0.0
  0
LINE
  5
26A
330
1F
100
AcDbEntity
  8
0
  6
Continuous
 62
     7
370
    25
100
AcDbLine
 10
517.329291739
 20
829.9824564868
 30
0.0
 11
517.329291739
 21
827.9824564868
 31
0.0
  0
LINE
  5
26B
330
1F
100
AcDbEntity
  8
0
  6
Continuous
 62
     7
370
    25
100
AcDbLine
 10
1159.329291739
 20
817.1786089095
 30
0.0
 11
1159.329291739
 21
812.8484818906
 31
0.0
  0
LINE
  5
26C
330
1F
100
AcDbEntity
  8
0
  6
Continuous
 62
     7
370
    25
100
AcDbLine
 10
545.329291739
 20
812.8484818906
 30
0.0
 11
545.329291739
 21
817.1786089095
 31
0.0
  0
LINE
  5
26D
330
1F
100
AcDbEntity
  8
0
  6
Continuous
 62
     7
370
    25
100
AcDbLine
 10
1159.329291739
 20
812.8484818906
 30
0.0
 11
1159.329291739
 21
810.3947432465
 31
0.0
  0
LINE
  5
26E
330
1F
100
AcDbEntity
  8
0
  6
Continuous
 62
     7
370
    25
100
AcDbLine
 10
545.329291739
 20
810.3947432465
 30
0.0
 11
545.329291739
 21
812.8484818906
 31
0.0
  0
LINE
  5
26F
330
1F
100
AcDbEntity
  8
0
  6
Continuous
 62
     7
370
    25
100
AcDbLine
 10
1159.329291739
 20
810.3947432465
 30
0.0
 11
1159.329291739
 21
809.0957051409
 31
0.0
  0
LINE
  5
270
330
1F
100
AcDbEntity
  8
0
  6
Continuous
 62
     7
370
    25
100
AcDbLine
 10
545.329291739
 20
809.0957051409
 30
0.0
 11
545.329291739
 21
810.3947432465
 31
0.0
  0
LINE
  5
271
330
1F
100
AcDbEntity
  8
0
  6
Continuous
 62
     7
370
    25
100
AcDbLine
 10
517.329291739
 20
780.9824564868
 30
0.0
 11
540.329291739
 21
780.9824564868
 31
0.0
  0
ARC
  5
272
330
1F
100
AcDbEntity
  8
0
  6
Continuous
 62
     7
370
    25
100
AcDbCircle
 10
540.329291739
 20
785.9824564868
 30
0.0
 40
5.0
100
AcDbArc
 50
270.0
 51
359.9999999999
  0
ARC
  5
273
330
1F
100
AcDbEntity
  8
0
  6
Continuous
 62
     7
370
    25
100
AcDbCircle
 10
1164.329291739
 20
785.9824564868
 30
0.0
 40
5.000000000011028
100
AcDbArc
 50
180.0000000003
 51
270.0
  0
LINE
  5
274
330
1F
100
AcDbEntity
  8
0
  6
Continuous
 62
     7
370
    25
100
AcDbLine
 10
1164.329291739
 20
780.9824564868
 30
0.0
 11
1187.329291739
 21
780.9824564868
 31
0.0
  0
LINE
  5
275
330
1F
100
AcDbEntity
  8
0
  6
Continuous
 62
     7
370
    25
100
AcDbLine
 10
1159.329291739
 20
809.0957051409
 30
0.0
 11
1159.329291739
 21
785.9824564868
 31
0.0
  0
LINE
  5
276
330
1F
100
AcDbEntity
  8
0
  6
Continuous
 62
     7
370
    25
100
AcDbLine
 10
545.329291739
 20
785.9824564868
 30
0.0
 11
545.329291739
 21
809.0957051409
 31
0.0
  0
LINE
  5
277
330
1F
100
AcDbEntity
  8
0
  6
Continuous
 62
     7
370
    25
100
AcDbLine
 10
517.329291739
 20
776.9824564868
 30
0.0
 11
517.329291739
 21
780.9824564868
 31
0.0
  0
LINE
  5
278
330
1F
100
AcDbEntity
  8
0
  6
Continuous
 62
     7
370
    25
100
AcDbLine
 10
1187.329291739
 20
780.9824564868
 30
0.0
 11
1187.329291739
 21
776.9824564868
 31
0.0
  0
CIRCLE
  5
279
330
1F
100
AcDbEntity
  8
0
  6
Continuous
 62
     7
370
    25
100
AcDbCircle
 10
1229.329291739
 20
733.2324564872
 30
0.0
 40
2.5
  0
CIRCLE
  5
27A
330
1F
100
AcDbEntity
  8
0
  6
Continuous
 62
     7
370
    25
100
AcDbCircle
 10
596.329291739
 20
733.2324564872
 30
0.0
 40
2.5
  0
LINE
  5
27B
330
1F
100
AcDbEntity
  8
0
  6
Continuous
 62
     7
370
    25
100
AcDbLine
 10
1482.329291739
 20
750.4824564872
 30
0.0
 11
532.329291739
 21
750.4824564872
 31
0.0
  0
LINE
  5
27C
330
1F
100
AcDbEntity
  8
0
  6
Continuous
 62
     7
370
    25
100
AcDbLine
 10
1482.329291739
 20
455.4824564872
 30
0.0
 11
1482.329291739
 21
750.4824564872
 31
0.0
  0
LINE
  5
27D
330
1F
100
AcDbEntity
  8
0
  6
Continuous
 62
     7
370
    25
100
AcDbLine
 10
532.329291739
 20
455.4824564872
 30
0.0
 11
1482.329291739
 21
455.4824564872
 31
0.0
  0
LINE
  5
27E
330
1F
100
AcDbEntity
  8
0
  6
Continuous
 62
     7
370
    25
100
AcDbLine
 10
532.329291739
 20
750.4824564872
 30
0.0
 11
532.329291739
 21
455.4824564872
 31
0.0
  0
LINE
  5
27F
330
1F
100
AcDbEntity
  8
0
  6
Continuous
 62
     7
370
    25
100
AcDbLine
 10
1487.329291739
 20
455.4824564872
 30
0.0
 11
1482.329291739
 21
455.4824564872
 31
0.0
  0
LINE
  5
280
330
1F
100
AcDbEntity
  8
0
  6
Continuous
 62
     7
370
    25
100
AcDbLine
 10
532.329291739
 20
455.4824564872
 30
0.0
 11
527.329291739
 21
455.4824564872
 31
0.0
  0
LINE
  5
281
330
1F
100
AcDbEntity
  8
0
  6
Continuous
 62
     7
370
    25
100
AcDbLine
 10
1487.329291739
 20
455.4824564872
 30
0.0
 11
1487.329291739
 21
755.4824564872
 31
0.0
  0
LINE
  5
282
330
1F
100
AcDbEntity
  8
0
  6
Continuous
 62
     7
370
    25
100
AcDbLine
 10
1487.329291739
 20
755.4824564872
 30
0.0
 11
527.329291739
 21
755.4824564872
 31
0.0
  0
LINE
  5
283
330
1F
100
AcDbEntity
  8
0
  6
Continuous
 62
     7
370
    25
100
AcDbLine
 10
1607.329291739
 20
955.4824564872
 30
0.0
 11
407.329291739
 21
955.4824564872
 31
0.0
  0
LINE
  5
284
330
1F
100
AcDbEntity
  8
0
  6
Continuous
 62
     7
370
    25
100
AcDbLine
 10
1487.329291739
 20
455.4824564872
 30
0.0
 11
1607.329291739
 21
455.4824564872
 31
0.0
  0
LINE
  5
285
330
1F
100
AcDbEntity
  8
0
  6
Continuous
 62
     7
370
    25
100
AcDbLine
 10
527.329291739
 20
755.4824564872
 30
0.0
 11
527.329291739
 21
455.4824564872
 31
0.0
  0
LINE
  5
286
330
1F
100
AcDbEntity
  8
0
  6
Continuous
 62
     7
370
    25
100
AcDbLine
 10
1607.329291739
 20
455.4824564872
 30
0.0
 11
1607.329291739
 21
955.4824564872
 31
0.0
  0
CIRCLE
  5
287
330
1F
100
AcDbEntity
  8
0
  6
Continuous
 62
     7
370
    25
100
AcDbCircle
 10
531.329291739
 20
793.4824564872
 30
0.0
 40
10.00000000000011
  0
CIRCLE
  5
288
330
1F
100
AcDbEntity
  8
0
  6
Continuous
 62
     7
370
    25
100
AcDbCircle
 10
1173.329291739
 20
817.4824564872
 30
0.0
 40
10.0
  0
CIRCLE
  5
289
330
1F
100
AcDbEntity
  8
0
  6
Continuous
 62
     7
370
    25
100
AcDbCircle
 10
1173.329291739
 20
793.4824564872
 30
0.0
 40
10.0
  0
CIRCLE
  5
28A
330
1F
100
AcDbEntity
  8
0
  6
Continuous
 62
     7
370
    25
100
AcDbCircle
 10
531.329291739
 20
817.4824564872
 30
0.0
 40
10.00000000000011
  0
LINE
  5
28B
330
1F
100
AcDbEntity
  8
0
  6
Continuous
 62
     7
370
    25
100
AcDbLine
 10
407.329291739
 20
955.4824564872
 30
0.0
 11
407.329291739
 21
455.4824564872
 31
0.0
  0
LINE
  5
28C
330
1F
100
AcDbEntity
  8
0
  6
Continuous
 62
     7
370
    25
100
AcDbLine
 10
407.329291739
 20
455.4824564872
 30
0.0
 11
527.329291739
 21
455.4824564872
 31
0.0
  0
DIMENSION
  5
28D
330
1F
100
AcDbEntity
  8
FORMAT
100
AcDbDimension
  2
_D_4
 10
1229.329291739
 20
596.9386013339
 30
0.0
 11
912.829291739
 21
596.9386013339
 31
0.0
 70
   160
  1
<>
 71
     2
 42
-1.0
  3
SLDDIMSTYLE0
100
AcDbAlignedDimension
 13
596.329291739
 23
728.2324564872
 33
0.0
 14
1229.329291739
 24
728.2324564872
 34
0.0
100
AcDbRotatedDimension
  0
DIMENSION
  5
297
330
1F
100
AcDbEntity
  8
FORMAT
100
AcDbDimension
  2
_D_5
 10
1219.5961055755
 20
849.9824564868
 30
0.0
 11
1219.5961055755
 21
804.4824564868
 31
0.0
 70
   160
  1
<>
 71
     2
 42
-1.0
  3
SLDDIMSTYLE0
100
AcDbAlignedDimension
 13
1187.329291739
 23
758.9824564868
 33
0.0
 14
1187.329291739
 24
849.9824564868
 34
0.0
 50
90.0
100
AcDbRotatedDimension
  0
DIMENSION
  5
2A1
330
1F
100
AcDbEntity
  8
FORMAT
100
AcDbDimension
  2
_D_6
 10
708.1952088083
 20
766.4824564868
 30
0.0
 11
708.1952088083
 21
714.8453746825
 31
0.0
 70
   160
  1
<>
 71
     2
 42
-1.0
  3
SLDDIMSTYLE1
100
AcDbAlignedDimension
 13
532.329291739
 23
750.4824564872
 33
0.0
 14
724.329291739
 24
766.4824564868
 34
0.0
 50
90.0
100
AcDbRotatedDimension
  0
DIMENSION
  5
2AC
330
1F
100
AcDbEntity
  8
FORMAT
100
AcDbDimension
  2
_D_7
 10
1279.2482262229
 20
755.4824564872
 30
0.0
 11
1279.2482262229
 21
655.9762037358
 31
0.0
 70
   160
  1
<>
 71
     2
 42
-1.0
  3
SLDDIMSTYLE2
100
AcDbAlignedDimension
 13
1234.329291739
 23
733.2324564872
 33
0.0
 14
1487.329291739
 24
755.4824564872
 34
0.0
 50
90.0
100
AcDbRotatedDimension
  0
DIMENSION
  5
2B8
330
1F
100
AcDbEntity
  8
FORMAT
100
AcDbDimension
  2
_D_8
 10
383.0662538894
 20
758.9824564868
 30
0.0
 11
383.0662538894
 21
704.1570647442
 31
0.0
 70
   160
  1
<>
 71
     2
 42
-1.0
  3
SLDDIMSTYLE2
100
AcDbAlignedDimension
 13
527.329291739
 23
755.4824564872
 33
0.0
 14
517.329291739
 24
758.9824564868
 34
0.0
 50
90.0
100
AcDbRotatedDimension
  0
DIMENSION
  5
2C4
330
1F
100
AcDbEntity
  8
FORMAT
100
AcDbDimension
  2
_D_9
 10
341.5685840617
 20
793.4824564872
 30
0.0
 11
341.5685840617
 21
704.1570647442
 31
0.0
 70
   160
  1
<>
 71
     2
 42
-1.0
  3
SLDDIMSTYLE2
100
AcDbAlignedDimension
 13
517.329291739
 23
758.9824564868
 33
0.0
 14
518.829291739
 24
793.4824564872
 34
0.0
 50
90.0
100
AcDbRotatedDimension
  0
DIMENSION
  5
2D0
330
1F
100
AcDbEntity
  8
FORMAT
100
AcDbDimension
  2
_D_10
 10
300.9499887584
 20
817.4824564872
 30
0.0
 11
300.9499887584
 21
704.1570647442
 31
0.0
 70
   160
  1
<>
 71
     2
 42
-1.0
  3
SLDDIMSTYLE1
100
AcDbAlignedDimension
 13
518.829291739
 23
793.4824564872
 33
0.0
 14
518.829291739
 24
817.4824564872
 34
0.0
 50
90.0
100
AcDbRotatedDimension
  0
DIMENSION
  5
2DC
330
1F
100
AcDbEntity
  8
FORMAT
100
AcDbDimension
  2
_D_11
 10
517.329291739
 20
974.0268219177
 30
0.0
 11
466.7734404337
 21
974.0268219177
 31
0.0
 70
   160
  1
<>
 71
     2
 42
-1.0
  3
SLDDIMSTYLE1
100
AcDbAlignedDimension
 13
507.329291739
 23
624.4824564872
 33
0.0
 14
517.329291739
 24
776.9824564868
 34
0.0
100
AcDbRotatedDimension
  0
DIMENSION
  5
2E8
330
1F
100
AcDbEntity
  8
FORMAT
100
AcDbDimension
  2
_D_12
 10
531.329291739
 20
1013.1376741613
 30
0.0
 11
466.7734404337
 21
1013.1376741613
 31
0.0
 70
   160
  1
<>
 71
     2
 42
-1.0
  3
SLDDIMSTYLE1
100
AcDbAlignedDimension
 13
507.329291739
 23
624.4824564872
 33
0.0
 14
531.329291739
 24
805.9824564872
 34
0.0
100
AcDbRotatedDimension
  0
DIMENSION
  5
2F4
330
1F
100
AcDbEntity
  8
FORMAT
100
AcDbDimension
  2
_D_13
 10
724.329291739
 20
1046.3062821295
 30
0.0
 11
615.829291739
 21
1046.3062821295
 31
0.0
 70
   160
  1
<>
 71
     2
 42
-1.0
  3
SLDDIMSTYLE0
100
AcDbAlignedDimension
 13
507.329291739
 23
624.4824564872
 33
0.0
 14
724.329291739
 24
842.4824564868
 34
0.0
100
AcDbRotatedDimension
  0
DIMENSION
  5
2FE
330
1F
100
AcDbEntity
  8
FORMAT
100
AcDbDimension
  2
_D_14
 10
931.329291739
 20
1046.3062821295
 30
0.0
 11
827.829291739
 21
1046.3062821295
 31
0.0
 70
   160
  1
<>
 71
     2
 42
-1.0
  3
SLDDIMSTYLE0
100
AcDbAlignedDimension
 13
724.329291739
 23
842.4824564868
 33
0.0
 14
931.329291739
 24
842.4824564868
 34
0.0
100
AcDbRotatedDimension
  0
DIMENSION
  5
308
330
1F
100
AcDbEntity
  8
FORMAT
100
AcDbDimension
  2
_D_15
 10
1157.329291739
 20
1046.3062821295
 30
0.0
 11
1044.329291739
 21
1046.3062821295
 31
0.0
 70
   160
  1
<>
 71
     2
 42
-1.0
  3
SLDDIMSTYLE0
100
AcDbAlignedDimension
 13
931.329291739
 23
842.4824564868
 33
0.0
 14
1157.329291739
 24
842.4824564868
 34
0.0
 50
0.0
100
AcDbRotatedDimension
  0
DIMENSION
  5
312
330
1F
100
AcDbEntity
  8
FORMAT
100
AcDbDimension
  2
_D_16
 10
1173.329291739
 20
1091.429239319
 30
0.0
 11
840.329291739
 21
1091.429239319
 31
0.0
 70
   160
  1
<>
 71
     2
 42
-1.0
  3
SLDDIMSTYLE0
100
AcDbAlignedDimension
 13
507.329291739
 23
624.4824564872
 33
0.0
 14
1173.329291739
 24
829.9824564872
 34
0.0
100
AcDbRotatedDimension
  0
DIMENSION
  5
31C
330
1F
100
AcDbEntity
  8
FORMAT
100
AcDbDimension
  2
_D_17
 10
1187.329291739
 20
1134.3430645966
 30
0.0
 11
847.329291739
 21
1134.3430645966
 31
0.0
 70
   160
  1
<>
 71
     2
 42
-1.0
  3
SLDDIMSTYLE0
100
AcDbAlignedDimension
 13
507.329291739
 23
624.4824564872
 33
0.0
 14
1187.329291739
 24
842.4824564868
 34
0.0
100
AcDbRotatedDimension
  0
DIMENSION
  5
326
330
1F
100
AcDbEntity
  8
FORMAT
100
AcDbDimension
  2
_D_18
 10
596.329291739
 20
596.9386013339
 30
0.0
 11
551.829291739
 21
596.9386013339
 31
0.0
 70
   160
  1
<>
 71
     2
 42
-1.0
  3
SLDDIMSTYLE0
100
AcDbAlignedDimension
 13
507.329291739
 23
624.4824564872
 33
0.0
 14
596.329291739
 24
728.2324564872
 34
0.0
100
AcDbRotatedDimension
  0
MTEXT
  5
32F
330
1F
100
AcDbEntity
  8
FORMAT
100
AcDbMText
 10
1365.8846615003
 20
1013.7502608451
 30
0.0
 40
18.5208333333
 41
0.0
 71
     1
 72
     1
  1
ø20 (optional)
  7
SLDTEXTSTYLE0
 73
     1
 44
1.0
  0
LEADER
  5
331
330
1F
100
AcDbEntity
  8
FORMAT
100
AcDbLeader
  3
SLDDIMSTYLE3
 76
     3
 10
1181.9318018965
 20
822.5811640676
 30
0.0
 10
1317.7247694887
 20
1004.7778198501
 30
0.0
 10
1362.1747694887
 20
1004.7778198501
 30
0.0
  0
INSERT
  5
337
102
{ACAD_REACTORS
330
338
102
}
330
1F
100
AcDbEntity
  8
FORMAT
100
AcDbBlockReference
  2
SW_NOTE_0_5
 10
392.6526192252
 20
968.4098626437
 30
0.0
  0
LEADER
  5
338
330
1F
100
AcDbEntity
  8
FORMAT
100
AcDbLeader
  3
SLDDIMSTYLE3
 73
     2
 76
     3
 10
525.2261028899
 20
825.4040147854
 30
0.0
 10
437.1026192252
 20
968.4098626437
 30
0.0
 10
392.6526192252
 20
968.4098626437
 30
0.0
340
337
  0
MTEXT
  5
339
330
1F
100
AcDbEntity
  8
FORMAT
100
AcDbMText
 10
1353.9490797587
 20
869.1688226028
 30
0.0
 40
18.5208333333
 41
0.0
 71
     1
 72
     1
  1
Unterkante Türrahmen
  7
SLDTEXTSTYLE0
 73
     1
 44
1.0
  0
LEADER
  5
33A
330
1F
100
AcDbEntity
  8
FORMAT
100
AcDbLeader
  3
SLDDIMSTYLE3
 76
     3
 10
1305.9606359015
 20
755.4824564872
 30
0.0
 10
1305.9896479464
 20
859.8490688023
 30
0.0
 10
1350.4396479464
 20
859.8490688023
 30
0.0
  0
INSERT
  5
346
330
1F
100
AcDbEntity
  8
FORMAT
100
AcDbBlockReference
  2
SW_CENTERMARKSYMBOL_0
 10
596.329291739
 20
733.2324564872
 30
0.0
  0
INSERT
  5
352
330
1F
100
AcDbEntity
  8
FORMAT
100
AcDbBlockReference
  2
SW_CENTERMARKSYMBOL_1
 10
1229.329291739
 20
733.2324564872
 30
0.0
  0
INSERT
  5
35E
330
1F
100
AcDbEntity
  8
FORMAT
100
AcDbBlockReference
  2
SW_CENTERMARKSYMBOL_2
 10
724.329291739
 20
766.4824564868
 30
0.0
  0
INSERT
  5
36A
330
1F
100
AcDbEntity
  8
FORMAT
100
AcDbBlockReference
  2
SW_CENTERMARKSYMBOL_3
 10
724.329291739
 20
842.4824564868
 30
0.0
  0
INSERT
  5
376
330
1F
100
AcDbEntity
  8
FORMAT
100
AcDbBlockReference
  2
SW_CENTERMARKSYMBOL_4
 10
931.329291739
 20
766.4824564868
 30
0.0
  0
INSERT
  5
382
330
1F
100
AcDbEntity
  8
FORMAT
100
AcDbBlockReference
  2
SW_CENTERMARKSYMBOL_5
 10
931.329291739
 20
842.4824564868
 30
0.0
  0
INSERT
  5
38E
330
1F
100
AcDbEntity
  8
FORMAT
100
AcDbBlockReference
  2
SW_CENTERMARKSYMBOL_6
 10
1157.329291739
 20
766.4824564868
 30
0.0
  0
INSERT
  5
39A
330
1F
100
AcDbEntity
  8
FORMAT
100
AcDbBlockReference
  2
SW_CENTERMARKSYMBOL_7
 10
1157.329291739
 20
842.4824564868
 30
0.0
  0
INSERT
  5
3A6
330
1F
100
AcDbEntity
  8
FORMAT
100
AcDbBlockReference
  2
SW_CENTERMARKSYMBOL_8
 10
531.329291739
 20
793.4824564872
 30
0.0
  0
INSERT
  5
3B2
330
1F
100
AcDbEntity
  8
FORMAT
100
AcDbBlockReference
  2
SW_CENTERMARKSYMBOL_9
 10
531.329291739
 20
817.4824564872
 30
0.0
  0
INSERT
  5
3BE
330
1F
100
AcDbEntity
  8
FORMAT
100
AcDbBlockReference
  2
SW_CENTERMARKSYMBOL_10
 10
1173.329291739
 20
793.4824564872
 30
0.0
  0
INSERT
  5
3CA
330
1F
100
AcDbEntity
  8
FORMAT
100
AcDbBlockReference
  2
SW_CENTERMARKSYMBOL_11
 10
1173.329291739
 20
817.4824564872
 30
0.0
  0
CIRCLE
  5
3CB
330
1F
100
AcDbEntity
  8
0
  6
Continuous
 62
     7
370
    18
100
AcDbCircle
 10
732.1094473077
 20
804.2406767455
 30
0.0
 40
53.3002289101214
  0
MTEXT
  5
3CC
330
1F
100
AcDbEntity
  8
0
  6
Continuous
 62
     7
370
    18
100
AcDbMText
 10
763.2357964664
 20
911.399892708
 30
0.0
 40
35.0
 41
0.0
 71
     1
 72
     1
  1
C
  7
SLDTEXTSTYLE0
 73
     1
 44
1.0
  0
LINE
  5
3CD
330
1F
100
AcDbEntity
  8
FORMAT
  6
CENTERX2
370
    18
100
AcDbLine
 10
507.329291739
 20
624.4824564872
 30
0.0
 11
507.329291739
 21
516.1321486606
 31
0.0
  0
LINE
  5
3CE
330
1F
100
AcDbEntity
  8
0
  6
Continuous
 62
     7
370
    25
100
AcDbLine
 10
2322.4575851925
 20
1719.7489515303
 30
0.0
 11
2322.4575851925
 21
1720.7489515303
 31
0.0
  0
LINE
  5
3CF
330
1F
100
AcDbEntity
  8
0
  6
Continuous
 62
     7
370
    25
100
AcDbLine
 10
2245.7075851915
 20
1611.7489515303
 30
0.0
 11
2245.7075851915
 21
1609.7489515365
 31
0.0
  0
LINE
  5
3D0
330
1F
100
AcDbEntity
  8
0
  6
Continuous
 62
     7
370
    25
100
AcDbLine
 10
2259.7075851915
 20
1609.7489515365
 30
0.0
 11
2259.7075851915
 21
1611.7489515303
 31
0.0
  0
LINE
  5
3D1
330
1F
100
AcDbEntity
  8
0
  6
Continuous
 62
     7
370
    25
100
AcDbLine
 10
2257.7075851915
 20
1611.7489515303
 30
0.0
 11
2257.7075851915
 21
1612.2489515303
 31
0.0
  0
LINE
  5
3D2
330
1F
100
AcDbEntity
  8
0
  6
Continuous
 62
     7
370
    25
100
AcDbLine
 10
2247.7075851915
 20
1612.2489515303
 30
0.0
 11
2247.7075851915
 21
1611.7489515303
 31
0.0
  0
LINE
  5
3D3
330
1F
100
AcDbEntity
  8
0
  6
Continuous
 62
     7
370
    25
100
AcDbLine
 10
2284.4575851927
 20
1623.7489515303
 30
0.0
 11
2284.4575851927
 21
1622.2489515304
 31
0.0
  0
LINE
  5
3D4
330
1F
100
AcDbEntity
  8
0
  6
Continuous
 62
     7
370
    25
100
AcDbLine
 10
2314.4575851926
 20
1613.2489515304
 30
0.0
 11
2314.4575851926
 21
1624.7489515303
 31
0.0
  0
LINE
  5
3D5
330
1F
100
AcDbEntity
  8
0
  6
Continuous
 62
     7
370
    25
100
AcDbLine
 10
2313.4575851926
 20
1612.2489515304
 30
0.0
 11
2314.4575851926
 21
1613.2489515304
 31
0.0
  0
LWPOLYLINE
  5
3D6
330
1F
100
AcDbEntity
  8
0
  6
Continuous
 62
     7
370
    25
100
AcDbPolyline
 90
        3
 70
   128
 43
0.0
 10
2284.3054004606
 20
1621.191427946
 10
2284.2412141631
 20
1620.847820553
 10
2284.1553262504
 20
1620.459478075
  0
ARC
  5
3D7
330
1F
100
AcDbEntity
  8
0
  6
Continuous
 62
     7
370
    25
100
AcDbCircle
 10
2281.4575851927
 20
1622.2489515304
 30
0.0
 40
3.0
100
AcDbArc
 50
347.449168654
 51
0.0000000003
  0
LINE
  5
3D8
330
1F
100
AcDbEntity
  8
0
  6
Continuous
 62
     7
370
    25
100
AcDbLine
 10
2241.7075851919
 20
1613.2489515303
 30
0.0
 11
2242.7075851919
 21
1612.2489515303
 31
0.0
  0
LINE
  5
3D9
330
1F
100
AcDbEntity
  8
0
  6
Continuous
 62
     7
370
    25
100
AcDbLine
 10
2242.7075851919
 20
1619.2489515303
 30
0.0
 11
2241.7075851919
 21
1618.2489515303
 31
0.0
  0
LINE
  5
3DA
330
1F
100
AcDbEntity
  8
0
  6
Continuous
 62
     7
370
    25
100
AcDbLine
 10
2241.7075851919
 20
1618.2489515303
 30
0.0
 11
2241.7075851919
 21
1613.2489515303
 31
0.0
  0
LINE
  5
3DB
330
1F
100
AcDbEntity
  8
0
  6
Continuous
 62
     7
370
    25
100
AcDbLine
 10
2169.4575851928
 20
1323.2489515303
 30
0.0
 11
2169.4575851928
 21
1643.2489515303
 31
0.0
  0
LINE
  5
3DC
330
1F
100
AcDbEntity
  8
0
  6
Continuous
 62
     7
370
    25
100
AcDbLine
 10
2169.4575851928
 20
1643.2489515303
 30
0.0
 11
2209.4575851928
 21
1643.2489515303
 31
0.0
  0
LINE
  5
3DD
330
1F
100
AcDbEntity
  8
0
  6
Continuous
 62
     7
370
    25
100
AcDbLine
 10
2209.4575851928
 20
1618.2489515303
 30
0.0
 11
2209.4575851928
 21
1643.2489515303
 31
0.0
  0
LINE
  5
3DE
330
1F
100
AcDbEntity
  8
0
  6
Continuous
 62
     7
370
    25
100
AcDbLine
 10
2209.4575851928
 20
1618.2489515303
 30
0.0
 11
2239.4575851928
 21
1618.2489515303
 31
0.0
  0
LINE
  5
3DF
330
1F
100
AcDbEntity
  8
0
  6
Continuous
 62
     7
370
    25
100
AcDbLine
 10
2239.4575851928
 20
1618.2489515303
 30
0.0
 11
2239.4575851928
 21
1609.2489515345
 31
0.0
  0
LINE
  5
3E0
330
1F
100
AcDbEntity
  8
0
  6
Continuous
 62
     7
370
    25
100
AcDbLine
 10
2239.4575851928
 20
1593.2489515365
 30
0.0
 11
2239.4575851928
 21
1323.2489515303
 31
0.0
  0
LINE
  5
3E1
330
1F
100
AcDbEntity
  8
0
  6
Continuous
 62
     7
370
    25
100
AcDbLine
 10
2239.4575851928
 20
1323.2489515303
 30
0.0
 11
2169.4575851928
 21
1323.2489515303
 31
0.0
  0
LINE
  5
3E2
330
1F
100
AcDbEntity
  8
0
  6
Continuous
 62
     7
370
    25
100
AcDbLine
 10
2239.4575851928
 20
1823.2489515303
 30
0.0
 11
2239.4575851928
 21
1719.7489515303
 31
0.0
  0
LINE
  5
3E3
330
1F
100
AcDbEntity
  8
0
  6
Continuous
 62
     7
370
    25
100
AcDbLine
 10
2239.4575851928
 20
1624.7489515303
 30
0.0
 11
2239.4575851928
 21
1623.2489515303
 31
0.0
  0
LINE
  5
3E4
330
1F
100
AcDbEntity
  8
0
  6
Continuous
 62
     7
370
    25
100
AcDbLine
 10
2239.4575851928
 20
1623.2489515303
 30
0.0
 11
2209.4575851928
 21
1623.2489515303
 31
0.0
  0
LINE
  5
3E5
330
1F
100
AcDbEntity
  8
0
  6
Continuous
 62
     7
370
    25
100
AcDbLine
 10
2209.4575851928
 20
1623.2489515303
 30
0.0
 11
2209.4575851928
 21
1648.2489515303
 31
0.0
  0
LINE
  5
3E6
330
1F
100
AcDbEntity
  8
0
  6
Continuous
 62
     7
370
    25
100
AcDbLine
 10
2209.4575851928
 20
1648.2489515303
 30
0.0
 11
2169.4575851928
 21
1648.2489515303
 31
0.0
  0
LINE
  5
3E7
330
1F
100
AcDbEntity
  8
0
  6
Continuous
 62
     7
370
    25
100
AcDbLine
 10
2169.4575851928
 20
1823.2489515303
 30
0.0
 11
2169.4575851928
 21
1648.2489515303
 31
0.0
  0
LINE
  5
3E8
330
1F
100
AcDbEntity
  8
0
  6
Continuous
 62
     7
370
    25
100
AcDbLine
 10
2169.4575851928
 20
1823.2489515303
 30
0.0
 11
2239.4575851928
 21
1823.2489515303
 31
0.0
  0
LINE
  5
3E9
330
1F
100
AcDbEntity
  8
0
  6
Continuous
 62
     7
370
    25
100
AcDbLine
 10
2239.4575851928
 20
1618.2489515303
 30
0.0
 11
2239.4575851928
 21
1623.2489515303
 31
0.0
  0
LINE
  5
3EA
330
1F
100
AcDbEntity
  8
0
  6
Continuous
 62
     7
370
    25
100
AcDbLine
 10
2169.4575851928
 20
1648.2489515303
 30
0.0
 11
2169.4575851928
 21
1643.2489515303
 31
0.0
  0
LINE
  5
3EB
330
1F
100
AcDbEntity
  8
0
  6
Continuous
 62
     7
370
    25
100
AcDbLine
 10
2299.4575851925
 20
1720.7489515303
 30
0.0
 11
2299.4575851925
 21
1719.7489515303
 31
0.0
  0
LINE
  5
3EC
330
1F
100
AcDbEntity
  8
0
  6
Continuous
 62
     7
370
    25
100
AcDbLine
 10
2240.4575851925
 20
1720.7489515303
 30
0.0
 11
2299.4575851925
 21
1720.7489515303
 31
0.0
  0
LINE
  5
3ED
330
1F
100
AcDbEntity
  8
0
  6
Continuous
 62
     7
370
    25
100
AcDbLine
 10
2240.4575851925
 20
1719.7489515303
 30
0.0
 11
2240.4575851925
 21
1720.7489515303
 31
0.0
  0
LINE
  5
3EE
330
1F
100
AcDbEntity
  8
0
  6
Continuous
 62
     7
370
    25
100
AcDbLine
 10
2299.4575851925
 20
1720.7489515303
 30
0.0
 11
2322.4575851925
 21
1720.7489515303
 31
0.0
  0
LINE
  5
3EF
330
1F
100
AcDbEntity
  8
0
  6
Continuous
 62
     7
370
    25
100
AcDbLine
 10
2296.4575851925
 20
1624.7489515303
 30
0.0
 11
2296.4575851925
 21
1623.7489515303
 31
0.0
  0
LINE
  5
3F0
330
1F
100
AcDbEntity
  8
0
  6
Continuous
 62
     7
370
    25
100
AcDbLine
 10
2296.4575851925
 20
1623.7489515303
 30
0.0
 11
2240.4575851925
 21
1623.7489515303
 31
0.0
  0
LINE
  5
3F1
330
1F
100
AcDbEntity
  8
0
  6
Continuous
 62
     7
370
    25
100
AcDbLine
 10
2240.4575851925
 20
1623.7489515303
 30
0.0
 11
2240.4575851925
 21
1624.7489515303
 31
0.0
  0
LINE
  5
3F2
330
1F
100
AcDbEntity
  8
0
  6
Continuous
 62
     7
370
    25
100
AcDbLine
 10
2354.4575851925
 20
1629.7489515303
 30
0.0
 11
2354.4575851925
 21
1714.7489515303
 31
0.0
  0
LINE
  5
3F3
330
1F
100
AcDbEntity
  8
0
  6
Continuous
 62
     7
370
    25
100
AcDbLine
 10
2239.4575851925
 20
1629.7489515303
 30
0.0
 11
2354.4575851925
 21
1629.7489515303
 31
0.0
  0
LINE
  5
3F4
330
1F
100
AcDbEntity
  8
0
  6
Continuous
 62
     7
370
    25
100
AcDbLine
 10
2239.4575851925
 20
1714.7489515303
 30
0.0
 11
2239.4575851925
 21
1629.7489515303
 31
0.0
  0
LINE
  5
3F5
330
1F
100
AcDbEntity
  8
0
  6
Continuous
 62
     7
370
    25
100
AcDbLine
 10
2354.4575851925
 20
1714.7489515303
 30
0.0
 11
2239.4575851925
 21
1714.7489515303
 31
0.0
  0
LINE
  5
3F6
330
1F
100
AcDbEntity
  8
0
  6
Continuous
 62
     7
370
    25
100
AcDbLine
 10
2251.4575851925
 20
1701.7489515303
 30
0.0
 11
2251.4575851925
 21
1642.7489515303
 31
0.0
  0
ARC
  5
3F7
330
1F
100
AcDbEntity
  8
0
  6
Continuous
 62
     7
370
    25
100
AcDbCircle
 10
2254.4575851925
 20
1642.7489515303
 30
0.0
 40
3.0
100
AcDbArc
 50
180.0
 51
270.0
  0
LINE
  5
3F8
330
1F
100
AcDbEntity
  8
0
  6
Continuous
 62
     7
370
    25
100
AcDbLine
 10
2254.4575851925
 20
1639.7489515303
 30
0.0
 11
2340.4575851925
 21
1639.7489515303
 31
0.0
  0
ARC
  5
3F9
330
1F
100
AcDbEntity
  8
0
  6
Continuous
 62
     7
370
    25
100
AcDbCircle
 10
2340.4575851925
 20
1642.7489515303
 30
0.0
 40
3.0
100
AcDbArc
 50
270.0
 51
0.0
  0
LINE
  5
3FA
330
1F
100
AcDbEntity
  8
0
  6
Continuous
 62
     7
370
    25
100
AcDbLine
 10
2343.4575851925
 20
1642.7489515303
 30
0.0
 11
2343.4575851925
 21
1701.7489515303
 31
0.0
  0
ARC
  5
3FB
330
1F
100
AcDbEntity
  8
0
  6
Continuous
 62
     7
370
    25
100
AcDbCircle
 10
2340.4575851925
 20
1701.7489515303
 30
0.0
 40
3.0
100
AcDbArc
 50
0.0
 51
90.0
  0
LINE
  5
3FC
330
1F
100
AcDbEntity
  8
0
  6
Continuous
 62
     7
370
    25
100
AcDbLine
 10
2340.4575851925
 20
1704.7489515303
 30
0.0
 11
2254.4575851925
 21
1704.7489515303
 31
0.0
  0
ARC
  5
3FD
330
1F
100
AcDbEntity
  8
0
  6
Continuous
 62
     7
370
    25
100
AcDbCircle
 10
2254.4575851925
 20
1701.7489515303
 30
0.0
 40
3.0
100
AcDbArc
 50
90.0
 51
180.0
  0
LINE
  5
3FE
330
1F
100
AcDbEntity
  8
0
  6
Continuous
 62
     7
370
    25
100
AcDbLine
 10
2354.4575851925
 20
1717.7489515303
 30
0.0
 11
2247.9575851925
 21
1717.7489515303
 31
0.0
  0
LINE
  5
3FF
330
1F
100
AcDbEntity
  8
0
  6
Continuous
 62
     7
370
    25
100
AcDbLine
 10
2354.4575851925
 20
1714.7489515303
 30
0.0
 11
2354.4575851925
 21
1717.7489515303
 31
0.0
  0
LINE
  5
400
330
1F
100
AcDbEntity
  8
0
  6
Continuous
 62
     7
370
    25
100
AcDbLine
 10
2239.4575851925
 20
1714.7489515303
 30
0.0
 11
2239.4575851925
 21
1717.7489515303
 31
0.0
  0
LINE
  5
401
330
1F
100
AcDbEntity
  8
0
  6
Continuous
 62
     7
370
    25
100
AcDbLine
 10
2242.9575851925
 20
1717.7489515303
 30
0.0
 11
2239.4575851925
 21
1717.7489515303
 31
0.0
  0
ARC
  5
402
330
1F
100
AcDbEntity
  8
0
  6
Continuous
 62
     7
370
    25
100
AcDbCircle
 10
2245.4575851925
 20
1719.0822848636
 30
0.0
 40
2.833333333333512
100
AcDbArc
 50
208.0724869359
 51
331.9275130641
  0
LINE
  5
403
330
1F
100
AcDbEntity
  8
0
  6
Continuous
 62
     7
370
    25
100
AcDbLine
 10
2239.4575851925
 20
1626.7489515303
 30
0.0
 11
2242.9575851925
 21
1626.7489515303
 31
0.0
  0
LINE
  5
404
330
1F
100
AcDbEntity
  8
0
  6
Continuous
 62
     7
370
    25
100
AcDbLine
 10
2239.4575851925
 20
1626.7489515303
 30
0.0
 11
2239.4575851925
 21
1629.7489515303
 31
0.0
  0
LINE
  5
405
330
1F
100
AcDbEntity
  8
0
  6
Continuous
 62
     7
370
    25
100
AcDbLine
 10
2354.4575851925
 20
1626.7489515303
 30
0.0
 11
2354.4575851925
 21
1629.7489515303
 31
0.0
  0
LINE
  5
406
330
1F
100
AcDbEntity
  8
0
  6
Continuous
 62
     7
370
    25
100
AcDbLine
 10
2247.9575851925
 20
1626.7489515303
 30
0.0
 11
2354.4575851925
 21
1626.7489515303
 31
0.0
  0
ARC
  5
407
330
1F
100
AcDbEntity
  8
0
  6
Continuous
 62
     7
370
    25
100
AcDbCircle
 10
2245.4575851925
 20
1625.4156181969
 30
0.0
 40
2.833333333332335
100
AcDbArc
 50
28.0724869358
 51
151.9275130642
  0
LINE
  5
408
330
1F
100
AcDbEntity
  8
0
  6
Continuous
 62
     7
370
    25
100
AcDbLine
 10
2357.4575851925
 20
1629.7489515303
 30
0.0
 11
2357.4575851925
 21
1714.748951535
 31
0.0
  0
LINE
  5
409
330
1F
100
AcDbEntity
  8
0
  6
Continuous
 62
     7
370
    25
100
AcDbLine
 10
2354.4575851925
 20
1629.7489515303
 30
0.0
 11
2357.4575851925
 21
1629.7489515303
 31
0.0
  0
LINE
  5
40A
330
1F
100
AcDbEntity
  8
0
  6
Continuous
 62
     7
370
    25
100
AcDbLine
 10
2357.4575851925
 20
1714.7489515303
 30
0.0
 11
2354.4575851925
 21
1714.7489515303
 31
0.0
  0
ARC
  5
40B
330
1F
100
AcDbEntity
  8
0
  6
Continuous
 62
     7
370
    25
100
AcDbCircle
 10
2354.4575851925
 20
1629.7489515303
 30
0.0
 40
3.000000000000455
100
AcDbArc
 50
269.9999996402
 51
0.0
  0
ARC
  5
40C
330
1F
100
AcDbEntity
  8
0
  6
Continuous
 62
     7
370
    25
100
AcDbCircle
 10
2354.4575851925
 20
1714.7489515303
 30
0.0
 40
3.000000000000455
100
AcDbArc
 50
0.0000001799
 51
90.0
  0
ARC
  5
40D
330
1F
100
AcDbEntity
  8
0
  6
Continuous
 62
     7
370
    25
100
AcDbCircle
 10
2354.4575851925
 20
1714.7489515303
 30
0.0
 40
5.000000000000455
100
AcDbArc
 50
0.0
 51
90.0
  0
LINE
  5
40E
330
1F
100
AcDbEntity
  8
0
  6
Continuous
 62
     7
370
    25
100
AcDbLine
 10
2359.4575851925
 20
1714.7489515303
 30
0.0
 11
2359.4575851925
 21
1629.7489515303
 31
0.0
  0
ARC
  5
40F
330
1F
100
AcDbEntity
  8
0
  6
Continuous
 62
     7
370
    25
100
AcDbCircle
 10
2354.4575851925
 20
1629.7489515303
 30
0.0
 40
5.0
100
AcDbArc
 50
270.0
 51
0.0
  0
LINE
  5
410
330
1F
100
AcDbEntity
  8
0
  6
Continuous
 62
     7
370
    25
100
AcDbLine
 10
2354.4575851925
 20
1624.7489515303
 30
0.0
 11
2239.4575851925
 21
1624.7489515303
 31
0.0
  0
LINE
  5
411
330
1F
100
AcDbEntity
  8
0
  6
Continuous
 62
     7
370
    25
100
AcDbLine
 10
2239.4575851925
 20
1719.7489515303
 30
0.0
 11
2354.4575851925
 21
1719.7489515303
 31
0.0
  0
LINE
  5
412
330
1F
100
AcDbEntity
  8
0
  6
Continuous
 62
     7
370
    25
100
AcDbLine
 10
2239.4575851925
 20
1717.7489515303
 30
0.0
 11
2239.4575851925
 21
1719.7489515303
 31
0.0
  0
LINE
  5
413
330
1F
100
AcDbEntity
  8
0
  6
Continuous
 62
     7
370
    25
100
AcDbLine
 10
2239.4575851925
 20
1624.7489515303
 30
0.0
 11
2239.4575851925
 21
1626.7489515303
 31
0.0
  0
LINE
  5
414
330
1F
100
AcDbEntity
  8
0
  6
Continuous
 62
     7
370
    25
100
AcDbLine
 10
2245.7115083117
 20
1611.7489515303
 30
0.0
 11
2245.7075851915
 21
1611.7489515303
 31
0.0
  0
LINE
  5
415
330
1F
100
AcDbEntity
  8
0
  6
Continuous
 62
     7
370
    25
100
AcDbLine
 10
2259.7075851915
 20
1611.7489515303
 30
0.0
 11
2245.7115083117
 21
1611.7489515303
 31
0.0
  0
LINE
  5
416
330
1F
100
AcDbEntity
  8
0
  6
Continuous
 62
     7
370
    25
100
AcDbLine
 10
2314.4575851926
 20
1613.2489515304
 30
0.0
 11
2284.5603856997
 21
1613.2489515304
 31
0.0
  0
LINE
  5
417
330
1F
100
AcDbEntity
  8
0
  6
Continuous
 62
     7
370
    25
100
AcDbLine
 10
2284.5603856997
 20
1613.2489515304
 30
0.0
 11
2284.5603856997
 21
1622.2489515304
 31
0.0
  0
LINE
  5
418
330
1F
100
AcDbEntity
  8
0
  6
Continuous
 62
     7
370
    25
100
AcDbLine
 10
2313.4575851926
 20
1612.2489515304
 30
0.0
 11
2285.5535323326
 21
1612.2489515304
 31
0.0
  0
LINE
  5
419
330
1F
100
AcDbEntity
  8
0
  6
Continuous
 62
     7
370
    25
100
AcDbLine
 10
2285.5535323326
 20
1612.2489515304
 30
0.0
 11
2284.5603856997
 21
1613.2489515304
 31
0.0
  0
ARC
  5
41A
330
1F
100
AcDbEntity
  8
0
  6
Continuous
 62
     7
370
    25
100
AcDbCircle
 10
2290.9853593637
 20
1620.1727656581
 30
0.0
 40
6.752098515215837
100
AcDbArc
 50
162.0921195466
 51
171.7423680327
  0
LWPOLYLINE
  5
41B
330
1F
100
AcDbEntity
  8
0
  6
Continuous
 62
     7
370
    25
100
AcDbPolyline
 90
       11
 70
   128
 43
0.0
 10
2284.5603856997
 20
1622.2489515304
 10
2284.5603624297
 20
1622.2488554686
 10
2284.5601828481
 20
1622.2480629979
 10
2284.559687272
 20
1622.2458297048
 10
2284.5578179461
 20
1622.2373288368
 10
2284.5505666
 20
1622.2041899734
 10
2284.3383564621
 20
1621.2439929539
 10
2284.1313722457
 20
1620.3620968439
 10
2283.9331470999
 20
1619.6107052576
 10
2283.5962736683
 20
1618.6523034586
 10
2283.2380960188
 20
1618.2489515304
  0
LINE
  5
41C
330
1F
100
AcDbEntity
  8
0
  6
Continuous
 62
     7
370
    25
100
AcDbLine
 10
2284.5603856997
 20
1613.2489515304
 30
0.0
 11
2259.9615543789
 21
1613.2489515303
 31
0.0
  0
LINE
  5
41D
330
1F
100
AcDbEntity
  8
0
  6
Continuous
 62
     7
370
    25
100
AcDbLine
 10
2259.9615543789
 20
1618.2489515303
 30
0.0
 11
2259.9615543789
 21
1613.2489515303
 31
0.0
  0
LINE
  5
41E
330
1F
100
AcDbEntity
  8
0
  6
Continuous
 62
     7
370
    25
100
AcDbLine
 10
2283.2380960188
 20
1618.2489515304
 30
0.0
 11
2259.9615543789
 21
1618.2489515303
 31
0.0
  0
LINE
  5
41F
330
1F
100
AcDbEntity
  8
0
  6
Continuous
 62
     7
370
    25
100
AcDbLine
 10
2260.9547010118
 20
1612.2489515304
 30
0.0
 11
2259.9615543789
 21
1613.2489515303
 31
0.0
  0
LINE
  5
420
330
1F
100
AcDbEntity
  8
0
  6
Continuous
 62
     7
370
    25
100
AcDbLine
 10
2285.5535323326
 20
1612.2489515304
 30
0.0
 11
2260.9547010118
 21
1612.2489515304
 31
0.0
  0
LINE
  5
421
330
1F
100
AcDbEntity
  8
0
  6
Continuous
 62
     7
370
    25
100
AcDbLine
 10
2260.9547010118
 20
1619.2489515303
 30
0.0
 11
2259.9615543789
 21
1618.2489515303
 31
0.0
  0
LINE
  5
422
330
1F
100
AcDbEntity
  8
0
  6
Continuous
 62
     7
370
    25
100
AcDbLine
 10
2260.9547010118
 20
1619.2489515303
 30
0.0
 11
2283.8059924769
 21
1619.2489515304
 31
0.0
  0
LINE
  5
423
330
1F
100
AcDbEntity
  8
0
  6
Continuous
 62
     7
370
    25
100
AcDbLine
 10
2259.8490845871
 20
1613.2489515303
 30
0.0
 11
2259.9615543789
 21
1613.2489515303
 31
0.0
  0
LINE
  5
424
330
1F
100
AcDbEntity
  8
0
  6
Continuous
 62
     7
370
    25
100
AcDbLine
 10
2259.8490845871
 20
1613.2489515303
 30
0.0
 11
2259.8490845871
 21
1618.2489515303
 31
0.0
  0
LINE
  5
425
330
1F
100
AcDbEntity
  8
0
  6
Continuous
 62
     7
370
    25
100
AcDbLine
 10
2259.9615543789
 20
1618.2489515303
 30
0.0
 11
2259.8490845871
 21
1618.2489515303
 31
0.0
  0
LINE
  5
426
330
1F
100
AcDbEntity
  8
0
  6
Continuous
 62
     7
370
    25
100
AcDbLine
 10
2260.8444806158
 20
1612.2489515304
 30
0.0
 11
2259.8490845871
 21
1613.2489515303
 31
0.0
  0
LINE
  5
427
330
1F
100
AcDbEntity
  8
0
  6
Continuous
 62
     7
370
    25
100
AcDbLine
 10
2260.9547010118
 20
1612.2489515304
 30
0.0
 11
2260.8444806158
 21
1612.2489515304
 31
0.0
  0
LINE
  5
428
330
1F
100
AcDbEntity
  8
0
  6
Continuous
 62
     7
370
    25
100
AcDbLine
 10
2259.8490845871
 20
1618.2489515303
 30
0.0
 11
2260.8444806158
 21
1619.2489515303
 31
0.0
  0
LINE
  5
429
330
1F
100
AcDbEntity
  8
0
  6
Continuous
 62
     7
370
    25
100
AcDbLine
 10
2260.8444806158
 20
1619.2489515303
 30
0.0
 11
2260.9547010118
 21
1619.2489515303
 31
0.0
  0
LINE
  5
42A
330
1F
100
AcDbEntity
  8
0
  6
Continuous
 62
     7
370
    25
100
AcDbLine
 10
2242.7536249048
 20
1612.2489515303
 30
0.0
 11
2241.7582288761
 21
1613.2489515303
 31
0.0
  0
LINE
  5
42B
330
1F
100
AcDbEntity
  8
0
  6
Continuous
 62
     7
370
    25
100
AcDbLine
 10
2259.8490845871
 20
1613.2489515303
 30
0.0
 11
2241.7582288761
 21
1613.2489515303
 31
0.0
  0
LINE
  5
42C
330
1F
100
AcDbEntity
  8
0
  6
Continuous
 62
     7
370
    25
100
AcDbLine
 10
2260.8444806158
 20
1612.2489515304
 30
0.0
 11
2242.7536249048
 21
1612.2489515303
 31
0.0
  0
LINE
  5
42D
330
1F
100
AcDbEntity
  8
0
  6
Continuous
 62
     7
370
    25
100
AcDbLine
 10
2241.7582288761
 20
1618.2489515303
 30
0.0
 11
2242.7536249048
 21
1619.2489515303
 31
0.0
  0
LINE
  5
42E
330
1F
100
AcDbEntity
  8
0
  6
Continuous
 62
     7
370
    25
100
AcDbLine
 10
2259.8490845871
 20
1618.2489515303
 30
0.0
 11
2241.7582288761
 21
1618.2489515303
 31
0.0
  0
LINE
  5
42F
330
1F
100
AcDbEntity
  8
0
  6
Continuous
 62
     7
370
    25
100
AcDbLine
 10
2242.7536249048
 20
1619.2489515303
 30
0.0
 11
2260.8444806158
 21
1619.2489515303
 31
0.0
  0
LINE
  5
430
330
1F
100
AcDbEntity
  8
0
  6
Continuous
 62
     7
370
    25
100
AcDbLine
 10
2241.7582288761
 20
1613.2489515303
 30
0.0
 11
2241.7582288761
 21
1618.2489515303
 31
0.0
  0
LINE
  5
431
330
1F
100
AcDbEntity
  8
0
  6
Continuous
 62
     7
370
    25
100
AcDbLine
 10
2241.7582288761
 20
1613.2489515303
 30
0.0
 11
2241.7075851919
 21
1613.2489515303
 31
0.0
  0
LINE
  5
432
330
1F
100
AcDbEntity
  8
0
  6
Continuous
 62
     7
370
    25
100
AcDbLine
 10
2242.7536249048
 20
1612.2489515303
 30
0.0
 11
2242.7075851919
 21
1612.2489515303
 31
0.0
  0
LINE
  5
433
330
1F
100
AcDbEntity
  8
0
  6
Continuous
 62
     7
370
    25
100
AcDbLine
 10
2241.7582288761
 20
1618.2489515303
 30
0.0
 11
2241.7075851919
 21
1618.2489515303
 31
0.0
  0
LINE
  5
434
330
1F
100
AcDbEntity
  8
0
  6
Continuous
 62
     7
370
    25
100
AcDbLine
 10
2242.7075851919
 20
1619.2489515303
 30
0.0
 11
2242.7536249048
 21
1619.2489515303
 31
0.0
  0
LINE
  5
435
330
1F
100
AcDbEntity
  8
0
  6
Continuous
 62
     7
370
    25
100
AcDbLine
 10
2239.9575851904
 20
1593.2489515365
 30
0.0
 11
2266.9575851904
 21
1593.2489515365
 31
0.0
  0
LINE
  5
436
330
1F
100
AcDbEntity
  8
0
  6
Continuous
 62
     7
370
    25
100
AcDbLine
 10
2239.9575851904
 20
1609.2489515365
 30
0.0
 11
2239.9575851904
 21
1593.2489515365
 31
0.0
  0
LINE
  5
437
330
1F
100
AcDbEntity
  8
0
  6
Continuous
 62
     7
370
    25
100
AcDbLine
 10
2266.9575851904
 20
1609.2489515365
 30
0.0
 11
2239.9575851904
 21
1609.2489515365
 31
0.0
  0
LINE
  5
438
330
1F
100
AcDbEntity
  8
0
  6
Continuous
 62
     7
370
    25
100
AcDbLine
 10
2266.9575851904
 20
1593.2489515365
 30
0.0
 11
2266.9575851904
 21
1609.2489515365
 31
0.0
  0
LINE
  5
439
330
1F
100
AcDbEntity
  8
0
  6
Continuous
 62
     7
370
    25
100
AcDbLine
 10
2239.9575851904
 20
1609.2489515365
 30
0.0
 11
2239.4575851904
 21
1609.2489515365
 31
0.0
  0
ARC
  5
43A
330
1F
100
AcDbEntity
  8
0
  6
Continuous
 62
     7
370
    25
100
AcDbCircle
 10
2239.9575851904
 20
1609.2489515365
 30
0.0
 40
0.5
100
AcDbArc
 50
89.9999999999
 51
180.0
  0
LINE
  5
43B
330
1F
100
AcDbEntity
  8
0
  6
Continuous
 62
     7
370
    25
100
AcDbLine
 10
2239.9575851905
 20
1609.7489515365
 30
0.0
 11
2239.9575851904
 21
1609.2489515365
 31
0.0
  0
LINE
  5
43C
330
1F
100
AcDbEntity
  8
0
  6
Continuous
 62
     7
370
    25
100
AcDbLine
 10
2239.4575851904
 20
1593.2489515365
 30
0.0
 11
2239.9575851904
 21
1593.2489515365
 31
0.0
  0
LINE
  5
43D
330
1F
100
AcDbEntity
  8
0
  6
Continuous
 62
     7
370
    25
100
AcDbLine
 10
2239.9575851904
 20
1593.2489515365
 30
0.0
 11
2239.9575851904
 21
1592.7489515365
 31
0.0
  0
ARC
  5
43E
330
1F
100
AcDbEntity
  8
0
  6
Continuous
 62
     7
370
    25
100
AcDbCircle
 10
2239.9575851904
 20
1593.2489515365
 30
0.0
 40
0.5
100
AcDbArc
 50
180.0
 51
270.0000000001
  0
LINE
  5
43F
330
1F
100
AcDbEntity
  8
0
  6
Continuous
 62
     7
370
    25
100
AcDbLine
 10
2266.9575851904
 20
1592.7489515365
 30
0.0
 11
2266.9575851904
 21
1593.2489515365
 31
0.0
  0
LINE
  5
440
330
1F
100
AcDbEntity
  8
0
  6
Continuous
 62
     7
370
    25
100
AcDbLine
 10
2239.9575851904
 20
1592.7489515365
 30
0.0
 11
2266.9575851904
 21
1592.7489515365
 31
0.0
  0
LINE
  5
441
330
1F
100
AcDbEntity
  8
0
  6
Continuous
 62
     7
370
    25
100
AcDbLine
 10
2266.9575851904
 20
1609.2489515365
 30
0.0
 11
2266.9575851904
 21
1609.7489515365
 31
0.0
  0
LINE
  5
442
330
1F
100
AcDbEntity
  8
0
  6
Continuous
 62
     7
370
    25
100
AcDbLine
 10
2266.9575851904
 20
1609.7489515365
 30
0.0
 11
2239.9575851905
 21
1609.7489515365
 31
0.0
  0
LINE
  5
443
330
1F
100
AcDbEntity
  8
0
  6
Continuous
 62
     7
370
    25
100
AcDbLine
 10
2239.4575851904
 20
1609.2489515365
 30
0.0
 11
2239.4575851904
 21
1593.2489515365
 31
0.0
  0
LINE
  5
444
330
1F
100
AcDbEntity
  8
0
  6
Continuous
 62
     7
370
    25
100
AcDbLine
 10
2266.9575851904
 20
1593.2489515365
 30
0.0
 11
2267.4575851904
 21
1593.2489515365
 31
0.0
  0
ARC
  5
445
330
1F
100
AcDbEntity
  8
0
  6
Continuous
 62
     7
370
    25
100
AcDbCircle
 10
2266.9575851904
 20
1593.2489515365
 30
0.0
 40
0.5000000000009095
100
AcDbArc
 50
270.0
 51
0.0
  0
LINE
  5
446
330
1F
100
AcDbEntity
  8
0
  6
Continuous
 62
     7
370
    25
100
AcDbLine
 10
2267.4575851904
 20
1609.2489515365
 30
0.0
 11
2266.9575851904
 21
1609.2489515365
 31
0.0
  0
ARC
  5
447
330
1F
100
AcDbEntity
  8
0
  6
Continuous
 62
     7
370
    25
100
AcDbCircle
 10
2266.9575851904
 20
1609.2489515365
 30
0.0
 40
0.5
100
AcDbArc
 50
360.0
 51
90.0
  0
LINE
  5
448
330
1F
100
AcDbEntity
  8
0
  6
Continuous
 62
     7
370
    25
100
AcDbLine
 10
2267.4575851904
 20
1593.2489515365
 30
0.0
 11
2267.4575851904
 21
1609.2489515365
 31
0.0
  0
LINE
  5
449
330
1F
100
AcDbEntity
  8
0
  6
Continuous
 62
     7
370
    25
100
AcDbLine
 10
2284.4575851927
 20
1622.2489515304
 30
0.0
 11
2284.5603856997
 21
1622.2489515304
 31
0.0
  0
LINE
  5
44A
330
1F
100
AcDbEntity
  8
FORMAT
370
    25
100
AcDbLine
 10
2209.4575851928
 20
1832.8656753853
 30
0.0
 11
2209.4575851928
 21
1919.0809621869
 31
0.0
  0
LINE
  5
44B
330
1F
100
AcDbEntity
  8
FORMAT
370
    25
100
AcDbLine
 10
2289.4575851928
 20
1832.8656753853
 30
0.0
 11
2289.4575851928
 21
1919.0809621869
 31
0.0
  0
DIMENSION
  5
44C
330
1F
100
AcDbEntity
  8
FORMAT
100
AcDbDimension
  2
_D_19
 10
2289.4575851928
 20
1886.8277613691
 30
0.0
 11
2363.2677947568
 21
1886.8277613691
 31
0.0
 70
   160
  1
max. +<>
 71
     2
 42
-1.0
  3
SLDDIMSTYLE4
100
AcDbAlignedDimension
 13
2239.4575851928
 23
1823.2489515303
 33
0.0
 14
2289.4575851928
 24
1919.0809621869
 34
0.0
 50
0.0
100
AcDbRotatedDimension
  0
DIMENSION
  5
45D
330
1F
100
AcDbEntity
  8
FORMAT
100
AcDbDimension
  2
_D_20
 10
2209.4575851928
 20
1886.8277613691
 30
0.0
 11
2111.4574750154
 21
1886.8277613691
 31
0.0
 70
   160
  1
max. -<>
 71
     2
 42
-1.0
  3
SLDDIMSTYLE4
100
AcDbAlignedDimension
 13
2239.4575851928
 23
1823.2489515303
 33
0.0
 14
2209.4575851928
 24
1919.0809621869
 34
0.0
 50
0.0
100
AcDbRotatedDimension
  0
DIMENSION
  5
468
330
1F
100
AcDbEntity
  8
FORMAT
100
AcDbDimension
  2
_D_21
 10
2267.4575851905
 20
1470.1485136798
 30
0.0
 11
2325.4400239307
 21
1470.1485136798
 31
0.0
 70
   160
  1
<>
 71
     2
 42
-1.0
  3
SLDDIMSTYLE1
100
AcDbAlignedDimension
 13
2239.4575851928
 23
1323.2489515303
 33
0.0
 14
2267.4575851905
 24
1593.2489515365
 34
0.0
100
AcDbRotatedDimension
  0
DIMENSION
  5
473
330
1F
100
AcDbEntity
  8
FORMAT
100
AcDbDimension
  2
_D_22
 10
2359.4575851925
 20
1416.0543976845
 30
0.0
 11
2299.4575851926
 21
1416.0543976845
 31
0.0
 70
   160
  1
<>
 71
     2
 42
-1.0
  3
SLDDIMSTYLE0
100
AcDbAlignedDimension
 13
2239.4575851928
 23
1323.2489515303
 33
0.0
 14
2359.4575851925
 24
1629.7489515303
 34
0.0
100
AcDbRotatedDimension
  0
DIMENSION
  5
47C
330
1F
100
AcDbEntity
  8
FORMAT
100
AcDbDimension
  2
_D_23
 10
2429.4575851924
 20
1719.7489515303
 30
0.0
 11
2429.4575851924
 21
1656.2489515334
 31
0.0
 70
   160
  1
<>
 71
     2
 42
-1.0
  3
SLDDIMSTYLE0
100
AcDbAlignedDimension
 13
2266.9575851905
 23
1592.7489515365
 33
0.0
 14
2354.4575851925
 24
1719.7489515303
 34
0.0
 50
90.0
100
AcDbRotatedDimension
  0
DIMENSION
  5
486
330
1F
100
AcDbEntity
  8
FORMAT
100
AcDbDimension
  2
_D_24
 10
2125.2250375512
 20
1720.7489515303
 30
0.0
 11
2125.2250375512
 21
1671.9989515303
 31
0.0
 70
   160
  1
<>
 71
     2
 42
-1.0
  3
SLDDIMSTYLE0
100
AcDbAlignedDimension
 13
2209.4575851928
 23
1623.2489515303
 33
0.0
 14
2240.4575851925
 24
1720.7489515303
 34
0.0
 50
90.0
100
AcDbRotatedDimension
  0
MTEXT
  5
490
330
1F
100
AcDbEntity
  8
FORMAT
100
AcDbMText
 10
2237.6083492519
 20
1983.1914443565
 30
0.0
 40
35.0
 41
0.0
 71
     2
 72
     1
  1
A-A
  7
SLDTEXTSTYLE0
 73
     1
 44
1.0
  0
MTEXT
  5
491
330
1F
100
AcDbEntity
  8
FORMAT
100
AcDbMText
 10
2173.1473095746
 20
1299.8030235562
 30
0.0
 40
18.5208333333
 41
0.0
 71
     1
 72
     1
  1
** Sturztiefe
  7
SLDTEXTSTYLE0
 73
     1
 44
1.0
  0
CIRCLE
  5
492
330
1F
100
AcDbEntity
  8
0
  6
Continuous
 62
     7
370
    18
100
AcDbCircle
 10
2217.4269065834
 20
1685.2489515303
 30
0.0
 40
164.3558622355267
  0
MTEXT
  5
493
330
1F
100
AcDbEntity
  8
0
  6
Continuous
 62
     7
370
    18
100
AcDbMText
 10
2383.3151355221
 20
1802.3203604604
 30
0.0
 40
35.0
 41
0.0
 71
     1
 72
     1
  1
B
  7
SLDTEXTSTYLE0
 73
     1
 44
1.0
  0
LINE
  5
494
330
1F
100
AcDbEntity
  8
0
  6
Continuous
 62
     7
370
    25
100
AcDbLine
 10
2410.5511703419
 20
864.8172415039
 30
0.0
 11
2410.5511703419
 21
866.2172234795
 31
0.0
  0
LINE
  5
495
330
1F
100
AcDbEntity
  8
0
  6
Continuous
 62
     7
370
    25
100
AcDbLine
 10
2303.1011716353
 20
713.6172323665
 30
0.0
 11
2303.1011716353
 21
710.8172319076
 31
0.0
  0
LINE
  5
496
330
1F
100
AcDbEntity
  8
0
  6
Continuous
 62
     7
370
    25
100
AcDbLine
 10
2322.7011728922
 20
710.8172319076
 30
0.0
 11
2322.7011728922
 21
713.6172323665
 31
0.0
  0
LINE
  5
497
330
1F
100
AcDbEntity
  8
0
  6
Continuous
 62
     7
370
    25
100
AcDbLine
 10
2319.9011724333
 20
713.6172323665
 30
0.0
 11
2319.9011724333
 21
714.3172337851
 31
0.0
  0
LINE
  5
498
330
1F
100
AcDbEntity
  8
0
  6
Continuous
 62
     7
370
    25
100
AcDbLine
 10
2305.9011720943
 20
714.3172337851
 30
0.0
 11
2305.9011720943
 21
713.6172323665
 31
0.0
  0
LINE
  5
499
330
1F
100
AcDbEntity
  8
0
  6
Continuous
 62
     7
370
    25
100
AcDbLine
 10
2357.3511720525
 20
730.4172351202
 30
0.0
 11
2357.3511720525
 21
728.3172308645
 31
0.0
  0
LINE
  5
49A
330
1F
100
AcDbEntity
  8
0
  6
Continuous
 62
     7
370
    25
100
AcDbLine
 10
2399.3511737215
 20
715.7172314069
 30
0.0
 11
2399.3511737215
 21
731.817232742
 31
0.0
  0
LINE
  5
49B
330
1F
100
AcDbEntity
  8
0
  6
Continuous
 62
     7
370
    25
100
AcDbLine
 10
2397.9511708843
 20
714.3172337851
 30
0.0
 11
2399.3511737215
 21
715.7172314069
 31
0.0
  0
LWPOLYLINE
  5
49C
330
1F
100
AcDbEntity
  8
0
  6
Continuous
 62
     7
370
    25
100
AcDbPolyline
 90
        3
 70
   128
 43
0.0
 10
2357.1381148773
 20
726.8367021522
 10
2357.0482534247
 20
726.3556487104
 10
2356.928009622
 20
725.8119686684
  0
ARC
  5
49D
330
1F
100
AcDbEntity
  8
0
  6
Continuous
 62
     7
370
    25
100
AcDbCircle
 10
2353.1511862322
 20
728.3172345199
 30
0.0
 40
4.199985820376937
100
AcDbArc
 50
347.4491213423
 51
359.9999501334
  0
LINE
  5
49E
330
1F
100
AcDbEntity
  8
0
  6
Continuous
 62
     7
370
    25
100
AcDbLine
 10
2297.5011733251
 20
715.7172314069
 30
0.0
 11
2298.9011735546
 21
714.3172337851
 31
0.0
  0
LINE
  5
49F
330
1F
100
AcDbEntity
  8
0
  6
Continuous
 62
     7
370
    25
100
AcDbLine
 10
2298.9011735546
 20
724.1172327837
 30
0.0
 11
2297.5011733251
 21
722.717235162
 31
0.0
  0
LINE
  5
4A0
330
1F
100
AcDbEntity
  8
0
  6
Continuous
 62
     7
370
    25
100
AcDbLine
 10
2297.5011733251
 20
722.717235162
 30
0.0
 11
2297.5011733251
 21
715.7172314069
 31
0.0
  0
ARC
  5
4A1
330
1F
100
AcDbEntity
  8
0
  6
Continuous
 62
     7
370
    18
100
AcDbCircle
 10
2263.5082208342
 20
816.5171610971
 30
0.0
 40
230.098137459696
100
AcDbArc
 50
253.0304983611
 51
277.7032614193
  0
LINE
  5
4A2
330
1F
100
AcDbEntity
  8
0
  6
Continuous
 62
     7
370
    25
100
AcDbLine
 10
2196.3511743473
 20
596.4374392471
 30
0.0
 11
2196.3511743473
 21
757.7172330758
 31
0.0
  0
LINE
  5
4A3
330
1F
100
AcDbEntity
  8
0
  6
Continuous
 62
     7
370
    25
100
AcDbLine
 10
2196.3511743473
 20
757.7172330758
 30
0.0
 11
2252.3511730956
 21
757.7172330758
 31
0.0
  0
LINE
  5
4A4
330
1F
100
AcDbEntity
  8
0
  6
Continuous
 62
     7
370
    25
100
AcDbLine
 10
2252.3511730956
 20
722.717235162
 30
0.0
 11
2252.3511730956
 21
757.7172330758
 31
0.0
  0
LINE
  5
4A5
330
1F
100
AcDbEntity
  8
0
  6
Continuous
 62
     7
370
    25
100
AcDbLine
 10
2252.3511730956
 20
722.717235162
 30
0.0
 11
2294.3511721568
 21
722.717235162
 31
0.0
  0
LINE
  5
4A6
330
1F
100
AcDbEntity
  8
0
  6
Continuous
 62
     7
370
    25
100
AcDbLine
 10
2294.3511721568
 20
722.717235162
 30
0.0
 11
2294.3511721568
 21
710.117230489
 31
0.0
  0
LINE
  5
4A7
330
1F
100
AcDbEntity
  8
0
  6
Continuous
 62
     7
370
    25
100
AcDbLine
 10
2294.3511721568
 20
687.7172320327
 30
0.0
 11
2294.3511721568
 21
588.4955278775
 31
0.0
  0
LINE
  5
4A8
330
1F
100
AcDbEntity
  8
0
  6
Continuous
 62
     7
370
    25
100
AcDbLine
 10
2294.3511721568
 20
1009.7172326586
 30
0.0
 11
2294.3511721568
 21
864.8172415039
 31
0.0
  0
LINE
  5
4A9
330
1F
100
AcDbEntity
  8
0
  6
Continuous
 62
     7
370
    25
100
AcDbLine
 10
2294.3511721568
 20
731.817232742
 30
0.0
 11
2294.3511721568
 21
729.7172337017
 31
0.0
  0
LINE
  5
4AA
330
1F
100
AcDbEntity
  8
0
  6
Continuous
 62
     7
370
    25
100
AcDbLine
 10
2294.3511721568
 20
729.7172337017
 30
0.0
 11
2252.3511730956
 21
729.7172337017
 31
0.0
  0
LINE
  5
4AB
330
1F
100
AcDbEntity
  8
0
  6
Continuous
 62
     7
370
    25
100
AcDbLine
 10
2252.3511730956
 20
729.7172337017
 30
0.0
 11
2252.3511730956
 21
764.7172368309
 31
0.0
  0
LINE
  5
4AC
330
1F
100
AcDbEntity
  8
0
  6
Continuous
 62
     7
370
    25
100
AcDbLine
 10
2252.3511730956
 20
764.7172368309
 30
0.0
 11
2196.3511743473
 21
764.7172368309
 31
0.0
  0
LINE
  5
4AD
330
1F
100
AcDbEntity
  8
0
  6
Continuous
 62
     7
370
    25
100
AcDbLine
 10
2196.3511743473
 20
1009.7172326586
 30
0.0
 11
2196.3511743473
 21
764.7172368309
 31
0.0
  0
LINE
  5
4AE
330
1F
100
AcDbEntity
  8
0
  6
Continuous
 62
     7
370
    25
100
AcDbLine
 10
2196.3511743473
 20
1009.7172326586
 30
0.0
 11
2294.3511721568
 21
1009.7172326586
 31
0.0
  0
LINE
  5
4AF
330
1F
100
AcDbEntity
  8
0
  6
Continuous
 62
     7
370
    25
100
AcDbLine
 10
2294.3511721568
 20
722.717235162
 30
0.0
 11
2294.3511721568
 21
729.7172337017
 31
0.0
  0
LINE
  5
4B0
330
1F
100
AcDbEntity
  8
0
  6
Continuous
 62
     7
370
    25
100
AcDbLine
 10
2196.3511743473
 20
764.7172368309
 30
0.0
 11
2196.3511743473
 21
757.7172330758
 31
0.0
  0
LINE
  5
4B1
330
1F
100
AcDbEntity
  8
0
  6
Continuous
 62
     7
370
    25
100
AcDbLine
 10
2378.351172887
 20
866.2172234795
 30
0.0
 11
2378.351172887
 21
864.8172415039
 31
0.0
  0
LINE
  5
4B2
330
1F
100
AcDbEntity
  8
0
  6
Continuous
 62
     7
370
    25
100
AcDbLine
 10
2295.7511723863
 20
866.2172234795
 30
0.0
 11
2378.351172887
 21
866.2172234795
 31
0.0
  0
LINE
  5
4B3
330
1F
100
AcDbEntity
  8
0
  6
Continuous
 62
     7
370
    25
100
AcDbLine
 10
2295.7511723863
 20
864.8172415039
 30
0.0
 11
2295.7511723863
 21
866.2172234795
 31
0.0
  0
LINE
  5
4B4
330
1F
100
AcDbEntity
  8
0
  6
Continuous
 62
     7
370
    25
100
AcDbLine
 10
2378.351172887
 20
866.2172234795
 30
0.0
 11
2410.5511703419
 21
866.2172234795
 31
0.0
  0
LINE
  5
4B5
330
1F
100
AcDbEntity
  8
0
  6
Continuous
 62
     7
370
    25
100
AcDbLine
 10
2374.1511748063
 20
731.817232742
 30
0.0
 11
2374.1511748063
 21
730.4172351202
 31
0.0
  0
LINE
  5
4B6
330
1F
100
AcDbEntity
  8
0
  6
Continuous
 62
     7
370
    25
100
AcDbLine
 10
2374.1511748063
 20
730.4172351202
 30
0.0
 11
2295.7511723863
 21
730.4172351202
 31
0.0
  0
LINE
  5
4B7
330
1F
100
AcDbEntity
  8
0
  6
Continuous
 62
     7
370
    25
100
AcDbLine
 10
2295.7511723863
 20
730.4172351202
 30
0.0
 11
2295.7511723863
 21
731.817232742
 31
0.0
  0
LINE
  5
4B8
330
1F
100
AcDbEntity
  8
0
  6
Continuous
 62
     7
370
    25
100
AcDbLine
 10
2455.3511776852
 20
738.8172312817
 30
0.0
 11
2455.3511776852
 21
857.817227318
 31
0.0
  0
LINE
  5
4B9
330
1F
100
AcDbEntity
  8
0
  6
Continuous
 62
     7
370
    25
100
AcDbLine
 10
2294.3511721568
 20
738.8172312817
 30
0.0
 11
2455.3511776852
 21
738.8172312817
 31
0.0
  0
LINE
  5
4BA
330
1F
100
AcDbEntity
  8
0
  6
Continuous
 62
     7
370
    25
100
AcDbLine
 10
2294.3511721568
 20
857.817227318
 30
0.0
 11
2294.3511721568
 21
738.8172312817
 31
0.0
  0
LINE
  5
4BB
330
1F
100
AcDbEntity
  8
0
  6
Continuous
 62
     7
370
    25
100
AcDbLine
 10
2455.3511776852
 20
857.817227318
 30
0.0
 11
2294.3511721568
 21
857.817227318
 31
0.0
  0
LINE
  5
4BC
330
1F
100
AcDbEntity
  8
0
  6
Continuous
 62
     7
370
    25
100
AcDbLine
 10
2311.1511723029
 20
839.6172321579
 30
0.0
 11
2311.1511723029
 21
757.0172316572
 31
0.0
  0
ARC
  5
4BD
330
1F
100
AcDbEntity
  8
0
  6
Continuous
 62
     7
370
    25
100
AcDbCircle
 10
2315.3511651936
 20
757.0172264672
 30
0.0
 40
4.199992890686214
100
AcDbArc
 50
179.999929198
 51
270.0001063759
  0
LINE
  5
4BE
330
1F
100
AcDbEntity
  8
0
  6
Continuous
 62
     7
370
    25
100
AcDbLine
 10
2315.3511729913
 20
752.8172335765
 30
0.0
 11
2435.7511692571
 21
752.8172335765
 31
0.0
  0
ARC
  5
4BF
330
1F
100
AcDbEntity
  8
0
  6
Continuous
 62
     7
370
    25
100
AcDbCircle
 10
2435.7511737489
 20
757.0172375962
 30
0.0
 40
4.200004019735516
100
AcDbArc
 50
269.9999387234
 51
359.9999189811
  0
LINE
  5
4C0
330
1F
100
AcDbEntity
  8
0
  6
Continuous
 62
     7
370
    25
100
AcDbLine
 10
2439.9511777686
 20
757.0172316572
 30
0.0
 11
2439.9511777686
 21
839.6172321579
 31
0.0
  0
ARC
  5
4C1
330
1F
100
AcDbEntity
  8
0
  6
Continuous
 62
     7
370
    25
100
AcDbCircle
 10
2435.7511381356
 20
839.6172010364
 30
0.0
 40
4.200039633140729
100
AcDbArc
 50
0.0004245507
 51
89.9995754493
  0
LINE
  5
4C2
330
1F
100
AcDbEntity
  8
0
  6
Continuous
 62
     7
370
    25
100
AcDbLine
 10
2435.7511692571
 20
843.8172406694
 30
0.0
 11
2315.3511729913
 21
843.8172406694
 31
0.0
  0
ARC
  5
4C3
330
1F
100
AcDbEntity
  8
0
  6
Continuous
 62
     7
370
    25
100
AcDbCircle
 10
2315.3512008067
 20
839.6172121656
 30
0.0
 40
4.2000285038903
100
AcDbArc
 50
90.0003794511
 51
179.9997272705
  0
LINE
  5
4C4
330
1F
100
AcDbEntity
  8
0
  6
Continuous
 62
     7
370
    25
100
AcDbLine
 10
2455.3511776852
 20
862.0172358295
 30
0.0
 11
2306.2511728036
 21
862.0172358295
 31
0.0
  0
LINE
  5
4C5
330
1F
100
AcDbEntity
  8
0
  6
Continuous
 62
     7
370
    25
100
AcDbLine
 10
2455.3511776852
 20
857.817227318
 30
0.0
 11
2455.3511776852
 21
862.0172358295
 31
0.0
  0
LINE
  5
4C6
330
1F
100
AcDbEntity
  8
0
  6
Continuous
 62
     7
370
    25
100
AcDbLine
 10
2294.3511721568
 20
857.817227318
 30
0.0
 11
2294.3511721568
 21
862.0172358295
 31
0.0
  0
LINE
  5
4C7
330
1F
100
AcDbEntity
  8
0
  6
Continuous
 62
     7
370
    25
100
AcDbLine
 10
2299.2511716562
 20
862.0172358295
 30
0.0
 11
2294.3511721568
 21
862.0172358295
 31
0.0
  0
ARC
  5
4C8
330
1F
100
AcDbEntity
  8
0
  6
Continuous
 62
     7
370
    25
100
AcDbCircle
 10
2302.7511722299
 20
863.8839018706
 30
0.0
 40
3.966666878480528
100
AcDbArc
 50
208.0724750633
 51
331.9275249367
  0
LINE
  5
4C9
330
1F
100
AcDbEntity
  8
0
  6
Continuous
 62
     7
370
    25
100
AcDbLine
 10
2294.3511721568
 20
734.617233201
 30
0.0
 11
2299.2511716562
 21
734.617233201
 31
0.0
  0
LINE
  5
4CA
330
1F
100
AcDbEntity
  8
0
  6
Continuous
 62
     7
370
    25
100
AcDbLine
 10
2294.3511721568
 20
734.617233201
 30
0.0
 11
2294.3511721568
 21
738.8172312817
 31
0.0
  0
LINE
  5
4CB
330
1F
100
AcDbEntity
  8
0
  6
Continuous
 62
     7
370
    25
100
AcDbLine
 10
2455.3511776852
 20
734.617233201
 30
0.0
 11
2455.3511776852
 21
738.8172312817
 31
0.0
  0
LINE
  5
4CC
330
1F
100
AcDbEntity
  8
0
  6
Continuous
 62
     7
370
    25
100
AcDbLine
 10
2306.2511728036
 20
734.617233201
 30
0.0
 11
2455.3511776852
 21
734.617233201
 31
0.0
  0
ARC
  5
4CD
330
1F
100
AcDbEntity
  8
0
  6
Continuous
 62
     7
370
    25
100
AcDbCircle
 10
2302.7511722299
 20
732.7505661014
 30
0.0
 40
3.966667376596729
100
AcDbArc
 50
28.0724885539
 51
151.9275114461
  0
LINE
  5
4CE
330
1F
100
AcDbEntity
  8
0
  6
Continuous
 62
     7
370
    25
100
AcDbLine
 10
2459.5511757659
 20
738.8172312817
 30
0.0
 11
2459.5511757659
 21
857.817227318
 31
0.0
  0
LINE
  5
4CF
330
1F
100
AcDbEntity
  8
0
  6
Continuous
 62
     7
370
    25
100
AcDbLine
 10
2455.3511776852
 20
738.8172312817
 30
0.0
 11
2459.5511757659
 21
738.8172312817
 31
0.0
  0
LINE
  5
4D0
330
1F
100
AcDbEntity
  8
0
  6
Continuous
 62
     7
370
    25
100
AcDbLine
 10
2459.5511757659
 20
857.817227318
 30
0.0
 11
2455.3511776852
 21
857.817227318
 31
0.0
  0
ARC
  5
4D1
330
1F
100
AcDbEntity
  8
0
  6
Continuous
 62
     7
370
    25
100
AcDbCircle
 10
2455.3511628429
 20
738.817246124
 30
0.0
 40
4.200012923081281
100
AcDbArc
 50
270.0002024762
 51
359.9997975238
  0
ARC
  5
4D2
330
1F
100
AcDbEntity
  8
0
  6
Continuous
 62
     7
370
    25
100
AcDbCircle
 10
2455.3511717462
 20
857.8172318098
 30
0.0
 40
4.200004019735722
100
AcDbArc
 50
359.9999387234
 51
89.9999189811
  0
ARC
  5
4D3
330
1F
100
AcDbEntity
  8
0
  6
Continuous
 62
     7
370
    25
100
AcDbCircle
 10
2455.3511643099
 20
857.8172348043
 30
0.0
 40
7.000006699585742
100
AcDbArc
 50
359.9999387236
 51
89.9998905218
  0
LINE
  5
4D4
330
1F
100
AcDbEntity
  8
0
  6
Continuous
 62
     7
370
    25
100
AcDbLine
 10
2462.3511710095
 20
857.817227318
 30
0.0
 11
2462.3511710095
 21
738.8172312817
 31
0.0
  0
ARC
  5
4D5
330
1F
100
AcDbEntity
  8
0
  6
Continuous
 62
     7
370
    25
100
AcDbCircle
 10
2455.3511732131
 20
738.8172305383
 30
0.0
 40
6.999997796311202
100
AcDbArc
 50
270.0000366041
 51
0.0000060846
  0
LINE
  5
4D6
330
1F
100
AcDbEntity
  8
0
  6
Continuous
 62
     7
370
    25
100
AcDbLine
 10
2455.3511776852
 20
731.817232742
 30
0.0
 11
2294.3511721568
 21
731.817232742
 31
0.0
  0
LINE
  5
4D7
330
1F
100
AcDbEntity
  8
0
  6
Continuous
 62
     7
370
    25
100
AcDbLine
 10
2294.3511721568
 20
864.8172415039
 30
0.0
 11
2455.3511776852
 21
864.8172415039
 31
0.0
  0
LINE
  5
4D8
330
1F
100
AcDbEntity
  8
0
  6
Continuous
 62
     7
370
    25
100
AcDbLine
 10
2294.3511721568
 20
862.0172358295
 30
0.0
 11
2294.3511721568
 21
864.8172415039
 31
0.0
  0
LINE
  5
4D9
330
1F
100
AcDbEntity
  8
0
  6
Continuous
 62
     7
370
    25
100
AcDbLine
 10
2294.3511721568
 20
731.817232742
 30
0.0
 11
2294.3511721568
 21
734.617233201
 31
0.0
  0
LINE
  5
4DA
330
1F
100
AcDbEntity
  8
0
  6
Continuous
 62
     7
370
    25
100
AcDbLine
 10
2303.106666066
 20
713.6172323665
 30
0.0
 11
2303.1011716353
 21
713.6172323665
 31
0.0
  0
LINE
  5
4DB
330
1F
100
AcDbEntity
  8
0
  6
Continuous
 62
     7
370
    25
100
AcDbLine
 10
2322.7011728922
 20
713.6172323665
 30
0.0
 11
2303.106666066
 21
713.6172323665
 31
0.0
  0
LINE
  5
4DC
330
1F
100
AcDbEntity
  8
0
  6
Continuous
 62
     7
370
    25
100
AcDbLine
 10
2399.3511737215
 20
715.7172314069
 30
0.0
 11
2357.4950938003
 21
715.7172314069
 31
0.0
  0
LINE
  5
4DD
330
1F
100
AcDbEntity
  8
0
  6
Continuous
 62
     7
370
    25
100
AcDbLine
 10
2357.4950938003
 20
715.7172314069
 30
0.0
 11
2357.4950938003
 21
728.3172308645
 31
0.0
  0
LINE
  5
4DE
330
1F
100
AcDbEntity
  8
0
  6
Continuous
 62
     7
370
    25
100
AcDbLine
 10
2397.9511708843
 20
714.3172337851
 30
0.0
 11
2358.885497682
 21
714.3172337851
 31
0.0
  0
LINE
  5
4DF
330
1F
100
AcDbEntity
  8
0
  6
Continuous
 62
     7
370
    25
100
AcDbLine
 10
2358.885497682
 20
714.3172337851
 30
0.0
 11
2357.4950938003
 21
715.7172314069
 31
0.0
  0
ARC
  5
4E0
330
1F
100
AcDbEntity
  8
0
  6
Continuous
 62
     7
370
    25
100
AcDbCircle
 10
2366.4708722572
 20
725.4150236047
 30
0.0
 40
9.433313621658083
100
AcDbArc
 50
162.082026021
 51
171.7523921999
  0
LWPOLYLINE
  5
4E1
330
1F
100
AcDbEntity
  8
0
  6
Continuous
 62
     7
370
    25
100
AcDbPolyline
 90
       11
 70
   128
 43
0.0
 10
2357.4950938003
 20
728.3172308645
 10
2357.4950599002
 20
728.3171004793
 10
2357.4948095607
 20
728.3159895978
 10
2357.4941159116
 20
728.3128603539
 10
2357.4914977776
 20
728.3009587965
 10
2357.481345989
 20
728.2545677564
 10
2357.1842529701
 20
726.9102915368
 10
2356.8944745587
 20
725.6756379447
 10
2356.6169601756
 20
724.6236904702
 10
2356.1453361886
 20
723.2819228611
 10
2355.6438879
 20
722.717235162
  0
LINE
  5
4E2
330
1F
100
AcDbEntity
  8
0
  6
Continuous
 62
     7
370
    25
100
AcDbLine
 10
2357.4950938003
 20
715.7172314069
 30
0.0
 11
2323.0567293132
 21
715.7172314069
 31
0.0
  0
LINE
  5
4E3
330
1F
100
AcDbEntity
  8
0
  6
Continuous
 62
     7
370
    25
100
AcDbLine
 10
2323.0567293132
 20
722.717235162
 30
0.0
 11
2323.0567293132
 21
715.7172314069
 31
0.0
  0
LINE
  5
4E4
330
1F
100
AcDbEntity
  8
0
  6
Continuous
 62
     7
370
    25
100
AcDbLine
 10
2355.6438879
 20
722.717235162
 30
0.0
 11
2323.0567293132
 21
722.717235162
 31
0.0
  0
LINE
  5
4E5
330
1F
100
AcDbEntity
  8
0
  6
Continuous
 62
     7
370
    25
100
AcDbLine
 10
2324.4471348247
 20
714.3172337851
 30
0.0
 11
2323.0567293132
 21
715.7172314069
 31
0.0
  0
LINE
  5
4E6
330
1F
100
AcDbEntity
  8
0
  6
Continuous
 62
     7
370
    25
100
AcDbLine
 10
2358.885497682
 20
714.3172337851
 30
0.0
 11
2324.4471348247
 21
714.3172337851
 31
0.0
  0
LINE
  5
4E7
330
1F
100
AcDbEntity
  8
0
  6
Continuous
 62
     7
370
    25
100
AcDbLine
 10
2324.4471348247
 20
724.1172327837
 30
0.0
 11
2323.0567293132
 21
722.717235162
 31
0.0
  0
LINE
  5
4E8
330
1F
100
AcDbEntity
  8
0
  6
Continuous
 62
     7
370
    25
100
AcDbLine
 10
2324.4471348247
 20
724.1172327837
 30
0.0
 11
2356.4389427083
 21
724.1172327837
 31
0.0
  0
LINE
  5
4E9
330
1F
100
AcDbEntity
  8
0
  6
Continuous
 62
     7
370
    25
100
AcDbLine
 10
2322.89927163
 20
715.7172314069
 30
0.0
 11
2323.0567293132
 21
715.7172314069
 31
0.0
  0
LINE
  5
4EA
330
1F
100
AcDbEntity
  8
0
  6
Continuous
 62
     7
370
    25
100
AcDbLine
 10
2322.89927163
 20
715.7172314069
 30
0.0
 11
2322.89927163
 21
722.717235162
 31
0.0
  0
LINE
  5
4EB
330
1F
100
AcDbEntity
  8
0
  6
Continuous
 62
     7
370
    25
100
AcDbLine
 10
2323.0567293132
 20
722.717235162
 30
0.0
 11
2322.89927163
 21
722.717235162
 31
0.0
  0
LINE
  5
4EC
330
1F
100
AcDbEntity
  8
0
  6
Continuous
 62
     7
370
    25
100
AcDbLine
 10
2324.292826269
 20
714.3172337851
 30
0.0
 11
2322.89927163
 21
715.7172314069
 31
0.0
  0
LINE
  5
4ED
330
1F
100
AcDbEntity
  8
0
  6
Continuous
 62
     7
370
    25
100
AcDbLine
 10
2324.4471348247
 20
714.3172337851
 30
0.0
 11
2324.292826269
 21
714.3172337851
 31
0.0
  0
LINE
  5
4EE
330
1F
100
AcDbEntity
  8
0
  6
Continuous
 62
     7
370
    25
100
AcDbLine
 10
2322.89927163
 20
722.717235162
 30
0.0
 11
2324.292826269
 21
724.1172327837
 31
0.0
  0
LINE
  5
4EF
330
1F
100
AcDbEntity
  8
0
  6
Continuous
 62
     7
370
    25
100
AcDbLine
 10
2324.292826269
 20
724.1172327837
 30
0.0
 11
2324.4471348247
 21
724.1172327837
 31
0.0
  0
LINE
  5
4F0
330
1F
100
AcDbEntity
  8
0
  6
Continuous
 62
     7
370
    25
100
AcDbLine
 10
2298.9656281548
 20
714.3172337851
 30
0.0
 11
2297.5720741676
 21
715.7172314069
 31
0.0
  0
LINE
  5
4F1
330
1F
100
AcDbEntity
  8
0
  6
Continuous
 62
     7
370
    25
100
AcDbLine
 10
2322.89927163
 20
715.7172314069
 30
0.0
 11
2297.5720741676
 21
715.7172314069
 31
0.0
  0
LINE
  5
4F2
330
1F
100
AcDbEntity
  8
0
  6
Continuous
 62
     7
370
    25
100
AcDbLine
 10
2324.292826269
 20
714.3172337851
 30
0.0
 11
2298.9656281548
 21
714.3172337851
 31
0.0
  0
LINE
  5
4F3
330
1F
100
AcDbEntity
  8
0
  6
Continuous
 62
     7
370
    25
100
AcDbLine
 10
2297.5720741676
 20
722.717235162
 30
0.0
 11
2298.9656281548
 21
724.1172327837
 31
0.0
  0
LINE
  5
4F4
330
1F
100
AcDbEntity
  8
0
  6
Continuous
 62
     7
370
    25
100
AcDbLine
 10
2322.89927163
 20
722.717235162
 30
0.0
 11
2297.5720741676
 21
722.717235162
 31
0.0
  0
LINE
  5
4F5
330
1F
100
AcDbEntity
  8
0
  6
Continuous
 62
     7
370
    25
100
AcDbLine
 10
2298.9656281548
 20
724.1172327837
 30
0.0
 11
2324.292826269
 21
724.1172327837
 31
0.0
  0
LINE
  5
4F6
330
1F
100
AcDbEntity
  8
0
  6
Continuous
 62
     7
370
    25
100
AcDbLine
 10
2297.5720741676
 20
715.7172314069
 30
0.0
 11
2297.5720741676
 21
722.717235162
 31
0.0
  0
LINE
  5
4F7
330
1F
100
AcDbEntity
  8
0
  6
Continuous
 62
     7
370
    25
100
AcDbLine
 10
2297.5720741676
 20
715.7172314069
 30
0.0
 11
2297.5011733251
 21
715.7172314069
 31
0.0
  0
LINE
  5
4F8
330
1F
100
AcDbEntity
  8
0
  6
Continuous
 62
     7
370
    25
100
AcDbLine
 10
2298.9656281548
 20
714.3172337851
 30
0.0
 11
2298.9011735546
 21
714.3172337851
 31
0.0
  0
LINE
  5
4F9
330
1F
100
AcDbEntity
  8
0
  6
Continuous
 62
     7
370
    25
100
AcDbLine
 10
2297.5720741676
 20
722.717235162
 30
0.0
 11
2297.5011733251
 21
722.717235162
 31
0.0
  0
LINE
  5
4FA
330
1F
100
AcDbEntity
  8
0
  6
Continuous
 62
     7
370
    25
100
AcDbLine
 10
2298.9011735546
 20
724.1172327837
 30
0.0
 11
2298.9656281548
 21
724.1172327837
 31
0.0
  0
LINE
  5
4FB
330
1F
100
AcDbEntity
  8
0
  6
Continuous
 62
     7
370
    25
100
AcDbLine
 10
2295.0511735754
 20
687.7172320327
 30
0.0
 11
2332.8511726002
 21
687.7172320327
 31
0.0
  0
LINE
  5
4FC
330
1F
100
AcDbEntity
  8
0
  6
Continuous
 62
     7
370
    25
100
AcDbLine
 10
2295.0511735754
 20
710.117230489
 30
0.0
 11
2295.0511735754
 21
687.7172320327
 31
0.0
  0
LINE
  5
4FD
330
1F
100
AcDbEntity
  8
0
  6
Continuous
 62
     7
370
    25
100
AcDbLine
 10
2332.8511726002
 20
710.117230489
 30
0.0
 11
2295.0511735754
 21
710.117230489
 31
0.0
  0
LINE
  5
4FE
330
1F
100
AcDbEntity
  8
0
  6
Continuous
 62
     7
370
    25
100
AcDbLine
 10
2332.8511726002
 20
687.7172320327
 30
0.0
 11
2332.8511726002
 21
710.117230489
 31
0.0
  0
LINE
  5
4FF
330
1F
100
AcDbEntity
  8
0
  6
Continuous
 62
     7
370
    25
100
AcDbLine
 10
2295.0511735754
 20
710.117230489
 30
0.0
 11
2294.3511721568
 21
710.117230489
 31
0.0
  0
ARC
  5
500
330
1F
100
AcDbEntity
  8
0
  6
Continuous
 62
     7
370
    25
100
AcDbCircle
 10
2295.0511683752
 20
710.1172356892
 30
0.0
 40
0.6999962183889358
100
AcDbArc
 50
89.9995743538
 51
180.0004256462
  0
LINE
  5
501
330
1F
100
AcDbEntity
  8
0
  6
Continuous
 62
     7
370
    25
100
AcDbLine
 10
2295.0511735754
 20
710.8172319076
 30
0.0
 11
2295.0511735754
 21
710.117230489
 31
0.0
  0
LINE
  5
502
330
1F
100
AcDbEntity
  8
0
  6
Continuous
 62
     7
370
    25
100
AcDbLine
 10
2294.3511721568
 20
687.7172320327
 30
0.0
 11
2295.0511735754
 21
687.7172320327
 31
0.0
  0
LINE
  5
503
330
1F
100
AcDbEntity
  8
0
  6
Continuous
 62
     7
370
    25
100
AcDbLine
 10
2295.0511735754
 20
687.7172320327
 30
0.0
 11
2295.0511735754
 21
687.0172332218
 31
0.0
  0
ARC
  5
504
330
1F
100
AcDbEntity
  8
0
  6
Continuous
 62
     7
370
    25
100
AcDbCircle
 10
2295.0511728268
 20
687.7172338918
 30
0.0
 40
0.70000066996155
100
AcDbArc
 50
180.0001521671
 51
270.0000612763
  0
LINE
  5
505
330
1F
100
AcDbEntity
  8
0
  6
Continuous
 62
     7
370
    25
100
AcDbLine
 10
2332.8511726002
 20
687.0172332218
 30
0.0
 11
2332.8511726002
 21
687.7172320327
 31
0.0
  0
LINE
  5
506
330
1F
100
AcDbEntity
  8
0
  6
Continuous
 62
     7
370
    25
100
AcDbLine
 10
2295.0511735754
 20
687.0172332218
 30
0.0
 11
2332.8511726002
 21
687.0172332218
 31
0.0
  0
LINE
  5
507
330
1F
100
AcDbEntity
  8
0
  6
Continuous
 62
     7
370
    25
100
AcDbLine
 10
2332.8511726002
 20
710.117230489
 30
0.0
 11
2332.8511726002
 21
710.8172319076
 31
0.0
  0
LINE
  5
508
330
1F
100
AcDbEntity
  8
0
  6
Continuous
 62
     7
370
    25
100
AcDbLine
 10
2332.8511726002
 20
710.8172319076
 30
0.0
 11
2295.0511735754
 21
710.8172319076
 31
0.0
  0
LINE
  5
509
330
1F
100
AcDbEntity
  8
0
  6
Continuous
 62
     7
370
    25
100
AcDbLine
 10
2294.3511721568
 20
710.117230489
 30
0.0
 11
2294.3511721568
 21
687.7172320327
 31
0.0
  0
LINE
  5
50A
330
1F
100
AcDbEntity
  8
0
  6
Continuous
 62
     7
370
    25
100
AcDbLine
 10
2332.8511726002
 20
687.7172320327
 30
0.0
 11
2333.5511727149
 21
687.7172320327
 31
0.0
  0
ARC
  5
50B
330
1F
100
AcDbEntity
  8
0
  6
Continuous
 62
     7
370
    25
100
AcDbCircle
 10
2332.8511720449
 20
687.7172338918
 30
0.0
 40
0.7000006699612341
100
AcDbArc
 50
270.0000454453
 51
359.9998478329
  0
LINE
  5
50C
330
1F
100
AcDbEntity
  8
0
  6
Continuous
 62
     7
370
    25
100
AcDbLine
 10
2333.5511727149
 20
710.117230489
 30
0.0
 11
2332.8511726002
 21
710.117230489
 31
0.0
  0
ARC
  5
50D
330
1F
100
AcDbEntity
  8
0
  6
Continuous
 62
     7
370
    25
100
AcDbCircle
 10
2332.8511764965
 20
710.1172356892
 30
0.0
 40
0.6999962183745523
100
AcDbArc
 50
359.9995743533
 51
90.0003189251
  0
LINE
  5
50E
330
1F
100
AcDbEntity
  8
0
  6
Continuous
 62
     7
370
    25
100
AcDbLine
 10
2333.5511727149
 20
687.7172320327
 30
0.0
 11
2333.5511727149
 21
710.117230489
 31
0.0
  0
LINE
  5
50F
330
1F
100
AcDbEntity
  8
0
  6
Continuous
 62
     7
370
    25
100
AcDbLine
 10
2357.3511720525
 20
728.3172308645
 30
0.0
 11
2357.4950938003
 21
728.3172308645
 31
0.0
  0
LINE
  5
510
330
1F
100
AcDbEntity
  8
FORMAT
370
    25
100
AcDbLine
 10
2294.3511726781
 20
758.4172326586
 30
0.0
 11
2298.5511726781
 21
758.4172326586
 31
0.0
  0
LINE
  5
511
330
1F
100
AcDbEntity
  8
FORMAT
370
    25
100
AcDbLine
 10
2298.5511726781
 20
768.2172326586
 30
0.0
 11
2294.3511726781
 21
768.2172326586
 31
0.0
  0
LINE
  5
512
330
1F
100
AcDbEntity
  8
FORMAT
370
    25
100
AcDbLine
 10
2294.3511726781
 20
770.3172326586
 30
0.0
 11
2298.5511726781
 21
770.3172326586
 31
0.0
  0
LINE
  5
513
330
1F
100
AcDbEntity
  8
FORMAT
370
    25
100
AcDbLine
 10
2298.5511726781
 20
784.3172326586
 30
0.0
 11
2294.3511726781
 21
784.3172326586
 31
0.0
  0
LINE
  5
514
330
1F
100
AcDbEntity
  8
FORMAT
370
    25
100
AcDbLine
 10
2294.3511726781
 20
786.4172326586
 30
0.0
 11
2298.5511726781
 21
786.4172326586
 31
0.0
  0
LINE
  5
515
330
1F
100
AcDbEntity
  8
FORMAT
370
    25
100
AcDbLine
 10
2298.5511726781
 20
796.2172326586
 30
0.0
 11
2294.3511726781
 21
796.2172326586
 31
0.0
  0
LINE
  5
516
330
1F
100
AcDbEntity
  8
FORMAT
370
    25
100
AcDbLine
 10
2294.3511726781
 20
800.4172326586
 30
0.0
 11
2298.5511726781
 21
800.4172326586
 31
0.0
  0
LINE
  5
517
330
1F
100
AcDbEntity
  8
FORMAT
370
    25
100
AcDbLine
 10
2298.5511726781
 20
810.2172326586
 30
0.0
 11
2294.3511726781
 21
810.2172326586
 31
0.0
  0
LINE
  5
518
330
1F
100
AcDbEntity
  8
FORMAT
370
    25
100
AcDbLine
 10
2294.3511726781
 20
812.3172326586
 30
0.0
 11
2298.5511726781
 21
812.3172326586
 31
0.0
  0
LINE
  5
519
330
1F
100
AcDbEntity
  8
FORMAT
370
    25
100
AcDbLine
 10
2298.5511726781
 20
826.3172326586
 30
0.0
 11
2294.3511726781
 21
826.3172326586
 31
0.0
  0
LINE
  5
51A
330
1F
100
AcDbEntity
  8
FORMAT
370
    25
100
AcDbLine
 10
2294.3511726781
 20
828.4172326586
 30
0.0
 11
2298.5511726781
 21
828.4172326586
 31
0.0
  0
LINE
  5
51B
330
1F
100
AcDbEntity
  8
FORMAT
370
    25
100
AcDbLine
 10
2298.5511726781
 20
838.2172326586
 30
0.0
 11
2294.3511726781
 21
838.2172326586
 31
0.0
  0
LINE
  5
51C
330
1F
100
AcDbEntity
  8
FORMAT
  6
CENTERX2
370
    25
100
AcDbLine
 10
2285.0509660758
 20
843.7714861075
 30
0.0
 11
2307.93558765
 21
843.7714861075
 31
0.0
  0
LINE
  5
51D
330
1F
100
AcDbEntity
  8
FORMAT
  6
CENTERX2
370
    25
100
AcDbLine
 10
2285.0509660758
 20
843.7714861075
 30
0.0
 11
2285.0509660758
 21
753.0221246929
 31
0.0
  0
LINE
  5
51E
330
1F
100
AcDbEntity
  8
FORMAT
  6
CENTERX2
370
    25
100
AcDbLine
 10
2285.0509660758
 20
753.0221246929
 30
0.0
 11
2307.93558765
 21
753.0221246929
 31
0.0
  0
LINE
  5
51F
330
1F
100
AcDbEntity
  8
FORMAT
  6
CENTERX2
370
    25
100
AcDbLine
 10
2307.93558765
 20
843.7714861075
 30
0.0
 11
2307.93558765
 21
753.0221246929
 31
0.0
  0
ARC
  5
520
330
1F
100
AcDbEntity
  8
FORMAT
370
    25
100
AcDbCircle
 10
2298.5511726781
 20
763.3172326586
 30
0.0
 40
4.899999999999977
100
AcDbArc
 50
270.0
 51
90.0
  0
ARC
  5
521
330
1F
100
AcDbEntity
  8
FORMAT
370
    25
100
AcDbCircle
 10
2298.5511726781
 20
777.3172326586
 30
0.0
 40
7.0
100
AcDbArc
 50
270.0
 51
90.0
  0
ARC
  5
522
330
1F
100
AcDbEntity
  8
FORMAT
370
    25
100
AcDbCircle
 10
2298.5511726781
 20
791.3172326586
 30
0.0
 40
4.900000000000205
100
AcDbArc
 50
270.0
 51
90.0
  0
ARC
  5
523
330
1F
100
AcDbEntity
  8
FORMAT
370
    25
100
AcDbCircle
 10
2298.5511726781
 20
805.3172326586
 30
0.0
 40
4.899999999999977
100
AcDbArc
 50
270.0
 51
90.0
  0
ARC
  5
524
330
1F
100
AcDbEntity
  8
FORMAT
370
    25
100
AcDbCircle
 10
2298.5511726781
 20
819.3172326586
 30
0.0
 40
7.000000000000114
100
AcDbArc
 50
270.0
 51
90.0
  0
ARC
  5
525
330
1F
100
AcDbEntity
  8
FORMAT
370
    25
100
AcDbCircle
 10
2298.5511726781
 20
833.3172326586
 30
0.0
 40
4.899999999999977
100
AcDbArc
 50
270.0
 51
90.0
  0
DIMENSION
  5
526
330
1F
100
AcDbEntity
  8
FORMAT
100
AcDbDimension
  2
_D_25
 10
2333.5511726753
 20
537.2989413178
 30
0.0
 11
2400.6153901425
 21
537.2989413178
 31
0.0
 70
   160
  1
(<>)
 71
     2
 42
-1.0
  3
SLDDIMSTYLE5
100
AcDbAlignedDimension
 13
2294.3511726786
 23
588.4955278775
 33
0.0
 14
2333.5511726753
 24
687.7172326673
 34
0.0
100
AcDbRotatedDimension
  0
DIMENSION
  5
535
330
1F
100
AcDbEntity
  8
FORMAT
100
AcDbDimension
  2
_D_26
 10
2475.9011627593
 20
710.8172326673
 30
0.0
 11
2475.9011627593
 21
618.2054912709
 31
0.0
 70
   160
  1
(<>)
 71
     2
 42
-1.0
  3
SLDDIMSTYLE5
100
AcDbAlignedDimension
 13
2332.8511726753
 23
687.0172326673
 33
0.0
 14
2332.8511726753
 24
710.8172326673
 34
0.0
 50
90.0
100
AcDbRotatedDimension
  0
DIMENSION
  5
543
330
1F
100
AcDbEntity
  8
FORMAT
100
AcDbDimension
  2
_D_27
 10
2084.3511726786
 20
729.7172326586
 30
0.0
 11
2084.3511726786
 21
640.6641331633
 31
0.0
 70
   160
  1
<>
 71
     2
 42
-1.0
  3
SLDDIMSTYLE6
100
AcDbAlignedDimension
 13
2295.0511726753
 23
710.8172326673
 33
0.0
 14
2252.3511726786
 24
729.7172326586
 34
0.0
 50
90.0
100
AcDbRotatedDimension
  0
DIMENSION
  5
550
330
1F
100
AcDbEntity
  8
FORMAT
100
AcDbDimension
  2
_D_28
 10
2084.3511726786
 20
731.8172326586
 30
0.0
 11
2084.3511726786
 21
788.2281021215
 31
0.0
 70
   160
  1
<>
 71
     2
 42
-1.0
  3
SLDDIMSTYLE7
100
AcDbAlignedDimension
 13
2252.3511726786
 23
729.7172326586
 33
0.0
 14
2294.3511726781
 24
731.8172326586
 34
0.0
 50
90.0
100
AcDbRotatedDimension
  0
DIMENSION
  5
55D
330
1F
100
AcDbEntity
  8
FORMAT
100
AcDbDimension
  2
_D_29
 10
2143.7164953201
 20
729.7172326586
 30
0.0
 11
2143.7164953201
 21
668.3281717409
 31
0.0
 70
   160
  1
<>*
 71
     2
 42
-1.0
  3
SLDDIMSTYLE8
100
AcDbAlignedDimension
 13
2324.4471348252
 23
724.1172326587
 33
0.0
 14
2252.3511726786
 24
729.7172326586
 34
0.0
 50
90.0
100
AcDbRotatedDimension
  0
DIMENSION
  5
56B
330
1F
100
AcDbEntity
  8
FORMAT
100
AcDbDimension
  2
_D_30
 10
2524.8069508555
 20
714.3172326588
 30
0.0
 11
2524.8069508555
 21
651.0520743062
 31
0.0
 70
   160
  1
<>
 71
     2
 42
-1.0
  3
SLDDIMSTYLE5
100
AcDbAlignedDimension
 13
2332.8511726753
 23
710.8172326673
 33
0.0
 14
2358.8854986743
 24
714.3172326588
 34
0.0
 50
90.0
100
AcDbRotatedDimension
  0
DIMENSION
  5
577
330
1F
100
AcDbEntity
  8
FORMAT
100
AcDbDimension
  2
_D_31
 10
2624.7602791364
 20
731.8172326586
 30
0.0
 11
2624.7602791364
 21
657.3792361014
 31
0.0
 70
   160
  1
<>
 71
     2
 42
-1.0
  3
SLDDIMSTYLE5
100
AcDbAlignedDimension
 13
2358.8854986743
 23
714.3172326588
 33
0.0
 14
2455.3511726781
 24
731.8172326586
 34
0.0
 50
90.0
100
AcDbRotatedDimension
  0
MTEXT
  5
583
330
1F
100
AcDbEntity
  8
FORMAT
100
AcDbMText
 10
2250.2480990143
 20
1090.3544826572
 30
0.0
 40
35.0
 41
0.0
 71
     2
 72
     1
  1
B (1 : 5)
  7
SLDTEXTSTYLE0
 73
     1
 44
1.0
  0
MTEXT
  5
584
330
1F
100
AcDbEntity
  8
FORMAT
100
AcDbMText
 10
2019.9115150155
 20
555.9259804968
 30
0.0
 40
18.5208333333
 41
0.0
 71
     1
 72
     1
  1
GB 18
  7
SLDTEXTSTYLE0
 73
     1
 44
1.0
  0
LEADER
  5
585
330
1F
100
AcDbEntity
  8
FORMAT
100
AcDbLeader
  3
SLDDIMSTYLE3
 76
     3
 10
2303.1011726768
 20
712.0671059215
 30
0.0
 10
2137.8253931966
 20
547.1080796992
 30
0.0
 10
2093.3753931966
 20
547.1080796992
 30
0.0
  0
MTEXT
  5
586
330
1F
100
AcDbEntity
  8
FORMAT
100
AcDbMText
 10
1709.2895420422
 20
908.5713951036
 30
0.0
 40
18.5208333333
 41
0.0
 71
     1
 72
     1
  1
aufliegende Kabelzuführung (optional)
  7
SLDTEXTSTYLE0
 73
     1
 44
1.0
  0
LEADER
  5
587
330
1F
100
AcDbEntity
  8
FORMAT
100
AcDbLeader
  3
SLDDIMSTYLE3
 76
     3
 10
2285.0509660758
 20
817.9934065354
 30
0.0
 10
2173.9387052383
 20
899.1617259691
 30
0.0
 10
2129.4887052383
 20
899.1617259691
 30
0.0
  0
CIRCLE
  5
588
330
1F
100
AcDbEntity
  8
0
  6
Continuous
 62
     7
370
    18
100
AcDbCircle
 10
1857.0728470837
 20
256.197190867
 30
0.0
 40
74.62032040936711
  0
ARC
  5
589
330
1F
100
AcDbEntity
  8
0
  6
Continuous
 62
     7
370
    25
100
AcDbCircle
 10
1868.5806335188
 20
309.7370201937
 30
0.0
 40
4.200008151989259
100
AcDbArc
 50
9.5942083945
 51
170.4057916055
  0
ARC
  5
58A
330
1F
100
AcDbEntity
  8
0
  6
Continuous
 62
     7
370
    25
100
AcDbCircle
 10
1846.1806298471
 20
309.7370282976
 30
0.0
 40
4.549995541921946
100
AcDbArc
 50
8.8499349891
 51
171.1500650109
  0
ARC
  5
58B
330
1F
100
AcDbEntity
  8
0
  6
Continuous
 62
     7
370
    25
100
AcDbCircle
 10
1846.1806298471
 20
203.3370326672
 30
0.0
 40
4.549994593664543
100
AcDbArc
 50
8.8498582972
 51
171.1501417028
  0
ARC
  5
58C
330
1F
100
AcDbEntity
  8
0
  6
Continuous
 62
     7
370
    25
100
AcDbCircle
 10
1868.5806335188
 20
203.3370246581
 30
0.0
 40
4.200007108895323
100
AcDbArc
 50
9.5941242113
 51
170.4058757887
  0
ARC
  5
58D
330
1F
100
AcDbEntity
  8
0
  6
Continuous
 62
     7
370
    25
100
AcDbCircle
 10
1846.1806298471
 20
309.7370322321
 30
0.0
 40
4.549995541921963
100
AcDbArc
 50
188.8499349891
 51
351.1500650109
  0
ARC
  5
58E
330
1F
100
AcDbEntity
  8
0
  6
Continuous
 62
     7
370
    25
100
AcDbCircle
 10
1868.5806335188
 20
309.7370403361
 30
0.0
 40
4.200008151989511
100
AcDbArc
 50
189.5942083945
 51
350.4057916055
  0
ARC
  5
58F
330
1F
100
AcDbEntity
  8
0
  6
Continuous
 62
     7
370
    25
100
AcDbCircle
 10
1846.1806298471
 20
203.3370242744
 30
0.0
 40
4.549994593664535
100
AcDbArc
 50
188.8498582972
 51
351.1501417028
  0
ARC
  5
590
330
1F
100
AcDbEntity
  8
0
  6
Continuous
 62
     7
370
    25
100
AcDbCircle
 10
1868.5806335188
 20
203.3370322835
 30
0.0
 40
4.200007108895337
100
AcDbArc
 50
189.5941242113
 51
350.4058757887
  0
LINE
  5
591
330
1F
100
AcDbEntity
  8
0
  6
Continuous
 62
     7
370
    25
100
AcDbLine
 10
1895.3777254797
 20
320.2370306821
 30
0.0
 11
1818.7679738975
 21
320.2370306821
 31
0.0
  0
LINE
  5
592
330
1F
100
AcDbEntity
  8
0
  6
Continuous
 62
     7
370
    25
100
AcDbLine
 10
1817.6582605816
 20
192.8370280536
 30
0.0
 11
1896.4874596573
 21
192.8370280536
 31
0.0
  0
ARC
  5
593
330
1F
100
AcDbEntity
  8
0
  6
Continuous
 62
     7
370
    25
100
AcDbCircle
 10
1868.5763875034
 20
309.7366617026
 30
0.0
 40
4.204254542206419
100
AcDbArc
 50
0.0048806323
 51
9.5893813037
  0
ARC
  5
594
330
1F
100
AcDbEntity
  8
0
  6
Continuous
 62
     7
370
    25
100
AcDbCircle
 10
1846.179775673
 20
309.7367715525
 30
0.0
 40
4.550879047936587
100
AcDbArc
 50
0.0031258771
 51
8.8514744543
  0
ARC
  5
595
330
1F
100
AcDbEntity
  8
0
  6
Continuous
 62
     7
370
    25
100
AcDbCircle
 10
1868.5848795342
 20
309.7366617026
 30
0.0
 40
4.204254542242565
100
AcDbArc
 50
170.4106186963
 51
179.9951193677
  0
ARC
  5
596
330
1F
100
AcDbEntity
  8
0
  6
Continuous
 62
     7
370
    25
100
AcDbCircle
 10
1846.1736632193
 20
309.7376478606
 30
0.0
 40
4.543016559434952
100
AcDbArc
 50
171.1442685064
 51
180.007920567
  0
ARC
  5
597
330
1F
100
AcDbEntity
  8
0
  6
Continuous
 62
     7
370
    25
100
AcDbCircle
 10
1846.1738641028
 20
203.3376305341
 30
0.0
 40
4.543217439322426
100
AcDbArc
 50
171.1444649669
 51
180.0075927875
  0
ARC
  5
598
330
1F
100
AcDbEntity
  8
0
  6
Continuous
 62
     7
370
    25
100
AcDbCircle
 10
1868.5764339212
 20
203.3366637986
 30
0.0
 40
4.204208124940941
100
AcDbArc
 50
0.0049698241
 51
9.5894344101
  0
ARC
  5
599
330
1F
100
AcDbEntity
  8
0
  6
Continuous
 62
     7
370
    25
100
AcDbCircle
 10
1868.5848331164
 20
203.3366637986
 30
0.0
 40
4.204208124977085
100
AcDbArc
 50
170.41056559
 51
179.9950301759
  0
ARC
  5
59A
330
1F
100
AcDbEntity
  8
0
  6
Continuous
 62
     7
370
    25
100
AcDbCircle
 10
1846.1795738631
 20
203.3367541292
 30
0.0
 40
4.551080859337902
100
AcDbArc
 50
0.0034538203
 51
8.8512779301
  0
ARC
  5
59B
330
1F
100
AcDbEntity
  8
0
  6
Continuous
 62
     7
370
    25
100
AcDbCircle
 10
1846.1797753808
 20
309.7372890077
 30
0.0
 40
4.550879341322248
100
AcDbArc
 50
351.1485257344
 51
359.9966110924
  0
ARC
  5
59C
330
1F
100
AcDbEntity
  8
0
  6
Continuous
 62
     7
370
    25
100
AcDbCircle
 10
1868.5848797967
 20
309.7373988602
 30
0.0
 40
4.204254806529509
100
AcDbArc
 50
180.0051653851
 51
189.5893811514
  0
ARC
  5
59D
330
1F
100
AcDbEntity
  8
0
  6
Continuous
 62
     7
370
    25
100
AcDbCircle
 10
1846.1736626996
 20
309.7364126106
 30
0.0
 40
4.543016036886037
100
AcDbArc
 50
179.9923417963
 51
188.8557317722
  0
ARC
  5
59E
330
1F
100
AcDbEntity
  8
0
  6
Continuous
 62
     7
370
    25
100
AcDbCircle
 10
1868.5763872409
 20
309.7373988602
 30
0.0
 40
4.204254806493134
100
AcDbArc
 50
350.4106188485
 51
359.9948346149
  0
ARC
  5
59F
330
1F
100
AcDbEntity
  8
0
  6
Continuous
 62
     7
370
    25
100
AcDbCircle
 10
1846.1737635272
 20
203.3364186263
 30
0.0
 40
4.54311686482612
100
AcDbArc
 50
179.9923089115
 51
188.8556333341
  0
ARC
  5
5A0
330
1F
100
AcDbEntity
  8
0
  6
Continuous
 62
     7
370
    25
100
AcDbCircle
 10
1868.5765737555
 20
203.3373814076
 30
0.0
 40
4.204068289581065
100
AcDbArc
 50
350.4104058183
 51
359.9951899475
  0
ARC
  5
5A1
330
1F
100
AcDbEntity
  8
0
  6
Continuous
 62
     7
370
    25
100
AcDbCircle
 10
1868.584693282
 20
203.3373814076
 30
0.0
 40
4.204068289617216
100
AcDbArc
 50
180.0048100525
 51
189.5895941816
  0
ARC
  5
5A2
330
1F
100
AcDbEntity
  8
0
  6
Continuous
 62
     7
370
    25
100
AcDbCircle
 10
1846.1796746989
 20
203.337295005
 30
0.0
 40
4.550980023040805
100
AcDbArc
 50
351.1486238538
 51
359.9966443958
  0
DIMENSION
  5
5A3
330
1F
100
AcDbEntity
  8
FORMAT
100
AcDbDimension
  2
_D_32
 10
1765.1399755302
 20
203.3370275106
 30
0.0
 11
1765.1399755302
 21
143.3479582243
 31
0.0
 70
   160
  1
<>
 71
     2
 42
-1.0
  3
SLDDIMSTYLE5
100
AcDbAlignedDimension
 13
1817.6582605816
 23
192.8370275106
 33
0.0
 14
1846.1806400276
 24
203.3370275106
 34
0.0
 50
90.0
100
AcDbRotatedDimension
  0
DIMENSION
  5
5AF
330
1F
100
AcDbEntity
  8
FORMAT
100
AcDbDimension
  2
_D_33
 10
1723.6549450358
 20
309.7370275106
 30
0.0
 11
1723.6549450358
 21
256.5370275106
 31
0.0
 70
   160
  1
<>
 71
     2
 42
-1.0
  3
SLDDIMSTYLE9
100
AcDbAlignedDimension
 13
1838.1306400276
 23
203.3370275106
 33
0.0
 14
1838.1306400276
 24
309.7370275106
 34
0.0
 50
90.0
100
AcDbRotatedDimension
  0
MTEXT
  5
5BA
330
1F
100
AcDbEntity
  8
FORMAT
100
AcDbMText
 10
1849.0036444013
 20
418.9351470958
 30
0.0
 40
35.0
 41
0.0
 71
     2
 72
     1
  1
C (1 : 5)
  7
SLDTEXTSTYLE0
 73
     1
 44
1.0
  0
INSERT
  5
5C6
330
1F
100
AcDbEntity
  8
FORMAT
100
AcDbBlockReference
  2
SW_CENTERMARKSYMBOL_12
 10
1846.1806507088
 20
203.3370284708
 30
0.0
  0
INSERT
  5
5D2
330
1F
100
AcDbEntity
  8
FORMAT
100
AcDbBlockReference
  2
SW_CENTERMARKSYMBOL_13
 10
1846.1806507088
 20
309.7370198341
 30
0.0
  0
ENDSEC
  0
SECTION
  2
OBJECTS
  0
DICTIONARY
  5
C
330
0
100
AcDbDictionary
281
     1
  3
ACAD_GROUP
350
D
  3
ACAD_LAYOUT
350
1A
  3
ACAD_MLINESTYLE
350
17
  3
ACAD_PLOTSETTINGS
350
19
  3
ACAD_PLOTSTYLENAME
350
E
  3
ACAD_SCALELIST
350
47
  3
DWGPROPS
350
5D3
  0
DICTIONARY
  5
D
102
{ACAD_REACTORS
330
C
102
}
330
C
100
AcDbDictionary
281
     1
  0
DICTIONARY
  5
1A
102
{ACAD_REACTORS
330
C
102
}
330
C
100
AcDbDictionary
281
     1
  3
Layout1
350
1E
  3
Layout2
350
26
  3
Model
350
22
  0
DICTIONARY
  5
17
102
{ACAD_REACTORS
330
C
102
}
330
C
100
AcDbDictionary
281
     1
  3
Standard
350
18
  0
DICTIONARY
  5
19
102
{ACAD_REACTORS
330
C
102
}
330
C
100
AcDbDictionary
281
     1
  0
ACDBDICTIONARYWDFLT
  5
E
102
{ACAD_REACTORS
330
C
102
}
330
C
100
AcDbDictionary
281
     1
  3
Normal
350
F
100
AcDbDictionaryWithDefault
340
F
  0
DICTIONARY
  5
47
102
{ACAD_REACTORS
330
C
102
}
330
C
100
AcDbDictionary
281
     1
  3
A0
350
48
  3
A1
350
49
  3
A2
350
4A
  3
A3
350
4B
  3
A4
350
4C
  3
A5
350
4D
  3
A6
350
4E
  3
A7
350
4F
  3
A8
350
50
  3
A9
350
51
  3
B0
350
52
  3
B1
350
53
  3
B2
350
54
  3
B3
350
55
  3
B4
350
56
  3
B5
350
57
  3
B6
350
58
  3
B7
350
59
  3
B8
350
5A
  3
B9
350
5B
  3
C0
350
5C
  3
C1
350
5D
  3
C2
350
5E
  3
C3
350
5F
  3
C4
350
60
  3
C5
350
61
  3
C6
350
62
  3
C7
350
63
  3
C8
350
64
  3
C9
350
65
  3
D0
350
66
  3
D1
350
67
  3
D2
350
68
  0
XRECORD
  5
5D3
102
{ACAD_REACTORS
330
C
102
}
330
C
100
AcDbXrecord
280
     1
  1
DWGPROPS COOKIE
  2

  3

  4

  6

  7

  8
l.eckardt
  9

300
=
301
=
302
=
303
=
304
=
305
=
306
=
307
=
308
=
309
=
 40
0.0
 41
2460077.378481296
 42
2460077.378487095
  1

 90
        0
  0
LAYOUT
  5
1E
102
{ACAD_REACTORS
330
1A
102
}
330
1A
100
AcDbPlotSettings
  1

  2
none_device
  4

  6

 40
0.0
 41
0.0
 42
0.0
 43
0.0
 44
0.0
 45
0.0
 46
0.0
 47
0.0
 48
0.0
 49
0.0
140
0.0
141
0.0
142
1.0
143
1.0
 70
   688
 72
     1
 73
     0
 74
     5
  7

 75
    16
147
1.0
148
0.0
149
0.0
100
AcDbLayout
  1
Layout1
 70
     1
 71
     1
 10
0.0
 20
0.0
 11
420.0
 21
297.0
 12
0.0
 22
0.0
 32
0.0
 14
1.0000000000E+20
 24
1.0000000000E+20
 34
1.0000000000E+20
 15
-1.0000000000E+20
 25
-1.0000000000E+20
 35
-1.0000000000E+20
146
0.0
 13
0.0
 23
0.0
 33
0.0
 16
1.0
 26
0.0
 36
0.0
 17
0.0
 27
1.0
 37
0.0
 76
     0
330
1B
  0
LAYOUT
  5
26
102
{ACAD_REACTORS
330
1A
102
}
330
1A
100
AcDbPlotSettings
  1

  2
none_device
  4

  6

 40
0.0
 41
0.0
 42
0.0
 43
0.0
 44
0.0
 45
0.0
 46
0.0
 47
0.0
 48
0.0
 49
0.0
140
0.0
141
0.0
142
1.0
143
1.0
 70
   688
 72
     1
 73
     0
 74
     5
  7

 75
    16
147
1.0
148
0.0
149
0.0
100
AcDbLayout
  1
Layout2
 70
     1
 71
     2
 10
0.0
 20
0.0
 11
0.0
 21
0.0
 12
0.0
 22
0.0
 32
0.0
 14
0.0
 24
0.0
 34
0.0
 15
0.0
 25
0.0
 35
0.0
146
0.0
 13
0.0
 23
0.0
 33
0.0
 16
1.0
 26
0.0
 36
0.0
 17
0.0
 27
1.0
 37
0.0
 76
     0
330
23
  0
LAYOUT
  5
22
102
{ACAD_REACTORS
330
1A
102
}
330
1A
100
AcDbPlotSettings
  1

  2
none_device
  4
Letter_(8.50_x_11.00_Inches)
  6

 40
6.35
 41
6.35
 42
6.35000508
 43
6.35000508
 44
215.9
 45
279.4
 46
0.0
 47
0.0
 48
0.0
 49
0.0
140
0.0
141
0.0
142
1.0
143
1.0
 70
  1712
 72
     1
 73
     0
 74
     0
  7

 75
     0
147
1.0
148
0.0
149
0.0
100
AcDbLayout
  1
Model
 70
     1
 71
     0
 10
0.0
 20
0.0
 11
2940.0
 21
2079.0
 12
0.0
 22
0.0
 32
0.0
 14
0.0
 24
0.0
 34
0.0
 15
2940.0
 25
2079.0
 35
0.0
146
0.0
 13
0.0
 23
0.0
 33
0.0
 16
1.0
 26
0.0
 36
0.0
 17
0.0
 27
1.0
 37
0.0
 76
     0
330
1F
331
29
  0
MLINESTYLE
  5
18
102
{ACAD_REACTORS
330
17
102
}
330
17
100
AcDbMlineStyle
  2
Standard
 70
     0
  3

 62
   256
 51
90.0
 52
90.0
 71
     2
 49
0.5
 62
   256
  6
BYLAYER
 49
-0.5
 62
   256
  6
BYLAYER
  0
ACDBPLACEHOLDER
  5
F
102
{ACAD_REACTORS
330
E
102
}
330
E
  0
SCALE
  5
48
102
{ACAD_REACTORS
330
47
102
}
330
47
100
AcDbScale
 70
     0
300
1:1
140
1.0
141
1.0
290
     1
  0
SCALE
  5
49
102
{ACAD_REACTORS
330
47
102
}
330
47
100
AcDbScale
 70
     0
300
1:2
140
1.0
141
2.0
290
     0
  0
SCALE
  5
4A
102
{ACAD_REACTORS
330
47
102
}
330
47
100
AcDbScale
 70
     0
300
1:4
140
1.0
141
4.0
290
     0
  0
SCALE
  5
4B
102
{ACAD_REACTORS
330
47
102
}
330
47
100
AcDbScale
 70
     0
300
1:5
140
1.0
141
5.0
290
     0
  0
SCALE
  5
4C
102
{ACAD_REACTORS
330
47
102
}
330
47
100
AcDbScale
 70
     0
300
1:8
140
1.0
141
8.0
290
     0
  0
SCALE
  5
4D
102
{ACAD_REACTORS
330
47
102
}
330
47
100
AcDbScale
 70
     0
300
1:10
140
1.0
141
10.0
290
     0
  0
SCALE
  5
4E
102
{ACAD_REACTORS
330
47
102
}
330
47
100
AcDbScale
 70
     0
300
1:16
140
1.0
141
16.0
290
     0
  0
SCALE
  5
4F
102
{ACAD_REACTORS
330
47
102
}
330
47
100
AcDbScale
 70
     0
300
1:20
140
1.0
141
20.0
290
     0
  0
SCALE
  5
50
102
{ACAD_REACTORS
330
47
102
}
330
47
100
AcDbScale
 70
     0
300
1:30
140
1.0
141
30.0
290
     0
  0
SCALE
  5
51
102
{ACAD_REACTORS
330
47
102
}
330
47
100
AcDbScale
 70
     0
300
1:40
140
1.0
141
40.0
290
     0
  0
SCALE
  5
52
102
{ACAD_REACTORS
330
47
102
}
330
47
100
AcDbScale
 70
     0
300
1:50
140
1.0
141
50.0
290
     0
  0
SCALE
  5
53
102
{ACAD_REACTORS
330
47
102
}
330
47
100
AcDbScale
 70
     0
300
1:100
140
1.0
141
100.0
290
     0
  0
SCALE
  5
54
102
{ACAD_REACTORS
330
47
102
}
330
47
100
AcDbScale
 70
     0
300
2:1
140
2.0
141
1.0
290
     0
  0
SCALE
  5
55
102
{ACAD_REACTORS
330
47
102
}
330
47
100
AcDbScale
 70
     0
300
4:1
140
4.0
141
1.0
290
     0
  0
SCALE
  5
56
102
{ACAD_REACTORS
330
47
102
}
330
47
100
AcDbScale
 70
     0
300
8:1
140
8.0
141
1.0
290
     0
  0
SCALE
  5
57
102
{ACAD_REACTORS
330
47
102
}
330
47
100
AcDbScale
 70
     0
300
10:1
140
10.0
141
1.0
290
     0
  0
SCALE
  5
58
102
{ACAD_REACTORS
330
47
102
}
330
47
100
AcDbScale
 70
     0
300
100:1
140
100.0
141
1.0
290
     0
  0
SCALE
  5
59
102
{ACAD_REACTORS
330
47
102
}
330
47
100
AcDbScale
 70
     0
300
1/128" = 1'-0"
140
0.0078125
141
12.0
290
     0
  0
SCALE
  5
5A
102
{ACAD_REACTORS
330
47
102
}
330
47
100
AcDbScale
 70
     0
300
1/64" = 1'-0"
140
0.015625
141
12.0
290
     0
  0
SCALE
  5
5B
102
{ACAD_REACTORS
330
47
102
}
330
47
100
AcDbScale
 70
     0
300
1/32" = 1'-0"
140
0.03125
141
12.0
290
     0
  0
SCALE
  5
5C
102
{ACAD_REACTORS
330
47
102
}
330
47
100
AcDbScale
 70
     0
300
1/16" = 1'-0"
140
0.0625
141
12.0
290
     0
  0
SCALE
  5
5D
102
{ACAD_REACTORS
330
47
102
}
330
47
100
AcDbScale
 70
     0
300
3/32" = 1'-0"
140
0.09375
141
12.0
290
     0
  0
SCALE
  5
5E
102
{ACAD_REACTORS
330
47
102
}
330
47
100
AcDbScale
 70
     0
300
1/8" = 1'-0"
140
0.125
141
12.0
290
     0
  0
SCALE
  5
5F
102
{ACAD_REACTORS
330
47
102
}
330
47
100
AcDbScale
 70
     0
300
3/16" = 1'-0"
140
0.1875
141
12.0
290
     0
  0
SCALE
  5
60
102
{ACAD_REACTORS
330
47
102
}
330
47
100
AcDbScale
 70
     0
300
1/4" = 1'-0"
140
0.25
141
12.0
290
     0
  0
SCALE
  5
61
102
{ACAD_REACTORS
330
47
102
}
330
47
100
AcDbScale
 70
     0
300
3/8" = 1'-0"
140
0.375
141
12.0
290
     0
  0
SCALE
  5
62
102
{ACAD_REACTORS
330
47
102
}
330
47
100
AcDbScale
 70
     0
300
1/2" = 1'-0"
140
0.5
141
12.0
290
     0
  0
SCALE
  5
63
102
{ACAD_REACTORS
330
47
102
}
330
47
100
AcDbScale
 70
     0
300
3/4" = 1'-0"
140
0.75
141
12.0
290
     0
  0
SCALE
  5
64
102
{ACAD_REACTORS
330
47
102
}
330
47
100
AcDbScale
 70
     0
300
1" = 1'-0"
140
1.0
141
12.0
290
     0
  0
SCALE
  5
65
102
{ACAD_REACTORS
330
47
102
}
330
47
100
AcDbScale
 70
     0
300
1-1/2" = 1'-0"
140
1.5
141
12.0
290
     0
  0
SCALE
  5
66
102
{ACAD_REACTORS
330
47
102
}
330
47
100
AcDbScale
 70
     0
300
3" = 1'-0"
140
3.0
141
12.0
290
     0
  0
SCALE
  5
67
102
{ACAD_REACTORS
330
47
102
}
330
47
100
AcDbScale
 70
     0
300
6" = 1'-0"
140
6.0
141
12.0
290
     0
  0
SCALE
  5
68
102
{ACAD_REACTORS
330
47
102
}
330
47
100
AcDbScale
 70
     0
300
1'-0" = 1'-0"
140
12.0
141
12.0
290
     0
  0
ENDSEC
  0
EOF
